Tags
Language
Tags

The Alan Parsons Project - The Instrumental Works (1988) {Japan 1st Press}

Posted By: popsakov
The Alan Parsons Project - The Instrumental Works (1988) {Japan 1st Press}

The Alan Parsons Project - The Instrumental Works (1988) {Japan 1st Press}
EAC Rip | FLAC (Img) + Cue + Log ~ 265 Mb | MP3 CBR320 ~ 110 Mb
Covers Included | 00:44:03 | RAR 5% Recovery
Art Rock, Progressive Rock, Electronic | Arista / BMG Victor Inc. #A32D-68

Instrumental Works collects ten of The Alan Parsons Project's best musical pieces and acts as a wonderful journey through some of this group's most innovative material. Although famous for his concepts, Alan Parsons is equally renowned for his illustrious mood-invoking instrumentals that helped create atmosphere on all of his albums. These movements can easily be taken away from their master albums without losing their grandeur and charm, unlike his vocal works that act as pieces in a thematic puzzle and are better left within their conceptual domain. Both intricacy and subtlety are depicted here, with selections such as "I Robot," "Paseo de Gracia," and "Hawkeye." The all-encompassing "Mammagamma" from Eye in the Sky is wisely included as well, as is the peculiar "Urbania," one of the best tracks from Stereotomy. Noticeably missed, on the other hand, are two of their finest instrumentals in "Lucifer" and the short but stunning "Sirius." Even without these pieces, Instrumental Works spotlights Parsons' fine employment of musical diversity through his keyboard and guitar manipulation, while at the same time the music's simplicity is admirably felt. These selections are an entertaining jaunt across Parsons' non-vocal material.

~ Mike DeGagne, All Music
The Alan Parsons Project - The Instrumental Works (1988) {Japan 1st Press}


***************

The Alan Parsons Project - The Instrumental Works (1988) {Japan 1st Press}

The Alan Parsons Project - The Instrumental Works (1988) {Japan 1st Press}

Track List:

01. Pipeline [0:03:58.43]
02. Where's The Walrus [0:07:25.60]
03. I Robot [0:06:02.57]
04. Mammagamma [0:03:34.38]
05. Hawkeye [0:03:49.35]
06. Voyager [0:02:15.70]
07. Paseo De Gracia [0:03:45.55]
08. Urbania [0:04:59.05]
09. The Gold Bug [0:04:30.10]
10. Genesis Ch. 1 V. 32 [0:03:41.02]

Exact Audio Copy V1.3 from 2. September 2016

EAC extraction logfile from 5. July 2019, 16:10

The Alan Parsons Project / The Instrumental Works [A32D-68]

Used drive : HL-DT-STBD-RE BH10LS38 Adapter: 1 ID: 0

Read mode : Secure
Utilize accurate stream : Yes
Defeat audio cache : Yes
Make use of C2 pointers : No

Read offset correction : 667
Overread into Lead-In and Lead-Out : No
Fill up missing offset samples with silence : Yes
Delete leading and trailing silent blocks : No
Null samples used in CRC calculations : Yes
Used interface : Native Win32 interface for Win NT & 2000

Used output format : User Defined Encoder
Selected bitrate : 128 kBit/s
Quality : High
Add ID3 tag : No
Command line compressor : C:\Program Files (x86)\Exact Audio Copy\Flac\flac.exe
Additional command line options : -V -8 -T "Date=%year%" -T "Genre=%genre%" %source%


TOC of the extracted CD

Track | Start | Length | Start sector | End sector
––––––––––––––––––––––––––––-
1 | 0:00.37 | 3:58.43 | 37 | 17929
2 | 3:59.05 | 7:25.60 | 17930 | 51364
3 | 11:24.65 | 6:02.57 | 51365 | 78571
4 | 17:27.47 | 3:34.38 | 78572 | 94659
5 | 21:02.10 | 3:49.35 | 94660 | 111869
6 | 24:51.45 | 2:15.70 | 111870 | 122064
7 | 27:07.40 | 3:45.55 | 122065 | 138994
8 | 30:53.20 | 4:59.05 | 138995 | 161424
9 | 35:52.25 | 4:30.10 | 161425 | 181684
10 | 40:22.35 | 3:41.02 | 181685 | 198261


Range status and errors

Selected range

Filename D:\Rips by Alder\The Alan Parsons Project - The Instrumental Works [A32D-68].wav

Peak level 98.0 %
Extraction speed 7.4 X
Range quality 100.0 %
Test CRC CDE74E78
Copy CRC CDE74E78
Copy OK

No errors occurred


AccurateRip summary

Track 1 accurately ripped (confidence 6) [A66DF448] (AR v2)
Track 2 accurately ripped (confidence 6) [30DEC3DB] (AR v2)
Track 3 accurately ripped (confidence 6) [FD0CF06F] (AR v2)
Track 4 accurately ripped (confidence 6) [C34DF0E1] (AR v2)
Track 5 accurately ripped (confidence 6) [7D8F7D51] (AR v2)
Track 6 accurately ripped (confidence 6) [DB8BDD98] (AR v2)
Track 7 accurately ripped (confidence 6) [6579B7FF] (AR v2)
Track 8 accurately ripped (confidence 6) [F23EFCC0] (AR v2)
Track 9 accurately ripped (confidence 6) [40EB7335] (AR v2)
Track 10 accurately ripped (confidence 6) [FA923F47] (AR v2)

All tracks accurately ripped

End of status report

–– CUETools DB Plugin V2.1.6

[CTDB TOCID: Yhh3cDXycevS1jI5Qk3gEfzed9E-] found
Submit result: Yhh3cDXycevS1jI5Qk3gEfzed9E- has been confirmed
Track | CTDB Status
1 | (9/9) Accurately ripped
2 | (9/9) Accurately ripped
3 | (9/9) Accurately ripped
4 | (9/9) Accurately ripped
5 | (9/9) Accurately ripped
6 | (9/9) Accurately ripped
7 | (9/9) Accurately ripped
8 | (9/9) Accurately ripped
9 | (9/9) Accurately ripped
10 | (9/9) Accurately ripped


==== Log checksum EB6F84D9D0663E9C068427CEC009C095586480462312CA85E8386567D3D547A9 ====

[CUETools log; Date: 09.07.2019 18:25:11; Version: 2.1.6]
Pregap length 00:00:37.
[CTDB TOCID: Yhh3cDXycevS1jI5Qk3gEfzed9E-] found.
Track | CTDB Status
1 | (10/10) Accurately ripped
2 | (10/10) Accurately ripped
3 | (10/10) Accurately ripped
4 | (10/10) Accurately ripped
5 | (10/10) Accurately ripped
6 | (10/10) Accurately ripped
7 | (10/10) Accurately ripped
8 | (10/10) Accurately ripped
9 | (10/10) Accurately ripped
10 | (10/10) Accurately ripped
[AccurateRip ID: 0011a702-008a552c-860a530a] found.
Track [ CRC | V2 ] Status
01 [57452212|a66df448] (2+6/8) Accurately ripped
02 [1e4148a8|30dec3db] (2+6/8) Accurately ripped
03 [1017e917|fd0cf06f] (2+6/8) Accurately ripped
04 [8d3cea63|c34df0e1] (2+6/8) Accurately ripped
05 [98e93509|7d8f7d51] (2+6/8) Accurately ripped
06 [c32e710f|db8bdd98] (2+6/8) Accurately ripped
07 [4ec2f896|6579b7ff] (2+6/8) Accurately ripped
08 [b0a6be7d|f23efcc0] (2+6/8) Accurately ripped
09 [1a5636d0|40eb7335] (2+6/8) Accurately ripped
10 [bc783b97|fa923f47] (2+6/8) Accurately ripped

Track Peak [ CRC32 ] [W/O NULL] [ LOG ]
– 98,0 [CDE74E78] [4A98F32D] CRC32
01 97,5 [9DFF311D] [3D730A01]
02 95,7 [6F19BF39] [672B05AF]
03 86,2 [EE462948] [A2FC7612]
04 84,5 [48388B19] [1776E800]
05 98,0 [B7F5F7A5] [3D8A7226]
06 84,2 [34281F2D] [3FCE75D7]
07 97,9 [23C4ECC6] [6CA01B5A]
08 83,3 [BA13F8C2] [474EFB17]
09 95,5 [E35B81A1] [5051BEA2]
10 82,0 [CF9277B0] [11A9152E]

The Alan Parsons Project - The Instrumental Works (1988) {Japan 1st Press}


All thanks go to Alder

>>> Alan Parsons in my Blog <<<

DOWNLOAD: