Subcategories
Tags
Language
Tags

The Allman Brothers Band - Trouble No More: 50th Anniversary Collection (2020)

Posted By: popsakov
The Allman Brothers Band - Trouble No More: 50th Anniversary Collection (2020)

The Allman Brothers Band - Trouble No More: 50th Anniversary Collection (2020)
EAC Rip | FLAC (Tracks) + Cue + m3u + Log ~ 2,65 Gb | Full Scans ~ 1,18 Gb | 06:34:51 | RAR 5% Recovery
Southern Rock, Blues Rock, Boogie Rock | Mercury Records / Universal Music #B0030771-02 QS01

Though it appears in the aftermath of their dissolution in 2014, and the deaths of both actual Allman brothers, Duane and Gregg, this 50th anniversary retrospective box set is arguably the only career overview of the band one can call representative. Arranged over ten LPs or five compact discs, Trouble No More examines in depth each incarnation and stage of the pioneering rockers. It convincingly formulates the argument that no other American band accomplished more musically (especially live) by seamlessly marrying rock, blues, jazz, and R&B to each other and to extended improvisation.

This set compiles 61 Allman Brothers Band classics, live performances, and rarities – including seven previously unreleased tracks – all painstakingly remastered, with and a hefty 88-page book full of photos and a lengthy historical essay by ABB historian John Lynskey that recaps all 13 incarnations of the band's lineup. Lynskey co-produced the set with fellow ABB authorities Bill Levenson and Kirk West. Sequenced chronologically, the music and its accompanying visuals offer a detailed, rounded portrait of this legendary band at their best in all incarnations. It forever puts to bed the argument that after Brothers and Sisters in 1972 they were done creatively until Warren Haynes signed up for their second re-formation in 1989. The set is bookended by versions of the Muddy Waters-penned title track. Disc one is an unreleased studio demo from 1969, while disc five's electrifying closer is taken from the farewell shows at the Beacon Theater. The demo is interesting, mainly for the brief, raw interplay between guitarists Dickey Betts and Duane Allman. Some listeners may be surprised to find only the studio version of "Whipping Post" here, but given how many long jams are included, it's a small omission; besides, "In Memory of Elizabeth Reed" from the same Fillmore East concerts is included. There is a previously unissued version of "Mountain Jam" from the Watkins Glenn Music Festival in 1973 that has never been issued before either. At just over 12 minutes, it's nowhere near as long as the one from Eat a Peach, but it does offer the Chuck Leavell version of the band with Betts, Gregg, Jaimoe, Butch Trucks, and bassist Lamar Williams. at their best with three special guests: guitarists Robbie Robertson, Jerry Garcia, and Bob Weir! There are excellent choices from the albums Win Lose or Draw and Enlightened Rogues (otherwise spotty documents) that showcase Betts' fine songwriting on "High Falls," Crazy Love," "Pegasus," and "Can't Take It with You," co-composed with actor Don Johnson.

The final disc houses most of the unreleased material, all of it cut live during the Peach Records years, between 2000-2014. The ten-minute read of Fenton Robinson's "Loan Me a Dime" with Derek Trucks and Jimmy Herring on guitars is one of two tunes with this lineup, who offer up their own take on the tune that Duane played on for Boz Scaggs' self-titled debut in 1969. Likewise a 1999 show, with Betts and Jack Pearson on guitars, delivers a read of the latter's "I'm Not Crying" and features the composer's impassioned vocals. While Trouble No More is almost certainly for hardcore fans only (given its cost and [beautifully] assembled excess), it is also the only Allman Brothers Band compilation ultimately worth owning for those same enthusiasts.

~ Thom Jurek, All Music

***************

Track List CD1 - The Capricorn Years 1969-1979 Part I:

01. Trouble No More [Demo] [3:33]
02. Don't Want You No More [2:25]
03. It's Not My Cross to Bear [5:04]
04. Dreams [7:22]
05. Whipping Post [5:20]
06. I'm Gonna Move to the Outskirts of Town [Live at Ludlow Garage, April 11, 1970] [9:18]
07. Midnight Rider [3:00]
08. Revival [4:07]
09. Don't Keep Me Wonderin' [3:32]
10. Hoochie Coochie Man [4:59]
11. Please Call Home [4:03]
12. Statesboro Blues [Live at Fillmore East, March 13, 1971] [4:21]
13. Stormy Monday [Live at Fillmore East, March 13, 1971] [8:52]
14. In Memory of Elizabeth Reed [Live at Fillmore East, March 12, 1971] [13:09]

Exact Audio Copy V1.3 from 2. September 2016

EAC extraction logfile from 3. March 2020, 21:54

The Allman Brothers Band / Trouble No More: 50th Anniversary Collection (Disc 1)

Used drive : ASUS BW-12D1S-U Adapter: 1 ID: 0

Read mode : Secure
Utilize accurate stream : Yes
Defeat audio cache : Yes
Make use of C2 pointers : No

Read offset correction : 667
Overread into Lead-In and Lead-Out : No
Fill up missing offset samples with silence : Yes
Delete leading and trailing silent blocks : No
Null samples used in CRC calculations : Yes
Used interface : Native Win32 interface for Win NT & 2000
Gap handling : Appended to previous track

Used output format : User Defined Encoder
Selected bitrate : 1024 kBit/s
Quality : High
Add ID3 tag : No
Command line compressor : C:\Program Files (x86)\Exact Audio Copy\FLAC\FLAC.EXE
Additional command line options : -V -8 -T "Genre=%genre%" -T "Artist=%artist%" -T "Title=%title%" -T "Album=%albumtitle%" -T "Date=%year%" -T "Tracknumber=%tracknr%" -T "Comment=%comment%" %source%


TOC of the extracted CD

Track | Start | Length | Start sector | End sector
––––––––––––––––––––––––––––-
1 | 0:00.00 | 3:33.33 | 0 | 16007
2 | 3:33.33 | 2:24.69 | 16008 | 26876
3 | 5:58.27 | 5:03.71 | 26877 | 49672
4 | 11:02.23 | 7:21.43 | 49673 | 82790
5 | 18:23.66 | 5:19.49 | 82791 | 106764
6 | 23:43.40 | 9:18.17 | 106765 | 148631
7 | 33:01.57 | 2:59.65 | 148632 | 162121
8 | 36:01.47 | 4:07.26 | 162122 | 180672
9 | 40:08.73 | 3:32.30 | 180673 | 196602
10 | 43:41.28 | 4:58.39 | 196603 | 218991
11 | 48:39.67 | 4:03.24 | 218992 | 237240
12 | 52:43.16 | 4:21.26 | 237241 | 256841
13 | 57:04.42 | 8:51.38 | 256842 | 296704
14 | 65:56.05 | 13:08.51 | 296705 | 355855


Track 1

Filename E:\Torrents of Autumn\Allman Brothers Band, the [2020] Trouble No More~ 50th Anniversary Collection (5-CD set)\Disc 1~ The Capricorn Years 1969 - 1979 Part I\01. Trouble No More [Demo].wav

Pre-gap length 0:00:02.00

Peak level 83.6 %
Extraction speed 4.3 X
Track quality 99.9 %
Test CRC 51942D8E
Copy CRC 51942D8E
Copy OK

Track 2

Filename E:\Torrents of Autumn\Allman Brothers Band, the [2020] Trouble No More~ 50th Anniversary Collection (5-CD set)\Disc 1~ The Capricorn Years 1969 - 1979 Part I\02. Don't Want You No More.wav

Peak level 97.6 %
Extraction speed 4.9 X
Track quality 100.0 %
Test CRC 818B0B6D
Copy CRC 818B0B6D
Copy OK

Track 3

Filename E:\Torrents of Autumn\Allman Brothers Band, the [2020] Trouble No More~ 50th Anniversary Collection (5-CD set)\Disc 1~ The Capricorn Years 1969 - 1979 Part I\03. It's Not My Cross to Bear.wav

Peak level 97.2 %
Extraction speed 5.9 X
Track quality 100.0 %
Test CRC FE17A595
Copy CRC FE17A595
Copy OK

Track 4

Filename E:\Torrents of Autumn\Allman Brothers Band, the [2020] Trouble No More~ 50th Anniversary Collection (5-CD set)\Disc 1~ The Capricorn Years 1969 - 1979 Part I\04. Dreams.wav

Peak level 97.1 %
Extraction speed 6.1 X
Track quality 99.9 %
Test CRC DA3B07FC
Copy CRC DA3B07FC
Copy OK

Track 5

Filename E:\Torrents of Autumn\Allman Brothers Band, the [2020] Trouble No More~ 50th Anniversary Collection (5-CD set)\Disc 1~ The Capricorn Years 1969 - 1979 Part I\05. Whipping Post.wav

Peak level 97.9 %
Extraction speed 7.0 X
Track quality 100.0 %
Test CRC 5342BC59
Copy CRC 5342BC59
Copy OK

Track 6

Filename E:\Torrents of Autumn\Allman Brothers Band, the [2020] Trouble No More~ 50th Anniversary Collection (5-CD set)\Disc 1~ The Capricorn Years 1969 - 1979 Part I\06. I'm Gonna Move to the Outskirts of Town [Live at Ludlow Garage, April 11, 1970].w

Peak level 96.7 %
Extraction speed 7.8 X
Track quality 100.0 %
Test CRC 1D5A9DB1
Copy CRC 1D5A9DB1
Copy OK

Track 7

Filename E:\Torrents of Autumn\Allman Brothers Band, the [2020] Trouble No More~ 50th Anniversary Collection (5-CD set)\Disc 1~ The Capricorn Years 1969 - 1979 Part I\07. Midnight Rider.wav

Peak level 97.2 %
Extraction speed 7.3 X
Track quality 100.0 %
Test CRC 9B213D13
Copy CRC 9B213D13
Copy OK

Track 8

Filename E:\Torrents of Autumn\Allman Brothers Band, the [2020] Trouble No More~ 50th Anniversary Collection (5-CD set)\Disc 1~ The Capricorn Years 1969 - 1979 Part I\08. Revival.wav

Peak level 98.9 %
Extraction speed 6.9 X
Track quality 99.9 %
Test CRC F533B43B
Copy CRC F533B43B
Copy OK

Track 9

Filename E:\Torrents of Autumn\Allman Brothers Band, the [2020] Trouble No More~ 50th Anniversary Collection (5-CD set)\Disc 1~ The Capricorn Years 1969 - 1979 Part I\09. Don't Keep Me Wonderin'.wav

Peak level 97.9 %
Extraction speed 7.9 X
Track quality 100.0 %
Test CRC B0A867B4
Copy CRC B0A867B4
Copy OK

Track 10

Filename E:\Torrents of Autumn\Allman Brothers Band, the [2020] Trouble No More~ 50th Anniversary Collection (5-CD set)\Disc 1~ The Capricorn Years 1969 - 1979 Part I\10. Hoochie Coochie Man.wav

Peak level 100.0 %
Extraction speed 8.5 X
Track quality 100.0 %
Test CRC DE9A5E85
Copy CRC DE9A5E85
Copy OK

Track 11

Filename E:\Torrents of Autumn\Allman Brothers Band, the [2020] Trouble No More~ 50th Anniversary Collection (5-CD set)\Disc 1~ The Capricorn Years 1969 - 1979 Part I\11. Please Call Home.wav

Peak level 97.5 %
Extraction speed 7.5 X
Track quality 99.9 %
Test CRC FB00877B
Copy CRC FB00877B
Copy OK

Track 12

Filename E:\Torrents of Autumn\Allman Brothers Band, the [2020] Trouble No More~ 50th Anniversary Collection (5-CD set)\Disc 1~ The Capricorn Years 1969 - 1979 Part I\12. Statesboro Blues [Live at Fillmore East, March 13, 1971].wav

Peak level 97.3 %
Extraction speed 8.7 X
Track quality 100.0 %
Test CRC 2CE51271
Copy CRC 2CE51271
Copy OK

Track 13

Filename E:\Torrents of Autumn\Allman Brothers Band, the [2020] Trouble No More~ 50th Anniversary Collection (5-CD set)\Disc 1~ The Capricorn Years 1969 - 1979 Part I\13. Stormy Monday [Live at Fillmore East, March 13, 1971].wav

Peak level 97.5 %
Extraction speed 9.1 X
Track quality 99.9 %
Test CRC 0B0A8503
Copy CRC 0B0A8503
Copy OK

Track 14

Filename E:\Torrents of Autumn\Allman Brothers Band, the [2020] Trouble No More~ 50th Anniversary Collection (5-CD set)\Disc 1~ The Capricorn Years 1969 - 1979 Part I\14. In Memory of Elizabeth Reed [Live at Fillmore East, March 12, 1971].wav

Peak level 97.0 %
Extraction speed 9.9 X
Track quality 100.0 %
Test CRC BA3D7ADC
Copy CRC BA3D7ADC
Copy OK

No errors occurred

End of status report

–– CUETools DB Plugin V2.1.6

[CTDB TOCID: cvaEWdNaL5sj4ixJIHbqfT6D4MI-] found
Submit result: cvaEWdNaL5sj4ixJIHbqfT6D4MI- has been confirmed
Track | CTDB Status
1 | (4/4) Accurately ripped
2 | (4/4) Accurately ripped
3 | (4/4) Accurately ripped
4 | (4/4) Accurately ripped
5 | (4/4) Accurately ripped
6 | (4/4) Accurately ripped
7 | (4/4) Accurately ripped
8 | (4/4) Accurately ripped
9 | (4/4) Accurately ripped
10 | (4/4) Accurately ripped
11 | (4/4) Accurately ripped
12 | (4/4) Accurately ripped
13 | (4/4) Accurately ripped
14 | (4/4) Accurately ripped


==== Log checksum 0995F79F97BB91E9DA3A046710EDE50700472A302683CE64469C5FC0958C6B9F ====

Track List CD2 - The Capricorn Years 1969–1979 Part II:

01. One Way Out [Live at Fillmore East, June 27, 1971] [4:59]
02. You Don't Love Me - Soul Serenade [Live at A&R Studios, August 26, 1971] [19:26]
03. Hot 'Lanta [Live at A&R Studios, August 26, 1971] [6:08]
04. Stand Back [3:26]
05. Melissa [3:54]
06. Blue Sky [5:11]
07. Ain't Wastin Time No More [Live at Mar Y Sol Festival, Puerto Rico, April 2, … [4:45]
08. Wasted Words [4:21]
09. Ramblin' Man [4:48]
10. Southbound [5:11]
11. Jessica [7:29]
12. Early Morning Blues [Outtake] [9:28]

Exact Audio Copy V1.3 from 2. September 2016

EAC extraction logfile from 3. March 2020, 22:56

The Allman Brothers Band / Trouble No More: 50th Anniversary Collection (Disc 2)

Used drive : ASUS BW-12D1S-U Adapter: 1 ID: 0

Read mode : Secure
Utilize accurate stream : Yes
Defeat audio cache : Yes
Make use of C2 pointers : No

Read offset correction : 667
Overread into Lead-In and Lead-Out : No
Fill up missing offset samples with silence : Yes
Delete leading and trailing silent blocks : No
Null samples used in CRC calculations : Yes
Used interface : Native Win32 interface for Win NT & 2000
Gap handling : Appended to previous track

Used output format : User Defined Encoder
Selected bitrate : 1024 kBit/s
Quality : High
Add ID3 tag : No
Command line compressor : C:\Program Files (x86)\Exact Audio Copy\FLAC\FLAC.EXE
Additional command line options : -V -8 -T "Genre=%genre%" -T "Artist=%artist%" -T "Title=%title%" -T "Album=%albumtitle%" -T "Date=%year%" -T "Tracknumber=%tracknr%" -T "Comment=%comment%" %source%


TOC of the extracted CD

Track | Start | Length | Start sector | End sector
––––––––––––––––––––––––––––-
1 | 0:00.00 | 4:58.46 | 0 | 22395
2 | 4:58.46 | 19:26.12 | 22396 | 109857
3 | 24:24.58 | 6:08.37 | 109858 | 137494
4 | 30:33.20 | 3:25.67 | 137495 | 152936
5 | 33:59.12 | 3:54.36 | 152937 | 170522
6 | 37:53.48 | 5:10.67 | 170523 | 193839
7 | 43:04.40 | 4:45.33 | 193840 | 215247
8 | 47:49.73 | 4:20.48 | 215248 | 234795
9 | 52:10.46 | 4:47.68 | 234796 | 256388
10 | 56:58.39 | 5:10.50 | 256389 | 279688
11 | 62:09.14 | 7:29.28 | 279689 | 313391
12 | 69:38.42 | 9:28.36 | 313392 | 356027


Track 1

Filename E:\Torrents of Autumn\Allman Brothers Band, the [2020] Trouble No More~ 50th Anniversary Collection (5-CD set)\Disc 2~ The Capricorn Years 1969 - 1979 Part II\01. One Way Out [Live at Fillmore East, June 27, 1971].wav

Pre-gap length 0:00:02.00

Peak level 97.2 %
Extraction speed 5.2 X
Track quality 100.0 %
Test CRC 171D676D
Copy CRC 171D676D
Copy OK

Track 2

Filename E:\Torrents of Autumn\Allman Brothers Band, the [2020] Trouble No More~ 50th Anniversary Collection (5-CD set)\Disc 2~ The Capricorn Years 1969 - 1979 Part II\02. You Don't Love Me - Soul Serenade [Live at A&R Studios, August 26, 1971].wav

Peak level 71.5 %
Extraction speed 7.0 X
Track quality 100.0 %
Test CRC 38E0FCC8
Copy CRC 38E0FCC8
Copy OK

Track 3

Filename E:\Torrents of Autumn\Allman Brothers Band, the [2020] Trouble No More~ 50th Anniversary Collection (5-CD set)\Disc 2~ The Capricorn Years 1969 - 1979 Part II\03. Hot 'Lanta [Live at A&R Studios, August 26, 1971].wav

Peak level 68.8 %
Extraction speed 7.0 X
Track quality 99.9 %
Test CRC 1B1B1936
Copy CRC 1B1B1936
Copy OK

Track 4

Filename E:\Torrents of Autumn\Allman Brothers Band, the [2020] Trouble No More~ 50th Anniversary Collection (5-CD set)\Disc 2~ The Capricorn Years 1969 - 1979 Part II\04. Stand Back.wav

Peak level 96.7 %
Extraction speed 7.4 X
Track quality 100.0 %
Test CRC 1417311A
Copy CRC 1417311A
Copy OK

Track 5

Filename E:\Torrents of Autumn\Allman Brothers Band, the [2020] Trouble No More~ 50th Anniversary Collection (5-CD set)\Disc 2~ The Capricorn Years 1969 - 1979 Part II\05. Melissa.wav

Peak level 94.9 %
Extraction speed 7.7 X
Track quality 100.0 %
Test CRC BD63C9D9
Copy CRC BD63C9D9
Copy OK

Track 6

Filename E:\Torrents of Autumn\Allman Brothers Band, the [2020] Trouble No More~ 50th Anniversary Collection (5-CD set)\Disc 2~ The Capricorn Years 1969 - 1979 Part II\06. Blue Sky.wav

Peak level 96.7 %
Extraction speed 8.2 X
Track quality 100.0 %
Test CRC 8FCF920F
Copy CRC 8FCF920F
Copy OK

Track 7

Filename E:\Torrents of Autumn\Allman Brothers Band, the [2020] Trouble No More~ 50th Anniversary Collection (5-CD set)\Disc 2~ The Capricorn Years 1969 - 1979 Part II\07. Ain't Wastin Time No More [Live at Mar Y Sol Festival, Puerto Rico, April 2, 197

Peak level 74.1 %
Extraction speed 8.3 X
Track quality 100.0 %
Test CRC A8974C58
Copy CRC A8974C58
Copy OK

Track 8

Filename E:\Torrents of Autumn\Allman Brothers Band, the [2020] Trouble No More~ 50th Anniversary Collection (5-CD set)\Disc 2~ The Capricorn Years 1969 - 1979 Part II\08. Wasted Words.wav

Peak level 80.6 %
Extraction speed 8.5 X
Track quality 100.0 %
Test CRC ECF5E311
Copy CRC ECF5E311
Copy OK

Track 9

Filename E:\Torrents of Autumn\Allman Brothers Band, the [2020] Trouble No More~ 50th Anniversary Collection (5-CD set)\Disc 2~ The Capricorn Years 1969 - 1979 Part II\09. Ramblin' Man.wav

Peak level 97.0 %
Extraction speed 8.9 X
Track quality 100.0 %
Test CRC DA6EB1B9
Copy CRC DA6EB1B9
Copy OK

Track 10

Filename E:\Torrents of Autumn\Allman Brothers Band, the [2020] Trouble No More~ 50th Anniversary Collection (5-CD set)\Disc 2~ The Capricorn Years 1969 - 1979 Part II\10. Southbound.wav

Peak level 96.6 %
Extraction speed 9.2 X
Track quality 100.0 %
Test CRC DE2CAFB4
Copy CRC DE2CAFB4
Copy OK

Track 11

Filename E:\Torrents of Autumn\Allman Brothers Band, the [2020] Trouble No More~ 50th Anniversary Collection (5-CD set)\Disc 2~ The Capricorn Years 1969 - 1979 Part II\11. Jessica.wav

Peak level 98.4 %
Extraction speed 10.0 X
Track quality 100.0 %
Test CRC 74BCD7D1
Copy CRC 74BCD7D1
Copy OK

Track 12

Filename E:\Torrents of Autumn\Allman Brothers Band, the [2020] Trouble No More~ 50th Anniversary Collection (5-CD set)\Disc 2~ The Capricorn Years 1969 - 1979 Part II\12. Early Morning Blues [Outtake].wav

Peak level 96.6 %
Extraction speed 10.5 X
Track quality 100.0 %
Test CRC 0D7DC554
Copy CRC 0D7DC554
Copy OK

No errors occurred

End of status report

–– CUETools DB Plugin V2.1.6

[CTDB TOCID: tDKMeauuzjE1vo7O4dGBElVZhn0-] found
Submit result: tDKMeauuzjE1vo7O4dGBElVZhn0- has been uploaded
Track | CTDB Status
1 | (1/1) Accurately ripped
2 | (1/1) Accurately ripped
3 | (1/1) Accurately ripped
4 | (1/1) Accurately ripped
5 | (1/1) Accurately ripped
6 | (1/1) Accurately ripped
7 | (0/1) No match
8 | (1/1) Accurately ripped
9 | (1/1) Accurately ripped
10 | (1/1) Accurately ripped
11 | (1/1) Accurately ripped
12 | (1/1) Accurately ripped


==== Log checksum 7F8CB754487AE394067D06660038FB860F1C3BB3F254B0BCED7C1C1BB3157FD5 ====

Track List CD3 - The Capricorn Years 1969–1979 Part III / The Arista Years 1980–1981:

01. Come and Go Blues [Live at Watkins Glen, New York, July 28, 1973] [5:02]
02. Mountain Jam [Live at Watkins Glen, New York, July 28, 1973] [12:19]
03. Can't Lose What You Never Had [5:50]
04. Win, Lose or Draw [4:45]
05. High Falls [14:28]
06. Crazy Love [3:44]
07. Can't Take It with You [3:35]
08. Pegasus [7:33]
09. Just Ain't Easy [Live at Merriweather Post Pavilion, July 19, 1979] [5:04]
10. Hell & High Water [3:37]
11. Angeline [3:44]
12. Leavin' [3:46]
13. Never Knew How Much (I Needed You) [4:30]

Exact Audio Copy V1.3 from 2. September 2016

EAC extraction logfile from 4. March 2020, 3:02

The Allman Brothers Band / Trouble No More: 50th Anniversary Collection (Disc 3)

Used drive : ASUS BW-12D1S-U Adapter: 1 ID: 0

Read mode : Secure
Utilize accurate stream : Yes
Defeat audio cache : Yes
Make use of C2 pointers : No

Read offset correction : 667
Overread into Lead-In and Lead-Out : No
Fill up missing offset samples with silence : Yes
Delete leading and trailing silent blocks : No
Null samples used in CRC calculations : Yes
Used interface : Native Win32 interface for Win NT & 2000
Gap handling : Appended to previous track

Used output format : User Defined Encoder
Selected bitrate : 1024 kBit/s
Quality : High
Add ID3 tag : No
Command line compressor : C:\Program Files (x86)\Exact Audio Copy\FLAC\FLAC.EXE
Additional command line options : -V -8 -T "Genre=%genre%" -T "Artist=%artist%" -T "Title=%title%" -T "Album=%albumtitle%" -T "Date=%year%" -T "Tracknumber=%tracknr%" -T "Comment=%comment%" %source%


TOC of the extracted CD

Track | Start | Length | Start sector | End sector
––––––––––––––––––––––––––––-
1 | 0:00.00 | 5:02.12 | 0 | 22661
2 | 5:02.12 | 12:18.62 | 22662 | 78073
3 | 17:20.74 | 5:50.34 | 78074 | 104357
4 | 23:11.33 | 4:45.36 | 104358 | 125768
5 | 27:56.69 | 14:28.16 | 125769 | 190884
6 | 42:25.10 | 3:44.10 | 190885 | 207694
7 | 46:09.20 | 3:34.46 | 207695 | 223790
8 | 49:43.66 | 7:32.63 | 223791 | 257753
9 | 57:16.54 | 5:04.25 | 257754 | 280578
10 | 62:21.04 | 3:36.43 | 280579 | 296821
11 | 65:57.47 | 3:44.14 | 296822 | 313635
12 | 69:41.61 | 3:46.09 | 313636 | 330594
13 | 73:27.70 | 4:30.08 | 330595 | 350852


Track 1

Filename E:\Torrents of Autumn\Allman Brothers Band, the [2020] Trouble No More~ 50th Anniversary Collection (5-CD set)\Disc 3~ The Arista Years 1980 - 1981\01. Come and Go Blues [Live at Watkins Glen, New York, July 28, 1973].wav

Pre-gap length 0:00:02.00

Peak level 96.8 %
Extraction speed 5.2 X
Track quality 100.0 %
Test CRC 7D9E1D17
Copy CRC 7D9E1D17
Copy OK

Track 2

Filename E:\Torrents of Autumn\Allman Brothers Band, the [2020] Trouble No More~ 50th Anniversary Collection (5-CD set)\Disc 3~ The Arista Years 1980 - 1981\02. Mountain Jam [Live at Watkins Glen, New York, July 28, 1973].wav

Peak level 96.8 %
Extraction speed 6.5 X
Track quality 100.0 %
Test CRC 22060048
Copy CRC 22060048
Copy OK

Track 3

Filename E:\Torrents of Autumn\Allman Brothers Band, the [2020] Trouble No More~ 50th Anniversary Collection (5-CD set)\Disc 3~ The Arista Years 1980 - 1981\03. Can't Lose What You Never Had.wav

Peak level 97.1 %
Extraction speed 7.0 X
Track quality 100.0 %
Test CRC 101D559B
Copy CRC 101D559B
Copy OK

Track 4

Filename E:\Torrents of Autumn\Allman Brothers Band, the [2020] Trouble No More~ 50th Anniversary Collection (5-CD set)\Disc 3~ The Arista Years 1980 - 1981\04. Win, Lose or Draw.wav

Peak level 98.0 %
Extraction speed 7.3 X
Track quality 100.0 %
Test CRC DAB2DFC0
Copy CRC DAB2DFC0
Copy OK

Track 5

Filename E:\Torrents of Autumn\Allman Brothers Band, the [2020] Trouble No More~ 50th Anniversary Collection (5-CD set)\Disc 3~ The Arista Years 1980 - 1981\05. High Falls.wav

Peak level 98.3 %
Extraction speed 8.4 X
Track quality 100.0 %
Test CRC D1284C65
Copy CRC D1284C65
Copy OK

Track 6

Filename E:\Torrents of Autumn\Allman Brothers Band, the [2020] Trouble No More~ 50th Anniversary Collection (5-CD set)\Disc 3~ The Arista Years 1980 - 1981\06. Crazy Love.wav

Peak level 98.1 %
Extraction speed 8.0 X
Track quality 100.0 %
Test CRC 9C38266F
Copy CRC 9C38266F
Copy OK

Track 7

Filename E:\Torrents of Autumn\Allman Brothers Band, the [2020] Trouble No More~ 50th Anniversary Collection (5-CD set)\Disc 3~ The Arista Years 1980 - 1981\07. Can't Take It with You.wav

Peak level 99.0 %
Extraction speed 8.2 X
Track quality 100.0 %
Test CRC 62112BE3
Copy CRC 62112BE3
Copy OK

Track 8

Filename E:\Torrents of Autumn\Allman Brothers Band, the [2020] Trouble No More~ 50th Anniversary Collection (5-CD set)\Disc 3~ The Arista Years 1980 - 1981\08. Pegasus.wav

Peak level 97.2 %
Extraction speed 8.6 X
Track quality 99.9 %
Test CRC 5B884E8C
Copy CRC 5B884E8C
Copy OK

Track 9

Filename E:\Torrents of Autumn\Allman Brothers Band, the [2020] Trouble No More~ 50th Anniversary Collection (5-CD set)\Disc 3~ The Arista Years 1980 - 1981\09. Just Ain't Easy [Live at Merriweather Post Pavilion, July 19, 1979].wav

Peak level 97.1 %
Extraction speed 9.3 X
Track quality 100.0 %
Test CRC 74C4D196
Copy CRC 74C4D196
Copy OK

Track 10

Filename E:\Torrents of Autumn\Allman Brothers Band, the [2020] Trouble No More~ 50th Anniversary Collection (5-CD set)\Disc 3~ The Arista Years 1980 - 1981\10. Hell & High Water.wav

Peak level 94.0 %
Extraction speed 9.0 X
Track quality 100.0 %
Test CRC 6EACC5D3
Copy CRC 6EACC5D3
Copy OK

Track 11

Filename E:\Torrents of Autumn\Allman Brothers Band, the [2020] Trouble No More~ 50th Anniversary Collection (5-CD set)\Disc 3~ The Arista Years 1980 - 1981\11. Angeline.wav

Peak level 96.4 %
Extraction speed 9.2 X
Track quality 100.0 %
Test CRC ED64943B
Copy CRC ED64943B
Copy OK

Track 12

Filename E:\Torrents of Autumn\Allman Brothers Band, the [2020] Trouble No More~ 50th Anniversary Collection (5-CD set)\Disc 3~ The Arista Years 1980 - 1981\12. Leavin'.wav

Peak level 97.6 %
Extraction speed 8.3 X
Track quality 99.9 %
Test CRC DEAF39D0
Copy CRC DEAF39D0
Copy OK

Track 13

Filename E:\Torrents of Autumn\Allman Brothers Band, the [2020] Trouble No More~ 50th Anniversary Collection (5-CD set)\Disc 3~ The Arista Years 1980 - 1981\13. Never Knew How Much (I Needed You).wav

Peak level 99.3 %
Extraction speed 9.8 X
Track quality 100.0 %
Test CRC 19826473
Copy CRC 19826473
Copy OK

No errors occurred

End of status report

–– CUETools DB Plugin V2.1.6

[CTDB TOCID: fXfH2uIdefL7uFgcYSxWBIB9P3g-] found
Submit result: already submitted
Track | CTDB Status
1 | (5/5) Accurately ripped
2 | (5/5) Accurately ripped
3 | (5/5) Accurately ripped
4 | (5/5) Accurately ripped
5 | (5/5) Accurately ripped
6 | (5/5) Accurately ripped
7 | (5/5) Accurately ripped
8 | (5/5) Accurately ripped
9 | (5/5) Accurately ripped
10 | (5/5) Accurately ripped
11 | (5/5) Accurately ripped
12 | (5/5) Accurately ripped
13 | (5/5) Accurately ripped


==== Log checksum DF93DA50E5CF42C7D094400B6EFD06C871776D20C7E75CF4B53D9A85E41F757C ====

Track List CD4 - The Epic Years 1990–2000:

01. Good Clean Fun [5:09]
02. Seven Turns [5:07]
03. Gambler's Roll [6:45]
04. End of the Line [4:40]
05. Nobody Knows [10:59]
06. Low Down Dirty Mean [Live at the Beacon Theatre, March 10 & 11, 1992] [7:23]
07. Come On into My Kitchen [Live at Radio & Records Convention, Los Angeles, Jun… [5:06]
08. Sailin' 'Cross the Devil's Sea [4:57]
09. Back Where It All Begins [9:10]
10. Soulshine [6:44]
11. No One to Run With [6:00]
12. I'm Not Crying [Live At The Beacon Theatre, March 13, 1999] [7:46]

Exact Audio Copy V1.3 from 2. September 2016

EAC extraction logfile from 4. March 2020, 0:03

The Allman Brothers Band / Trouble No More: 50th Anniversary Collection (Disc 4)

Used drive : ASUS BW-12D1S-U Adapter: 1 ID: 0

Read mode : Secure
Utilize accurate stream : Yes
Defeat audio cache : Yes
Make use of C2 pointers : No

Read offset correction : 667
Overread into Lead-In and Lead-Out : No
Fill up missing offset samples with silence : Yes
Delete leading and trailing silent blocks : No
Null samples used in CRC calculations : Yes
Used interface : Native Win32 interface for Win NT & 2000
Gap handling : Appended to previous track

Used output format : User Defined Encoder
Selected bitrate : 1024 kBit/s
Quality : High
Add ID3 tag : No
Command line compressor : C:\Program Files (x86)\Exact Audio Copy\FLAC\FLAC.EXE
Additional command line options : -V -8 -T "Genre=%genre%" -T "Artist=%artist%" -T "Title=%title%" -T "Album=%albumtitle%" -T "Date=%year%" -T "Tracknumber=%tracknr%" -T "Comment=%comment%" %source%


TOC of the extracted CD

Track | Start | Length | Start sector | End sector
––––––––––––––––––––––––––––-
1 | 0:00.00 | 5:08.45 | 0 | 23144
2 | 5:08.45 | 5:06.40 | 23145 | 46134
3 | 10:15.10 | 6:44.74 | 46135 | 76508
4 | 17:00.09 | 4:39.69 | 76509 | 97502
5 | 21:40.03 | 10:59.26 | 97503 | 146953
6 | 32:39.29 | 7:22.65 | 146954 | 180168
7 | 40:02.19 | 5:06.34 | 180169 | 203152
8 | 45:08.53 | 4:56.38 | 203153 | 225390
9 | 50:05.16 | 9:10.18 | 225391 | 266658
10 | 59:15.34 | 6:44.07 | 266659 | 296965
11 | 65:59.41 | 5:59.51 | 296966 | 323941
12 | 71:59.17 | 7:45.64 | 323942 | 358880


Track 1

Filename E:\Torrents of Autumn\Allman Brothers Band, the [2020] Trouble No More~ 50th Anniversary Collection (5-CD set)\Disc 4~ The Epic Years 1990 - 2000\01. The Allman Brothers Band. Good Clean Fun.wav

Pre-gap length 0:00:02.00

Peak level 97.9 %
Extraction speed 5.2 X
Track quality 100.0 %
Test CRC D50B286A
Copy CRC D50B286A
Copy OK

Track 2

Filename E:\Torrents of Autumn\Allman Brothers Band, the [2020] Trouble No More~ 50th Anniversary Collection (5-CD set)\Disc 4~ The Epic Years 1990 - 2000\02. The Allman Brothers Band. Seven Turns.wav

Peak level 97.4 %
Extraction speed 5.7 X
Track quality 100.0 %
Test CRC 070194E4
Copy CRC 070194E4
Copy OK

Track 3

Filename E:\Torrents of Autumn\Allman Brothers Band, the [2020] Trouble No More~ 50th Anniversary Collection (5-CD set)\Disc 4~ The Epic Years 1990 - 2000\03. The Allman Brothers Band. Gambler's Roll.wav

Peak level 98.0 %
Extraction speed 6.4 X
Track quality 100.0 %
Test CRC 71CE5CD8
Copy CRC 71CE5CD8
Copy OK

Track 4

Filename E:\Torrents of Autumn\Allman Brothers Band, the [2020] Trouble No More~ 50th Anniversary Collection (5-CD set)\Disc 4~ The Epic Years 1990 - 2000\04. The Allman Brothers Band. End of the Line.wav

Peak level 100.0 %
Extraction speed 6.7 X
Track quality 100.0 %
Test CRC 9472D2D3
Copy CRC 9472D2D3
Copy OK

Track 5

Filename E:\Torrents of Autumn\Allman Brothers Band, the [2020] Trouble No More~ 50th Anniversary Collection (5-CD set)\Disc 4~ The Epic Years 1990 - 2000\05. The Allman Brothers Band. Nobody Knows.wav

Peak level 99.1 %
Extraction speed 7.4 X
Track quality 99.9 %
Test CRC 35A858C0
Copy CRC 35A858C0
Copy OK

Track 6

Filename E:\Torrents of Autumn\Allman Brothers Band, the [2020] Trouble No More~ 50th Anniversary Collection (5-CD set)\Disc 4~ The Epic Years 1990 - 2000\06. The Allman Brothers Band. Low Down Dirty Mean [Live at the Beacon Theatre, March 10 & 11, 199

Peak level 73.7 %
Extraction speed 7.6 X
Track quality 99.9 %
Test CRC C5454CC3
Copy CRC C5454CC3
Copy OK

Track 7

Filename E:\Torrents of Autumn\Allman Brothers Band, the [2020] Trouble No More~ 50th Anniversary Collection (5-CD set)\Disc 4~ The Epic Years 1990 - 2000\07. The Allman Brothers Band. Come On into My Kitchen [Live at Radio & Records Convention, Los An

Peak level 84.1 %
Extraction speed 8.2 X
Track quality 100.0 %
Test CRC CE293E52
Copy CRC CE293E52
Copy OK

Track 8

Filename E:\Torrents of Autumn\Allman Brothers Band, the [2020] Trouble No More~ 50th Anniversary Collection (5-CD set)\Disc 4~ The Epic Years 1990 - 2000\08. The Allman Brothers Band. Sailin' 'Cross the Devil's Sea.wav

Peak level 84.4 %
Extraction speed 8.3 X
Track quality 100.0 %
Test CRC 8D8D998B
Copy CRC 8D8D998B
Copy OK

Track 9

Filename E:\Torrents of Autumn\Allman Brothers Band, the [2020] Trouble No More~ 50th Anniversary Collection (5-CD set)\Disc 4~ The Epic Years 1990 - 2000\09. The Allman Brothers Band. Back Where It All Begins.wav

Peak level 90.0 %
Extraction speed 9.4 X
Track quality 100.0 %
Test CRC AB78E237
Copy CRC AB78E237
Copy OK

Track 10

Filename E:\Torrents of Autumn\Allman Brothers Band, the [2020] Trouble No More~ 50th Anniversary Collection (5-CD set)\Disc 4~ The Epic Years 1990 - 2000\10. The Allman Brothers Band. Soulshine.wav

Peak level 80.2 %
Extraction speed 9.4 X
Track quality 100.0 %
Test CRC CE9CF9FB
Copy CRC CE9CF9FB
Copy OK

Track 11

Filename E:\Torrents of Autumn\Allman Brothers Band, the [2020] Trouble No More~ 50th Anniversary Collection (5-CD set)\Disc 4~ The Epic Years 1990 - 2000\11. The Allman Brothers Band. No One to Run With.wav

Peak level 90.4 %
Extraction speed 9.7 X
Track quality 100.0 %
Test CRC 6ADD7829
Copy CRC 6ADD7829
Copy OK

Track 12

Filename E:\Torrents of Autumn\Allman Brothers Band, the [2020] Trouble No More~ 50th Anniversary Collection (5-CD set)\Disc 4~ The Epic Years 1990 - 2000\12. The Allman Brothers Band & Jack Pearson. I'm Not Crying [Live At The Beacon Theatre, March 13

Peak level 97.0 %
Extraction speed 10.3 X
Track quality 100.0 %
Test CRC 6D7072E9
Copy CRC 6D7072E9
Copy OK

No errors occurred

End of status report

–– CUETools DB Plugin V2.1.6

[CTDB TOCID: sbYz2XbXyMnCi7IrBb1TfSdNjLY-] found
Submit result: sbYz2XbXyMnCi7IrBb1TfSdNjLY- has been confirmed
Track | CTDB Status
1 | (3/3) Accurately ripped
2 | (3/3) Accurately ripped
3 | (3/3) Accurately ripped
4 | (3/3) Accurately ripped
5 | (3/3) Accurately ripped
6 | (3/3) Accurately ripped
7 | (3/3) Accurately ripped
8 | (3/3) Accurately ripped
9 | (3/3) Accurately ripped
10 | (3/3) Accurately ripped
11 | (3/3) Accurately ripped
12 | (3/3) Accurately ripped


==== Log checksum 45CA701BBBCD930D23306DFD8BDABC831B04FD7B33ABA2CE20EAC628868D2780 ====

Track List CD5 - The Peach Years 2000–2014:

01. Loan Me a Dime [Live at World Music Theatre, August 26, 2000] [10:05]
02. Desdemona [Live at the Beacon Theatre, March 25, 2001] [13:10]
03. High Cost of Low Living [7:51]
04. Old Before My Time [5:22]
05. Blue Sky[ Live at the Beacon Theatre, March 21, 2005] [12:04]
06. Little Martha [Live at the Beacon Theatre, March 21, 2005] [2:15]
07. Black Hearted Woman [Live at the Beacon Theatre, March 26, 2009] [11:58]
08. The Sky Is Crying [Live at the Beacon Theatre, October 28, 2014] [9:19]
09. Farewell Speeches [Live at the Beacon Theatre, October 28, 2014] [3:22]
10. Trouble No More [Live at the Beacon Theatre, October 28, 2014] [4:20]

Exact Audio Copy V1.3 from 2. September 2016

EAC extraction logfile from 4. March 2020, 0:55

The Allman Brothers Band / Trouble No More: 50th Anniversary Collection (Disc 5)

Used drive : ASUS BW-12D1S-U Adapter: 1 ID: 0

Read mode : Secure
Utilize accurate stream : Yes
Defeat audio cache : Yes
Make use of C2 pointers : No

Read offset correction : 667
Overread into Lead-In and Lead-Out : No
Fill up missing offset samples with silence : Yes
Delete leading and trailing silent blocks : No
Null samples used in CRC calculations : Yes
Used interface : Native Win32 interface for Win NT & 2000
Gap handling : Appended to previous track

Used output format : User Defined Encoder
Selected bitrate : 1024 kBit/s
Quality : High
Add ID3 tag : No
Command line compressor : C:\Program Files (x86)\Exact Audio Copy\FLAC\FLAC.EXE
Additional command line options : -V -8 -T "Genre=%genre%" -T "Artist=%artist%" -T "Title=%title%" -T "Album=%albumtitle%" -T "Date=%year%" -T "Tracknumber=%tracknr%" -T "Comment=%comment%" %source%


TOC of the extracted CD

Track | Start | Length | Start sector | End sector
––––––––––––––––––––––––––––-
1 | 0:00.00 | 10:04.58 | 0 | 45357
2 | 10:04.58 | 13:09.68 | 45358 | 104600
3 | 23:14.51 | 7:50.39 | 104601 | 139889
4 | 31:05.15 | 5:22.28 | 139890 | 164067
5 | 36:27.43 | 12:04.21 | 164068 | 218388
6 | 48:31.64 | 2:14.42 | 218389 | 228480
7 | 50:46.31 | 11:57.54 | 228481 | 282309
8 | 62:44.10 | 9:18.41 | 282310 | 324200
9 | 72:02.51 | 3:21.56 | 324201 | 339331
10 | 75:24.32 | 4:20.09 | 339332 | 358840


Track 1

Filename E:\Torrents of Autumn\Allman Brothers Band, the [2020] Trouble No More~ 50th Anniversary Collection (5-CD set)\Disc 5~ The Peach Years 2000 - 2014\01. Loan Me a Dime [Live at World Music Theatre, August 26, 2000].wav

Pre-gap length 0:00:02.00

Peak level 97.3 %
Extraction speed 5.8 X
Track quality 100.0 %
Test CRC B977C5D2
Copy CRC B977C5D2
Copy OK

Track 2

Filename E:\Torrents of Autumn\Allman Brothers Band, the [2020] Trouble No More~ 50th Anniversary Collection (5-CD set)\Disc 5~ The Peach Years 2000 - 2014\02. Desdemona [Live at the Beacon Theatre, March 25, 2001].wav

Peak level 98.4 %
Extraction speed 7.0 X
Track quality 100.0 %
Test CRC 84CA897C
Copy CRC 84CA897C
Copy OK

Track 3

Filename E:\Torrents of Autumn\Allman Brothers Band, the [2020] Trouble No More~ 50th Anniversary Collection (5-CD set)\Disc 5~ The Peach Years 2000 - 2014\03. High Cost of Low Living.wav

Peak level 83.0 %
Extraction speed 7.6 X
Track quality 100.0 %
Test CRC 9CEA0AF7
Copy CRC 9CEA0AF7
Copy OK

Track 4

Filename E:\Torrents of Autumn\Allman Brothers Band, the [2020] Trouble No More~ 50th Anniversary Collection (5-CD set)\Disc 5~ The Peach Years 2000 - 2014\04. Old Before My Time.wav

Peak level 95.1 %
Extraction speed 7.0 X
Track quality 99.9 %
Test CRC 7168D26F
Copy CRC 7168D26F
Copy OK

Track 5

Filename E:\Torrents of Autumn\Allman Brothers Band, the [2020] Trouble No More~ 50th Anniversary Collection (5-CD set)\Disc 5~ The Peach Years 2000 - 2014\05. Blue Sky[ Live at the Beacon Theatre, March 21, 2005].wav

Peak level 97.4 %
Extraction speed 8.8 X
Track quality 100.0 %
Test CRC D97A094C
Copy CRC D97A094C
Copy OK

Track 6

Filename E:\Torrents of Autumn\Allman Brothers Band, the [2020] Trouble No More~ 50th Anniversary Collection (5-CD set)\Disc 5~ The Peach Years 2000 - 2014\06. Little Martha [Live at the Beacon Theatre, March 21, 2005].wav

Peak level 58.9 %
Extraction speed 7.5 X
Track quality 100.0 %
Test CRC 4AE3FE0D
Copy CRC 4AE3FE0D
Copy OK

Track 7

Filename E:\Torrents of Autumn\Allman Brothers Band, the [2020] Trouble No More~ 50th Anniversary Collection (5-CD set)\Disc 5~ The Peach Years 2000 - 2014\07. Black Hearted Woman [Live at the Beacon Theatre, March 26, 2009].wav

Peak level 91.6 %
Extraction speed 9.5 X
Track quality 100.0 %
Test CRC 5DB4EE85
Copy CRC 5DB4EE85
Copy OK

Track 8

Filename E:\Torrents of Autumn\Allman Brothers Band, the [2020] Trouble No More~ 50th Anniversary Collection (5-CD set)\Disc 5~ The Peach Years 2000 - 2014\08. The Sky Is Crying [Live at the Beacon Theatre, October 28, 2014].wav

Peak level 95.2 %
Extraction speed 10.0 X
Track quality 100.0 %
Test CRC 748AB313
Copy CRC 748AB313
Copy OK

Track 9

Filename E:\Torrents of Autumn\Allman Brothers Band, the [2020] Trouble No More~ 50th Anniversary Collection (5-CD set)\Disc 5~ The Peach Years 2000 - 2014\09. Farewell Speeches [Live at the Beacon Theatre, October 28, 2014].wav

Peak level 93.9 %
Extraction speed 9.2 X
Track quality 100.0 %
Test CRC E4624E2F
Copy CRC E4624E2F
Copy OK

Track 10

Filename E:\Torrents of Autumn\Allman Brothers Band, the [2020] Trouble No More~ 50th Anniversary Collection (5-CD set)\Disc 5~ The Peach Years 2000 - 2014\10. Trouble No More [Live at the Beacon Theatre, October 28, 2014].wav

Peak level 82.5 %
Extraction speed 9.6 X
Track quality 100.0 %
Test CRC B8B95F33
Copy CRC B8B95F33
Copy OK

No errors occurred

End of status report

–– CUETools DB Plugin V2.1.6

[CTDB TOCID: nI8XxyfPchy1mnwz3e1FXY4TOBk-] found
Submit result: nI8XxyfPchy1mnwz3e1FXY4TOBk- has been confirmed
Track | CTDB Status
1 | (4/4) Accurately ripped
2 | (4/4) Accurately ripped
3 | (4/4) Accurately ripped
4 | (4/4) Accurately ripped
5 | (4/4) Accurately ripped
6 | (4/4) Accurately ripped
7 | (4/4) Accurately ripped
8 | (4/4) Accurately ripped
9 | (4/4) Accurately ripped
10 | (4/4) Accurately ripped


==== Log checksum FEEC3BABF67292ABCE1F16AF4FBB203EDBAE582383F0B361B423802A637FDABC ====

The Allman Brothers Band - Trouble No More: 50th Anniversary Collection (2020)


All thanks go to DoobieBro

>>> Allman Brothers in my Blog <<<

DOWNLOAD: