Tags
Language
Tags

The Animals - The Best Of The Animals (2000)

Posted By: popsakov
The Animals - The Best Of The Animals (2000)

The Animals - The Best Of The Animals (2000)
EAC Rip | FLAC (Img) + Cue + Log ~ 241 Mb | MP3 CBR320 ~ 166 Mb
Full Scans | 01:05:42 | RAR 5% Recovery
Blues Rock / Psychedelic Rock / Rhythm & Blues / British Blues / British Invasion
EMI Records / Gala Records #0946343505 2 5

One of the most important bands originating from England's R&B scene during the early '60s, the Animals were second only to the Rolling Stones in influence among R&B-based bands in the first wave of the British Invasion. The Animals formed in Newcastle upon Tyne in the early 1960s. The band moved to London upon finding fame in 1964. The Animals were known for their gritty, bluesy sound and deep-voiced frontman Eric Burdon, as exemplified by their signature song and transatlantic No. 1 hit single, "House of the Rising Sun", as well as by hits such as "We Gotta Get Out of This Place", "It's My Life", "I'm Crying" and "Don't Let Me Be Misunderstood". The band balanced tough, rock-edged pop singles against rhythm and blues-orientated album material and were part of the British Invasion of the US.

***************

The Animals - The Best Of The Animals (2000)

Track List:

01. The House Of The Rising Sun [1964] [4:31]
02. Don't Let Me Be Misunderstood [1964] [2:28]
03. We've Gotta Get Out Of This Place [1965] [3:14]
04. Roadrunner [1965] [2:49]
05. Baby Let Me Take You Home [1964] [2:21]
06. Club A Go Go [1965] [2:20]
07. Boom Boom [1964] [3:19]
08. Gonna Send You Back To Walker [1964] [2:28]
09. Dimples [1964] [2:51]
10. I'm Crying [1964] [2:47]
11. Talkin' 'Bout You (Full Version) [1964] [7:05]
12. I'm Mad Again [1964] [4:15]
13. I Believe To My Soul [1965] [3:24]
14. I Ain't Got You [1965] [2:29]
15. Bring It On Home To Me [1965] [2:43]
16. It's My Life [1965] [3:06]
17. Bright Lights Big City [1965] [2:55]
18. I'm Gonna Change The World [1965] [3:35]
19. Don't Bring Me Down [1966] [3:17]
20. Inside-Looking Out [1966] [3:45]

Exact Audio Copy V0.99 prebeta 5 from 4. May 2009

Отчёт EAC об извлечении, выполненном 26. декабря 2009, 21:31

The Animals / The Best Of The Animals

Дисковод: _NEC CD-RW NR-9100A Adapter: 1 ID: 1

Режим чтения : Достоверность
Использование точного потока : Да
Отключение кэша аудио : Да
Использование указателей C2 : Нет

Коррекция смещения при чтении : 685
Способность читать области Lead-in и Lead-out : Нет
Заполнение пропущенных сэмплов тишиной : Да
Удаление блоков с тишиной в начале и конце : Нет
При вычислениях CRC использовались нулевые сэмплы : Нет
Интерфейс : Встроенный Win32-интерфейс для Win NT/2000

Выходной формат : Пользовательский кодировщик
Выбранный битрейт : 768 kBit/s
Качество : Высокий
Добавление ID3-тэга : Нет
Утилита сжатия : D:\Program Files\Exact Audio Copy\FLAC\FLAC.EXE
Дополнительные параметры : -6 -V -T "ARTIST=%a" -T "TITLE=%t" -T "ALBUM=%g" -T "DATE=%y" -T "TRACKNUMBER=%n" -T "GENRE=%m" -T "COMMENT=%e" %s -o %d


TOC извлечённого CD

Трек | Старт | Длительность | Начальный сектор | Конечный сектор
––––––––––––––––––––––––––––––––––-
1 | 0:00.00 | 4:30.62 | 0 | 20311
2 | 4:30.62 | 2:28.00 | 20312 | 31411
3 | 6:58.62 | 3:14.00 | 31412 | 45961
4 | 10:12.62 | 2:48.70 | 45962 | 58631
5 | 13:01.57 | 2:20.70 | 58632 | 69201
6 | 15:22.52 | 2:20.23 | 69202 | 79724
7 | 17:43.00 | 3:18.50 | 79725 | 94624
8 | 21:01.50 | 2:28.35 | 94625 | 105759
9 | 23:30.10 | 2:51.37 | 105760 | 118621
10 | 26:21.47 | 2:47.20 | 118622 | 131166
11 | 29:08.67 | 7:04.38 | 131167 | 163004
12 | 36:13.30 | 4:15.20 | 163005 | 182149
13 | 40:28.50 | 3:24.32 | 182150 | 197481
14 | 43:53.07 | 2:28.38 | 197482 | 208619
15 | 46:21.45 | 2:42.62 | 208620 | 220831
16 | 49:04.32 | 3:06.08 | 220832 | 234789
17 | 52:10.40 | 2:54.52 | 234790 | 247891
18 | 55:05.17 | 3:34.50 | 247892 | 263991
19 | 58:39.67 | 3:16.68 | 263992 | 278759
20 | 61:56.60 | 3:45.15 | 278760 | 295649


Характеристики диапазона извлечения и сообщения об ошибках

Выбранный диапазон

Имя файла F:\E\The Animals - The Best Of The Animals.wav

Пиковый уровень 97.9 %
Качество диапазона 100.0 %
CRC копии 185B3399
Копирование… OK

Ошибок не произошло

Конец отчёта

The Animals - The Best Of The Animals (2000)


All thanks go to the original ripper(s) …

>>> The Animals in my Blog <<<

DOWNLOAD: