Subcategories
Tags
Language
Tags

The Beach Boys - Made In U.S.A. (1986)

Posted By: popsakov
The Beach Boys - Made In U.S.A. (1986)

The Beach Boys - Made In U.S.A. (1986)
EAC Rip | FLAC (Img) + Cue + Log ~ 396 Mb | MP3 CBR320 ~ 163 Mb
Full Scans | 01:04:12 | RAR 5% Recovery
Sunshine Pop, Pop Rock, Soft Rock, Surf | Capitol Records #CDP 7 46324 2

Made in U.S.A. is a 1986 double vinyl album (or one-CD) compilation of some of The Beach Boys' biggest successes. Released by their original record label, Capitol Records, it marked a brief return to the label, with whom The Beach Boys released one further album, 1989's Still Cruisin'. Featuring a number of their 1960s' classics, in addition to a sampling of their later hits, Made in U.S.A. also contains two new recordings, both produced by Terry Melcher. "Rock 'n' Roll to the Rescue" is a Mike Love/Melcher collaboration, and "California Dreamin'" is a cover of The Mamas & the Papas' late 1965 debut single. Both were released as singles and made the U.S. pop singles chart. A slow seller, Made in U.S.A. reached No. 96 in the U.S. and ultimately went double platinum there, though with other compilations now available, Made in U.S.A. has since gone out of print.

***************

The Beach Boys - Made In U.S.A. (1986)

The Beach Boys - Made In U.S.A. (1986)

Track List:

01. Surfin' Safari [2:06]
02. 409 [1:59]
03. Surfin' U.S.A. [2:28]
04. Be True To Your School [2:07]
05. Surfer Girl [2:24]
06. Dance, Dance, Dance [1:59]
07. Fun, Fun, Fun [2:16]
08. I Get Around [2:11]
09. Help Me Rhonda [2:46]
10. Don't Worry Baby [2:42]
11. California Girls [2:37]
12. When I Grow Up (To Be A Man) [2:01]
13. Barbara Ann [2:05]
14. Good Vibrations [3:36]
15. Heros And Villains [3:38]
16. Wouldn't It Be Nice [2:22]
17. Sloop John B. [2:56]
18. God Only Knows [2:49]
19. Caroline, No [2:18]
20. Do It Again [2:20]
21. Rock And Roll Music [2:29]
22. Come Go With Me [2:07]
23. Getcha Back [3:01]
24. Rock 'N' Roll To The Rescue [3:44]
25. California Dreamin' [3:12]

Exact Audio Copy V1.0 beta 3 from 29. August 2011

EAC extraction logfile from 16. January 2019, 21:02

Beach Boys / Made In U.S.A.

Used drive : PLEXTOR DVDR PX-740A Adapter: 0 ID: 0

Read mode : Secure
Utilize accurate stream : Yes
Defeat audio cache : Yes
Make use of C2 pointers : No

Read offset correction : 618
Overread into Lead-In and Lead-Out : No
Fill up missing offset samples with silence : Yes
Delete leading and trailing silent blocks : No
Null samples used in CRC calculations : Yes
Used interface : Native Win32 interface for Win NT & 2000

Used output format : Internal WAV Routines
Sample format : 44.100 Hz; 16 Bit; Stereo


TOC of the extracted CD

Track | Start | Length | Start sector | End sector
––––––––––––––––––––––––––––-
1 | 0:00.00 | 2:06.12 | 0 | 9461
2 | 2:06.12 | 1:59.10 | 9462 | 18396
3 | 4:05.22 | 2:27.63 | 18397 | 29484
4 | 6:33.10 | 2:07.02 | 29485 | 39011
5 | 8:40.12 | 2:23.45 | 39012 | 49781
6 | 11:03.57 | 1:58.38 | 49782 | 58669
7 | 13:02.20 | 2:16.05 | 58670 | 68874
8 | 15:18.25 | 2:11.32 | 68875 | 78731
9 | 17:29.57 | 2:45.58 | 78732 | 91164
10 | 20:15.40 | 2:42.20 | 91165 | 103334
11 | 22:57.60 | 2:36.55 | 103335 | 115089
12 | 25:34.40 | 2:01.05 | 115090 | 124169
13 | 27:35.45 | 2:04.45 | 124170 | 133514
14 | 29:40.15 | 3:36.25 | 133515 | 149739
15 | 33:16.40 | 3:37.57 | 149740 | 166071
16 | 36:54.22 | 2:22.28 | 166072 | 176749
17 | 39:16.50 | 2:56.00 | 176750 | 189949
18 | 42:12.50 | 2:48.42 | 189950 | 202591
19 | 45:01.17 | 2:17.50 | 202592 | 212916
20 | 47:18.67 | 2:19.53 | 212917 | 223394
21 | 49:38.45 | 2:28.50 | 223395 | 234544
22 | 52:07.20 | 2:07.05 | 234545 | 244074
23 | 54:14.25 | 3:01.20 | 244075 | 257669
24 | 57:15.45 | 3:44.20 | 257670 | 274489
25 | 60:59.65 | 3:11.52 | 274490 | 288866


Range status and errors

Selected range

Filename C:\MUSIC\CD Rips_J\Beach Boys\Beach Boys - Made In U.S.A..wav

Peak level 100.0 %
Extraction speed 9.5 X
Range quality 99.9 %
Test CRC F706FC62
Copy CRC F706FC62
Copy OK

No errors occurred


AccurateRip summary

Track 1 accurately ripped (confidence 11) [49C1034F] (AR v2)
Track 2 accurately ripped (confidence 10) [088ADFBA] (AR v2)
Track 3 accurately ripped (confidence 11) [8D2EE2BB] (AR v2)
Track 4 accurately ripped (confidence 10) [61A9670B] (AR v2)
Track 5 accurately ripped (confidence 10) [672319FE] (AR v2)
Track 6 accurately ripped (confidence 9) [A0FB62DD] (AR v2)
Track 7 accurately ripped (confidence 10) [51B8EB45] (AR v2)
Track 8 accurately ripped (confidence 10) [293E62EF] (AR v2)
Track 9 accurately ripped (confidence 11) [6CF7C812] (AR v2)
Track 10 accurately ripped (confidence 10) [C154552E] (AR v2)
Track 11 accurately ripped (confidence 10) [864260A3] (AR v2)
Track 12 accurately ripped (confidence 10) [177E0C98] (AR v2)
Track 13 accurately ripped (confidence 10) [ADAD86A4] (AR v2)
Track 14 accurately ripped (confidence 10) [75F08525] (AR v2)
Track 15 accurately ripped (confidence 10) [F0A6178A] (AR v2)
Track 16 accurately ripped (confidence 10) [D54A6E33] (AR v2)
Track 17 accurately ripped (confidence 11) [E4390506] (AR v2)
Track 18 accurately ripped (confidence 10) [4EC8940D] (AR v2)
Track 19 accurately ripped (confidence 10) [3034587A] (AR v2)
Track 20 accurately ripped (confidence 11) [B260DA97] (AR v2)
Track 21 accurately ripped (confidence 11) [1C52EA1E] (AR v2)
Track 22 accurately ripped (confidence 11) [22A7A55B] (AR v2)
Track 23 accurately ripped (confidence 11) [B78107BC] (AR v2)
Track 24 accurately ripped (confidence 11) [3DD40D39] (AR v2)
Track 25 accurately ripped (confidence 11) [EA06B9DD] (AR v2)

All tracks accurately ripped

End of status report

==== Log checksum C8D4E5DF911049C1ECBD4492BD740C08BBF1A864C45E815DE8AE18D2D9E8198E ====

[CUETools log; Date: 07.02.2019 1:37:27; Version: 2.1.6]
[CTDB TOCID: gbB_cFsZ1PhfjJcB8ZJiMZ7G5H4-] found.
Track | CTDB Status
1 | (134/138) Accurately ripped
2 | (135/138) Accurately ripped
3 | (136/138) Accurately ripped
4 | (133/138) Accurately ripped
5 | (132/138) Accurately ripped
6 | (134/138) Accurately ripped
7 | (134/138) Accurately ripped
8 | (133/138) Accurately ripped
9 | (135/138) Accurately ripped
10 | (136/138) Accurately ripped
11 | (133/138) Accurately ripped
12 | (135/138) Accurately ripped
13 | (134/138) Accurately ripped
14 | (134/138) Accurately ripped
15 | (134/138) Accurately ripped
16 | (135/138) Accurately ripped
17 | (133/138) Accurately ripped
18 | (134/138) Accurately ripped
19 | (135/138) Accurately ripped
20 | (132/138) Accurately ripped
21 | (134/138) Accurately ripped
22 | (133/138) Accurately ripped
23 | (131/138) Accurately ripped
24 | (130/138) Accurately ripped
25 | (132/138) Accurately ripped
[AccurateRip ID: 00360711-03dba1f5-710f0b19] found.
Track [ CRC | V2 ] Status
01 [0da3e1b7|49c1034f] (014+011/183) Accurately ripped
02 [b580b2a2|088adfba] (013+010/184) Accurately ripped
03 [aed8f10e|8d2ee2bb] (013+011/184) Accurately ripped
04 [7a4063e7|61a9670b] (012+010/183) Accurately ripped
05 [0739b9bd|672319fe] (012+010/183) Accurately ripped
06 [726d8514|a0fb62dd] (012+009/182) Accurately ripped
07 [590acdf8|51b8eb45] (013+010/185) Accurately ripped
08 [0adb4c75|293e62ef] (013+010/182) Accurately ripped
09 [bf7048fb|6cf7c812] (013+011/182) Accurately ripped
10 [6b970910|c154552e] (012+010/179) Accurately ripped
11 [b8c9e8c1|864260a3] (013+010/184) Accurately ripped
12 [0b33c2dc|177e0c98] (013+010/181) Accurately ripped
13 [d3cb1973|adad86a4] (013+010/184) Accurately ripped
14 [bf6676cd|75f08525] (012+010/183) Accurately ripped
15 [d6175d0d|f0a6178a] (011+010/179) Accurately ripped
16 [7127c32e|d54a6e33] (011+010/178) Accurately ripped
17 [7b525715|e4390506] (013+011/178) Accurately ripped
18 [1b3a5fce|4ec8940d] (012+010/178) Accurately ripped
19 [4caebf90|3034587a] (012+010/179) Accurately ripped
20 [2a2f6c9d|b260da97] (012+011/183) Accurately ripped
21 [76b40c85|1c52ea1e] (013+011/181) Accurately ripped
22 [8a2138c6|22a7a55b] (011+011/179) Accurately ripped
23 [6c056b88|b78107bc] (013+011/183) Accurately ripped
24 [0e434e3e|3dd40d39] (012+011/181) Accurately ripped
25 [723776fd|ea06b9dd] (012+011/173) Accurately ripped
Offsetted by 1670:
01 [79380bdb] (063/183) Accurately ripped
02 [ddcd464e] (064/184) Accurately ripped
03 [488adfa0] (064/184) Accurately ripped
04 [3e52c1c3] (063/183) Accurately ripped
05 [09386c51] (062/183) Accurately ripped
06 [593cf6ad] (064/182) Accurately ripped
07 [045998bd] (064/185) Accurately ripped
08 [93e0b419] (061/182) Accurately ripped
09 [470c0bcd] (061/182) Accurately ripped
10 [bd439450] (061/179) Accurately ripped
11 [52c3bd35] (063/184) Accurately ripped
12 [74b29176] (062/181) Accurately ripped
13 [04a0f6c2] (063/184) Accurately ripped
14 [c8c0a248] (064/183) Accurately ripped
15 [eecaf1df] (063/179) Accurately ripped
16 [2e6b67ea] (061/178) Accurately ripped
17 [39ae35ad] (060/178) Accurately ripped
18 [2d057c2c] (063/178) Accurately ripped
19 [80817898] (063/179) Accurately ripped
20 [9b8fc1ad] (064/183) Accurately ripped
21 [966ec851] (063/181) Accurately ripped
22 [f4248284] (063/179) Accurately ripped
23 [7c3ccc72] (064/183) Accurately ripped
24 [8b62b266] (063/181) Accurately ripped
25 [5ad9a13c] (059/173) Accurately ripped
Offsetted by -11:
01 [87427bf5] (000/183) No match (V2 was not tested)
02 [cab2c7bc] (000/184) No match (V2 was not tested)
03 [18387f6d] (000/184) No match (V2 was not tested)
04 [72be56a2] (000/183) No match (V2 was not tested)
05 [80150a48] (000/183) No match (V2 was not tested)
06 [0aff5b97] (000/182) No match (V2 was not tested)
07 [4f0f7c23] (000/185) No match (V2 was not tested)
08 [0dea6f3a] (000/182) No match (V2 was not tested)
09 [4b6c0a3a] (000/182) No match (V2 was not tested)
10 [e5d70c70] (000/179) No match (V2 was not tested)
11 [da426932] (000/184) No match (V2 was not tested)
12 [dc0c58dc] (000/181) No match (V2 was not tested)
13 [39cc1b01] (000/184) No match (V2 was not tested)
14 [84cfcff0] (000/183) No match (V2 was not tested)
15 [a06ddd4c] (000/179) No match (V2 was not tested)
16 [9206920d] (000/178) No match (V2 was not tested)
17 [d944b90c] (000/178) No match (V2 was not tested)
18 [7bfe04b7] (000/178) No match (V2 was not tested)
19 [33a938ac] (000/179) No match (V2 was not tested)
20 [81950955] (000/183) No match (V2 was not tested)
21 [cc08340f] (000/181) No match (V2 was not tested)
22 [d104fe7f] (000/179) No match (V2 was not tested)
23 [de7982c4] (000/183) No match (V2 was not tested)
24 [4c48e67b] (000/181) No match (V2 was not tested)
25 [f79a2b37] (000/173) No match (V2 was not tested)

Track Peak [ CRC32 ] [W/O NULL] [ LOG ]
– 100,0 [F706FC62] [C4FF8F48] CRC32
01 87,8 [2002A382] [EBB992B1]
02 83,0 [9A3A0CF8] [6F74D663]
03 95,5 [56EBB7FE] [4888313B]
04 75,2 [82EE0D5C] [5F978A79]
05 76,5 [24FAE5D6] [A0F2981A]
06 72,0 [8600CD50] [91C605B5]
07 67,4 [BD69CC40] [454D4ED9]
08 68,2 [B044CDF5] [475B0551]
09 83,3 [11A0ADAE] [DF3FD1A8]
10 67,8 [A16CDEE4] [543826A9]
11 87,9 [5E364D3D] [594341E2]
12 74,7 [39241B00] [77BBA1F2]
13 85,2 [E6B6D602] [6E31D77E]
14 78,3 [D88B299A] [A936374B]
15 77,0 [6EE75541] [4EC7F747]
16 69,1 [FA83F719] [23525306]
17 83,8 [0C6FC316] [395A2CE8]
18 66,7 [8C799663] [B114FB23]
19 65,8 [9B3EA431] [5C06643E]
20 100,0 [49D14BCB] [ECEC565F]
21 82,0 [51F59A1B] [538178A2]
22 93,2 [AEC69CF5] [7CBDAF3C]
23 85,1 [D9164EFC] [5580CB90]
24 65,1 [C432E912] [7694A7D5]
25 63,2 [157BE9B8] [359FF58A]

The Beach Boys - Made In U.S.A. (1986)


All thanks go to Juergen

>>> The Beach Boys in my Blog <<<

DOWNLOAD: