Subcategories
Tags
Language
Tags

The Beatles - Abbey Road (1969) {2019, The 50th Anniversary Super Deluxe Edition} Blu-Ray

Posted By: popsakov
The Beatles - Abbey Road (1969) {2019, The 50th Anniversary Super Deluxe Edition} Blu-Ray

The Beatles - Abbey Road (1969) {2019, The 50th Anniversary Super Deluxe Edition}
BD | MPEG-4 AVC Video, 15000 kbps, 1080p (16:9), 23.976 fps
LPCM 2.0, 96 kHz/24-bit, 4608 kbps | DTS-HD Master Audio 5.1, 96 kHz/24-bit, 7525 kbps
Dolby Atmos Audio 7.1, 48 kHz/24-bit, 13469 kbps
00:47:30 + 00:03:02 | ~ 16,8 Gb | RAR 5% Recovery
Rock | Apple Records #0602577921124

Conventional wisdom holds that the Beatles intended Abbey Road as a grand farewell, a suspicion seemingly confirmed by the elegiac note Paul McCartney strikes at the conclusion of its closing suite. It’s hard not to interpret “And in the end / the love you take / is equal to the love you make” as a summation not only of Abbey Road but perhaps of the group’s entire career, a lovely final sentiment. The truth is perhaps a bit messier than this. The Beatles had tentative plans to move forward after the September 1969 release of Abbey Road, plans that quickly fell apart at the dawn of the new decade, and while the existence of that goal calls into question the intentionality of the album as a finale, it changes not a thing about what a remarkable goodbye the record is. In many ways, Abbey Road stands apart from the rest of the Beatles’ catalog, an album that gains considerable strength from its lush, enveloping production—a recording so luxuriant, it glosses over aesthetic differences between the group’s main three songwriters and ties together a series of disconnected unfinished songs into a complete suite. Where Sgt. Pepper pioneered such mind-bending aural techniques, Abbey Road truly seized the possibilities of the studio and, in doing so, pointed the way forward to the album rock era of the 1970s. Many of the studio tricks arrive during that brilliant suite of songs, a sequence that lasts nearly a full side of an album. Here, McCartney’s playful eccentricity juts against John Lennon’s curdled cynicism, while the band thrills in sudden changes of mood and plays plenty of guitar, culminating in McCartney, Lennon, and George Harrison trading solos on “The End.” The depth of sonic detail within “You Never Give Me Your Money” and “She Came in Through the Window” provided ideas for entire subgenres of pop in the ’70s, but Abbey Road also contains a handful of the most enduring Beatles songs, each adding a new emotional maturity to their catalog. The subdued boogie of Lennon’s “Come Together” contains a sensuality previously unheard in the Beatles—it’s matched by “Because,” which may be the best showcase for the group’s harmonies—Harrison’s “Something” is a love ballad of unusual sensitivity, and his “Here Comes the Sun” is incandescent, perhaps his purest expression of joy. As good as these individual moments are, what makes Abbey Road transcendent is how the album is so much greater than the sum of its parts. A single song or segment can be dazzling, but having a succession of marvelous, occasionally intertwined moments is not only a marvel but indeed a summation of everything that made the Beatles great.

If the Anniversary Edition of Abbey Road may seem a bit underwhelming in comparison to its Sgt. Pepper and White Album companions, that speaks not to the quality of the reissue but the source material. Where the original stereo mixes of both Pepper and the White Album weren’t as considered as the original mono mixes, thereby giving producer Giles Martin the opportunity to replicate the feel of mono in a new stereo mix, Abbey Road was given a state-of-the-art stereo mix—one that pioneered many lush studio innovations that helped shape the sound of the 1970s. On the margins, the original mix sounded dated, but its enduring influence also meant that it wasn’t a ripe candidate for a radical new remix. Thankfully, Martin resists the urge to fiddle with Abbey Road. His new stereo mix feels like a fresh, vivid rendition of the original, one where the colors are bright and bold but not saturated. Listen closely and it’s possible to discern shifts in placement of the rhythm section, accentuated echo—or in the case of “Oh Darling,” an absence of echo—boosted harmonies, buried guitar lines, or a wider soundscape, but the remix is so absorbing, it doesn’t invite nitpicking.

The alternate takes, demos, studio sessions, and chatter that fill out the two bonus CDs also aren’t heavy on surprises. There is only one cut that could qualify as being unheard as a Beatles song—“Goodbye,” an acoustic demo of a sweet, poignant tune Paul McCartney wrote for Mary Hopkin—although it’s possible the “trial edit” of “The Long One,” aka the closing suite on the second side, may also count in this category. “The Long One” does insert “Her Majesty” into its original slot following “Mr. Mustard” and preceding “Polythene Pam,” a placement that sounds clumsy and only underscores that the Beatles’ original decision was their best decision. That’s the case with all the outtakes on Abbey Road: they’re interesting, but they ultimately confirm that the group put their best material on the final LP. Despite this, there are still plenty of small moments that make this Anniversary Edition worth hearing, whether it’s John Lennon’s raw rasp on “Come Together,” George Harrison pulling “Something” into shape on the studio demo, or Paul McCartney’s directions on “Maxwell’s Silver Hammer,” which sounds not quite as cloying stripped of its overdubs. Perhaps these moments won’t make for regular listening, but they are worthwhile additions to the historical record, as they give a good sense of how the Beatles worked in the studio.

~ Stephen Thomas Erlewine, All Music

***************

The Beatles - Abbey Road (1969) {2019, The 50th Anniversary Super Deluxe Edition} Blu-Ray

Track List BD:

01. Come Together [04:20]
02. Something (George Harrison) [03:02]
03. Maxwell’s Silver Hammer [03:28]
04. Oh! Darling [03:27]
05. Octopus’s Garden (Richard Starkey) [02:51]
06. I Want You [She’s So Heavy] [07:47]
07. Here Comes the Sun (George Harrison) [03:06]
08. Because [02:46]
09. You Never Give Me Your Money [04:03]
10. Sun King [02:26]
11. Mean Mr. Mustard [01:06]
12. Polythene Pam [01:13]
13. She Came in Through the Bathroom Window [01:59]
14. Golden Slumbers [01:31]
15. Carry That Weight [01:36]
16. The End [02:22]
17. Her Majesty [00:25]

18. Something (Video) [03:02]

Disc Title: The Beatles - Abbey Road (1969){2019, The 50th Anniversary Edition, Apple Records 0602577921124}_BD
Disc Size: 17 184 555 152 bytes
Protection: AACS
BD-Java: No
BDInfo: 0.5.8

Notes:

BDINFO HOME:
Cinema Squid
http://www.cinemasquid.com/blu-ray/tools/bdinfo

INCLUDES FORUMS REPORT FOR:
AVS Forum Blu-ray Audio and Video Specifications Thread
http://www.avsforum.com/avs-vb/showthread.php?t=1155731


********************
PLAYLIST: 00001.MPLS
********************

<–- BEGIN FORUMS PASTE –->
                                                                                                                Total   Video                                             
Title                                                           Codec   Length  Movie Size      Disc Size       Bitrate Bitrate Main Audio Track                          Secondary Audio Track
-----                                                           ------  ------- --------------  --------------  ------- ------- ------------------                        ---------------------
00001.MPLS                                                      AVC     0:47:30 15 889 938 432  17 184 555 152  44,60   15,00   LPCM 2.0 4608Kbps (96kHz/24-bit)          DTS-HD Master 5.1 7525Kbps (96kHz/24-bit)


DISC INFO:

Disc Title:     The Beatles - Abbey Road (1969){2019, The 50th Anniversary Edition, Apple Records 0602577921124}_BD
Disc Size:      17 184 555 152 bytes
Protection:     AACS
BD-Java:        No
BDInfo:         0.5.8

PLAYLIST REPORT:

Name:                   00001.MPLS
Length:                 0:47:30.097 (h:m:s.ms)
Size:                   15 889 938 432 bytes
Total Bitrate:          44,60 Mbps

VIDEO:

Codec                   Bitrate             Description     
-----                   -------             -----------     
MPEG-4 AVC Video        15000 kbps          1080p / 23,976 fps / 16:9 / High Profile 4.1

AUDIO:

Codec                           Language        Bitrate         Description     
-----                           --------        -------         -----------     
LPCM Audio                      English         4608 kbps       2.0 / 96 kHz / 4608 kbps / 24-bit
DTS-HD Master Audio             English         7525 kbps       5.1 / 96 kHz / 7525 kbps / 24-bit (DTS Core: 5.1 / 48 kHz / 1509 kbps / 24-bit)
Dolby TrueHD Audio              English         13469 kbps      7.1 / 48 kHz / 13469 kbps / 24-bit (AC3 Embedded: 5.1 / 48 kHz / 640 kbps)

FILES:

Name            Time In         Length          Size            Total Bitrate   
----            -------         ------          ----            -------------   
00006.M2TS      0:00:00.000     0:47:30.097     15 889 938 432  44 602          

CHAPTERS:

Number          Time In         Length          Avg Video Rate  Max 1-Sec Rate  Max 1-Sec Time  Max 5-Sec Rate  Max 5-Sec Time  Max 10Sec Rate  Max 10Sec Time  Avg Frame Size  Max Frame Size  Max Frame Time  
------          -------         ------          --------------  --------------  --------------  --------------  --------------  --------------  --------------  --------------  --------------  --------------  
1               0:00:00.000     0:04:20.551     15 013 kbps     20 467 kbps     00:04:18.883    16 095 kbps     00:04:14.879    15 469 kbps     00:04:09.916    78 258 bytes    434 850 bytes   00:02:05.083    
2               0:04:20.551     0:03:02.140     15 000 kbps     17 850 kbps     00:07:20.648    15 570 kbps     00:07:16.644    15 285 kbps     00:07:11.639    78 204 bytes    434 850 bytes   00:05:49.599    
3               0:07:22.692     0:03:28.124     15 000 kbps     17 850 kbps     00:10:48.814    16 115 kbps     00:10:45.811    15 558 kbps     00:10:40.806    78 204 bytes    434 850 bytes   00:08:51.739    
4               0:10:50.816     0:03:27.207     15 000 kbps     16 182 kbps     00:10:54.403    15 271 kbps     00:13:05.493    15 140 kbps     00:12:54.482    78 203 bytes    434 850 bytes   00:12:51.896    
5               0:14:18.023     0:02:50.712     15 000 kbps     20 494 kbps     00:17:06.942    16 099 kbps     00:17:02.938    15 549 kbps     00:16:57.933    78 202 bytes    434 850 bytes   00:14:57.021    
6               0:17:08.736     0:07:47.341     15 000 kbps     20 581 kbps     00:24:54.117    16 116 kbps     00:24:50.113    15 558 kbps     00:24:45.108    78 204 bytes    434 850 bytes   00:19:12.818    
7               0:24:56.077     0:03:05.727     15 000 kbps     20 555 kbps     00:28:00.011    16 111 kbps     00:27:56.007    15 530 kbps     00:27:51.044    78 205 bytes    434 850 bytes   00:26:15.115    
8               0:28:01.805     0:02:45.623     15 000 kbps     20 499 kbps     00:30:45.677    16 100 kbps     00:30:41.673    15 550 kbps     00:30:36.668    78 201 bytes    434 850 bytes   00:28:24.786    
9               0:30:47.428     0:04:02.617     15 000 kbps     20 289 kbps     00:34:48.336    16 094 kbps     00:34:44.332    15 547 kbps     00:34:39.327    78 203 bytes    434 850 bytes   00:32:30.490    
10              0:34:50.046     0:02:26.437     15 000 kbps     20 490 kbps     00:37:14.815    16 062 kbps     00:37:10.811    15 439 kbps     00:37:05.806    78 205 bytes    434 850 bytes   00:36:25.099    
11              0:37:16.484     0:01:06.357     15 000 kbps     20 478 kbps     00:38:21.173    16 096 kbps     00:38:17.169    15 471 kbps     00:38:12.206    78 203 bytes    434 850 bytes   00:38:03.489    
12              0:38:22.842     0:01:12.739     15 000 kbps     20 584 kbps     00:39:33.746    16 117 kbps     00:39:29.742    15 558 kbps     00:39:24.737    78 205 bytes    434 849 bytes   00:38:23.801    
13              0:39:35.581     0:01:58.827     15 000 kbps     20 547 kbps     00:41:32.531    16 110 kbps     00:41:28.527    15 555 kbps     00:41:23.522    78 203 bytes    434 850 bytes   00:41:06.630    
14              0:41:34.408     0:01:31.508     15 000 kbps     20 485 kbps     00:43:04.206    16 097 kbps     00:43:00.202    15 549 kbps     00:42:55.197    78 202 bytes    434 849 bytes   00:41:35.367    
15              0:43:05.916     0:01:36.429     15 000 kbps     20 488 kbps     00:44:40.678    16 098 kbps     00:44:36.674    15 549 kbps     00:44:31.669    78 204 bytes    434 850 bytes   00:44:29.958    
16              0:44:42.346     0:02:21.933     15 000 kbps     20 569 kbps     00:47:02.361    16 114 kbps     00:46:58.357    15 557 kbps     00:46:53.352    78 203 bytes    434 850 bytes   00:45:11.333    
17              0:47:04.279     0:00:25.817     14 872 kbps     20 564 kbps     00:47:28.178    16 113 kbps     00:47:24.174    15 556 kbps     00:47:19.169    77 659 bytes    434 849 bytes   00:47:05.239    

STREAM DIAGNOSTICS:

File            PID             Type            Codec           Language                Seconds                 Bitrate                 Bytes           Packets         
----            ---             ----            -----           --------                --------------          --------------          -------------   -----           
00006.M2TS      4113 (0x1011)   0x1B            AVC                                     2849,930                15 001                  5 343 955 148   29 082 743      
00006.M2TS      4352 (0x1100)   0x80            LPCM            eng (English)           2849,930                4 615                   1 643 934 796   9 120 304       
00006.M2TS      4353 (0x1101)   0x86            DTS-HD MA       eng (English)           2849,930                7 526                   2 680 915 692   15 007 766      
00006.M2TS      4354 (0x1102)   0x83            TrueHD          eng (English)           2849,930                14 110                  5 026 437 488   29 453 777      

<–– END FORUMS PASTE ––>

QUICK SUMMARY:

Disc Title: The Beatles - Abbey Road (1969){2019, The 50th Anniversary Edition, Apple Records 0602577921124}_BD
Disc Size: 17 184 555 152 bytes
Protection: AACS
BD-Java: No
Playlist: 00001.MPLS
Size: 15 889 938 432 bytes
Length: 0:47:30.097
Total Bitrate: 44,60 Mbps
Video: MPEG-4 AVC Video / 15000 kbps / 1080p / 23,976 fps / 16:9 / High Profile 4.1
Audio: English / LPCM Audio / 2.0 / 96 kHz / 4608 kbps / 24-bit
Audio: English / DTS-HD Master Audio / 5.1 / 96 kHz / 7525 kbps / 24-bit (DTS Core: 5.1 / 48 kHz / 1509 kbps / 24-bit)
Audio: English / Dolby TrueHD Audio / 7.1 / 48 kHz / 13469 kbps / 24-bit (AC3 Embedded: 5.1 / 48 kHz / 640 kbps)


********************
PLAYLIST: 00002.MPLS
********************

<–- BEGIN FORUMS PASTE –->
                                                                                                                Total   Video                                             
Title                                                           Codec   Length  Movie Size      Disc Size       Bitrate Bitrate Main Audio Track                          Secondary Audio Track
-----                                                           ------  ------- --------------  --------------  ------- ------- ------------------                        ---------------------
00002.MPLS                                                      AVC     0:03:02 1 089 552 384   17 184 555 152  47,71   17,90   LPCM 2.0 4608Kbps (96kHz/24-bit)          DTS-HD Master 5.1 6959Kbps (96kHz/24-bit)


DISC INFO:

Disc Title:     The Beatles - Abbey Road (1969){2019, The 50th Anniversary Edition, Apple Records 0602577921124}_BD
Disc Size:      17 184 555 152 bytes
Protection:     AACS
BD-Java:        No
BDInfo:         0.5.8

PLAYLIST REPORT:

Name:                   00002.MPLS
Length:                 0:03:02.682 (h:m:s.ms)
Size:                   1 089 552 384 bytes
Total Bitrate:          47,71 Mbps

VIDEO:

Codec                   Bitrate             Description     
-----                   -------             -----------     
MPEG-4 AVC Video        17902 kbps          1080p / 23,976 fps / 16:9 / High Profile 4.1

AUDIO:

Codec                           Language        Bitrate         Description     
-----                           --------        -------         -----------     
LPCM Audio                      English         4608 kbps       2.0 / 96 kHz / 4608 kbps / 24-bit
DTS-HD Master Audio             English         6959 kbps       5.1 / 96 kHz / 6959 kbps / 24-bit (DTS Core: 5.1 / 48 kHz / 1509 kbps / 24-bit)
Dolby TrueHD Audio              English         14107 kbps      7.1 / 48 kHz / 14107 kbps / 24-bit (AC3 Embedded: 5.1 / 48 kHz / 640 kbps)

FILES:

Name            Time In         Length          Size            Total Bitrate   
----            -------         ------          ----            -------------   
00000.M2TS      0:00:00.000     0:03:01.681     1 088 299 008   47 921          
00099.M2TS      0:03:01.681     0:00:01.000     1 253 376       10 017          

CHAPTERS:

Number          Time In         Length          Avg Video Rate  Max 1-Sec Rate  Max 1-Sec Time  Max 5-Sec Rate  Max 5-Sec Time  Max 10Sec Rate  Max 10Sec Time  Avg Frame Size  Max Frame Size  Max Frame Time  
------          -------         ------          --------------  --------------  --------------  --------------  --------------  --------------  --------------  --------------  --------------  --------------  
1               0:00:00.000     0:03:01.681     18 000 kbps     24 717 kbps     00:02:59.053    19 327 kbps     00:02:55.008    18 693 kbps     00:02:50.003    93 823 bytes    457 720 bytes   00:00:00.959    
2               0:03:01.681     0:00:01.000     75 kbps         0 kbps          00:00:00.000    0 kbps          00:00:00.000    0 kbps          00:00:00.000    410 bytes       2 430 bytes     00:03:02.432    

STREAM DIAGNOSTICS:

File            PID             Type            Codec           Language                Seconds                 Bitrate                 Bytes           Packets         
----            ---             ----            -----           --------                --------------          --------------          -------------   -----           
00000.M2TS      4113 (0x1011)   0x1B            AVC                                     181,515                 18 017                  408 786 285     2 224 213       
00000.M2TS      4352 (0x1100)   0x80            LPCM            eng (English)           181,515                 4 619                   104 793 024     581 376         
00000.M2TS      4353 (0x1101)   0x86            DTS-HD MA       eng (English)           181,515                 6 993                   158 663 916     891 377         
00000.M2TS      4354 (0x1102)   0x83            TrueHD          eng (English)           181,515                 14 833                  336 554 482     1 965 143       
00099.M2TS      4113 (0x1011)   0x1B            AVC                                     0,876                   108                     11 843          72              
00099.M2TS      4352 (0x1100)   0x80            LPCM            eng (English)           0,876                   5 268                   576 800   			  		  		  		 	    	 			   		  	   		  		  			  	  	 			   		   	  		 			  			  	  	 			   		  	   		  	   			   			       3 200           
00099.M2TS      4353 (0x1101)   0x86            DTS-HD MA       eng (English)           0,876                   2 303                   252 192         1 504           
00099.M2TS      4354 (0x1102)   0x83            TrueHD          eng (English)           0,876                   1 799                   196 964         1 691           

<–– END FORUMS PASTE ––>

QUICK SUMMARY:

Disc Title: The Beatles - Abbey Road (1969){2019, The 50th Anniversary Edition, Apple Records 0602577921124}_BD
Disc Size: 17 184 555 152 bytes
Protection: AACS
BD-Java: No
Playlist: 00002.MPLS
Size: 1 089 552 384 bytes
Length: 0:03:02.682
Total Bitrate: 47,71 Mbps
Video: MPEG-4 AVC Video / 17902 kbps / 1080p / 23,976 fps / 16:9 / High Profile 4.1
Audio: English / LPCM Audio / 2.0 / 96 kHz / 4608 kbps / 24-bit
Audio: English / DTS-HD Master Audio / 5.1 / 96 kHz / 6959 kbps / 24-bit (DTS Core: 5.1 / 48 kHz / 1509 kbps / 24-bit)
Audio: English / Dolby TrueHD Audio / 7.1 / 48 kHz / 14107 kbps / 24-bit (AC3 Embedded: 5.1 / 48 kHz / 640 kbps)

The Beatles - Abbey Road (1969) {2019, The 50th Anniversary Super Deluxe Edition} Blu-Ray

The Beatles - Abbey Road (1969) {2019, The 50th Anniversary Super Deluxe Edition} Blu-Ray

The Beatles - Abbey Road (1969) {2019, The 50th Anniversary Super Deluxe Edition} Blu-Ray

The Beatles - Abbey Road (1969) {2019, The 50th Anniversary Super Deluxe Edition} Blu-Ray

The Beatles - Abbey Road (1969) {2019, The 50th Anniversary Super Deluxe Edition} Blu-Ray

The Beatles - Abbey Road (1969) {2019, The 50th Anniversary Super Deluxe Edition} Blu-Ray

The Beatles - Abbey Road (1969) {2019, The 50th Anniversary Super Deluxe Edition} Blu-Ray


All thanks go to DoobieBro

>>> The Beatles in my Blog <<<

DOWNLOAD: