Subcategories

The Beatles - CD Singles Collection (1992) [22CD Box Set]

Posted By: v3122
The Beatles - CD Singles Collection (1992) [22CD Box Set]

The Beatles - CD Singles Collection (1992)
EAC | Flac(Image) + Cue + Log & MP3 CBR 320Kbps
Capitol C2 0777 7 15901 2 2 | ~ 924 or 401 Mb | Artwork(jpg) -> 424 Mb
Rock / Beat / Rock & Roll

A companion to their near-simultaneously-released The EP Boxset, EMI/Parlophone's The CD Singles Collection is a set targeted at collectors who are looking for CD replicas of the Beatles' 22 British singles. Each of the 22 CDs in this set is housed in a replica of the original artwork and contains no more than the original A-side and the original B-side, which doesn't make for practical listening, but practicality isn't the point of the set, collectability is. On that level this is a pretty nice package, as it offers attractive picture sleeves and gives an idea what it was like to hear these singles come out one after another.

by by Stephen Thomas Erlewine, allmusic
The Beatles - CD Singles Collection (1992):

The Beatles - CD Singles Collection (1992) [22CD Box Set]

Tracklist CD1 Love Me Do:

01. Love Me Do 2:23
02. P.S. I Love You 2:03

Exact Audio Copy V1.3 from 2. September 2016

EAC extraction logfile from 11. April 2019, 13:38

The Beatles / Love Me Do (Disc 1)

Used drive : ASUS DRW-24D5MT Adapter: 1 ID: 0

Read mode : Secure
Utilize accurate stream : Yes
Defeat audio cache : Yes
Make use of C2 pointers : No

Read offset correction : 6
Overread into Lead-In and Lead-Out : No
Fill up missing offset samples with silence : Yes
Delete leading and trailing silent blocks : No
Null samples used in CRC calculations : Yes
Used interface : Native Win32 interface for Win NT & 2000

Used output format : User Defined Encoder
Selected bitrate : 768 kBit/s
Quality : High
Add ID3 tag : No
Command line compressor : C:\Program Files (x86)\Exact Audio Copy\Flac\flac.exe
Additional command line options : -V -8 -T "Genre=%genre%" -T "Artist=%artist%" -T "Title=%title%" -T "Album=%albumtitle%" -T "Date=%year%" -T "Tracknumber=%tracknr%" -T "Comment=%comment%" %source%


TOC of the extracted CD

Track | Start | Length | Start sector | End sector
––––––––––––––––––––––––––––-
1 | 0:00.00 | 2:22.55 | 0 | 10704
2 | 2:22.55 | 2:03.07 | 10705 | 19936


Range status and errors

Selected range

Filename I:\dafnaplus\The Beatles - CD Singles Collection\01 Love Me Do\The Beatles - Love Me Do (Disc 1).wav

Peak level 100.0 %
Extraction speed 4.3 X
Range quality 100.0 %
Test CRC 160FE002
Copy CRC 160FE002
Copy OK

No errors occurred


AccurateRip summary

Track 1 accurately ripped (confidence 11) [FEBD1473] (AR v2)
Track 2 accurately ripped (confidence 11) [532D092A] (AR v2)

All tracks accurately ripped

End of status report

–– CUETools DB Plugin V2.1.6

[CTDB TOCID: Sft2c_PUKM382KGJUFIQcfu0ths-] found
Submit result: Sft2c_PUKM382KGJUFIQcfu0ths- has been confirmed
Track | CTDB Status
1 | (10/10) Accurately ripped
2 | (10/10) Accurately ripped


==== Log checksum 368C3D1DA4767AD8C06A0BE73741D1A12A76109CE3E5C98A69F6117AF20808C3 ====


Tracklist CD2 Please Please Me:

01. Please Please Me 2:02
02. Ask Me Why 2:25

Exact Audio Copy V1.3 from 2. September 2016

EAC extraction logfile from 11. April 2019, 14:07

The Beatles / Please Please Me (Disc 2)

Used drive : ASUS DRW-24D5MT Adapter: 1 ID: 0

Read mode : Secure
Utilize accurate stream : Yes
Defeat audio cache : Yes
Make use of C2 pointers : No

Read offset correction : 6
Overread into Lead-In and Lead-Out : No
Fill up missing offset samples with silence : Yes
Delete leading and trailing silent blocks : No
Null samples used in CRC calculations : Yes
Used interface : Native Win32 interface for Win NT & 2000

Used output format : User Defined Encoder
Selected bitrate : 768 kBit/s
Quality : High
Add ID3 tag : No
Command line compressor : C:\Program Files (x86)\Exact Audio Copy\Flac\flac.exe
Additional command line options : -V -8 -T "Genre=%genre%" -T "Artist=%artist%" -T "Title=%title%" -T "Album=%albumtitle%" -T "Date=%year%" -T "Tracknumber=%tracknr%" -T "Comment=%comment%" %source%


TOC of the extracted CD

Track | Start | Length | Start sector | End sector
––––––––––––––––––––––––––––-
1 | 0:00.00 | 2:02.10 | 0 | 9159
2 | 2:02.10 | 2:24.47 | 9160 | 20006


Range status and errors

Selected range

Filename I:\dafnaplus\The Beatles - CD Singles Collection\02 Please Please Me\The Beatles - Please Please Me (Disc 2).wav

Peak level 100.0 %
Extraction speed 4.2 X
Range quality 100.0 %
Test CRC 1C0DFC9C
Copy CRC 1C0DFC9C
Copy OK

No errors occurred


AccurateRip summary

Track 1 accurately ripped (confidence 7) [3CF88533] (AR v2)
Track 2 accurately ripped (confidence 8) [D7828A47] (AR v2)

All tracks accurately ripped

End of status report

–– CUETools DB Plugin V2.1.6

[CTDB TOCID: kWwxGPegZKSMRTLoO2UfU.bredM-] found
Submit result: already submitted
Track | CTDB Status
1 | (12/12) Accurately ripped
2 | (12/12) Accurately ripped


==== Log checksum 32F77A4E504C19420F9A840943259DB59BC4FADE08ADBA94EBD016AA57D4545C ====


Tracklist CD3 From Me To You:

01. From Me To You 1:58
02. Thank You Girl 2:03

Exact Audio Copy V1.3 from 2. September 2016

EAC extraction logfile from 11. April 2019, 17:27

The Beatles / From Me To You (Disc 3)

Used drive : ASUS DRW-24D5MT Adapter: 1 ID: 0

Read mode : Secure
Utilize accurate stream : Yes
Defeat audio cache : Yes
Make use of C2 pointers : No

Read offset correction : 6
Overread into Lead-In and Lead-Out : No
Fill up missing offset samples with silence : Yes
Delete leading and trailing silent blocks : No
Null samples used in CRC calculations : Yes
Used interface : Native Win32 interface for Win NT & 2000

Used output format : User Defined Encoder
Selected bitrate : 768 kBit/s
Quality : High
Add ID3 tag : No
Command line compressor : C:\Program Files (x86)\Exact Audio Copy\Flac\flac.exe
Additional command line options : -V -8 -T "Genre=%genre%" -T "Artist=%artist%" -T "Title=%title%" -T "Album=%albumtitle%" -T "Date=%year%" -T "Tracknumber=%tracknr%" -T "Comment=%comment%" %source%


TOC of the extracted CD

Track | Start | Length | Start sector | End sector
––––––––––––––––––––––––––––-
1 | 0:00.32 | 1:58.18 | 32 | 8899
2 | 1:58.50 | 2:02.55 | 8900 | 18104


Range status and errors

Selected range

Filename I:\dafnaplus\The Beatles - CD Singles Collection\03 From Me To You\The Beatles - From Me To You (Disc 3).wav

Peak level 86.7 %
Extraction speed 1.0 X
Range quality 100.0 %
Test CRC 9FCDF951
Copy CRC 9FCDF951
Copy OK

No errors occurred


AccurateRip summary

Track 1 accurately ripped (confidence 14) [06BDEDD0] (AR v2)
Track 2 accurately ripped (confidence 14) [BDE3A595] (AR v2)

All tracks accurately ripped

End of status report

–– CUETools DB Plugin V2.1.6

[CTDB TOCID: hzcVCBpv2U6cLxSZr89JCierOOc-] found
Submit result: hzcVCBpv2U6cLxSZr89JCierOOc- has been confirmed
Track | CTDB Status
1 | (25/25) Accurately ripped
2 | (25/25) Accurately ripped


==== Log checksum 3D295A7C03890B15F1A2B55A27E93012E6FC85105BA8C763FDAEAB518316DAD0 ====


Tracklist CD4 She Loves You:

01. She Loves You 2:22
02. I'll Get You 2:05

Exact Audio Copy V1.3 from 2. September 2016

EAC extraction logfile from 11. April 2019, 17:41

The Beatles / She Loves You (Disc 4)

Used drive : ASUS DRW-24D5MT Adapter: 1 ID: 0

Read mode : Secure
Utilize accurate stream : Yes
Defeat audio cache : Yes
Make use of C2 pointers : No

Read offset correction : 6
Overread into Lead-In and Lead-Out : No
Fill up missing offset samples with silence : Yes
Delete leading and trailing silent blocks : No
Null samples used in CRC calculations : Yes
Used interface : Native Win32 interface for Win NT & 2000

Used output format : User Defined Encoder
Selected bitrate : 768 kBit/s
Quality : High
Add ID3 tag : No
Command line compressor : C:\Program Files (x86)\Exact Audio Copy\Flac\flac.exe
Additional command line options : -V -8 -T "Genre=%genre%" -T "Artist=%artist%" -T "Title=%title%" -T "Album=%albumtitle%" -T "Date=%year%" -T "Tracknumber=%tracknr%" -T "Comment=%comment%" %source%


TOC of the extracted CD

Track | Start | Length | Start sector | End sector
––––––––––––––––––––––––––––-
1 | 0:00.32 | 2:21.65 | 32 | 10671
2 | 2:22.22 | 2:04.60 | 10672 | 20031


Range status and errors

Selected range

Filename I:\dafnaplus\The Beatles - CD Singles Collection\04 She Loves You\The Beatles - She Loves You (Disc 4).wav

Peak level 93.0 %
Extraction speed 1.0 X
Range quality 100.0 %
Test CRC F35D679A
Copy CRC F35D679A
Copy OK

No errors occurred


AccurateRip summary

Track 1 accurately ripped (confidence 14) [D56BAB22] (AR v2)
Track 2 accurately ripped (confidence 14) [6C61226C] (AR v2)

All tracks accurately ripped

End of status report

–– CUETools DB Plugin V2.1.6

[CTDB TOCID: aS27pQMOu_.4p0a_kJArGSXdfIs-] found
Submit result: aS27pQMOu_.4p0a_kJArGSXdfIs- has been confirmed
Track | CTDB Status
1 | (16/16) Accurately ripped
2 | (16/16) Accurately ripped


==== Log checksum 11C5FB6B5C25CEBB999D596099E9B64183F4E3A2215F3AEB1F2F972342C2FE2B ====


Tracklist CD5 I Want To Hold Your Hand:

01. I Want to Hold Your Hand 2:28
02. This Boy 2:12

Exact Audio Copy V1.3 from 2. September 2016

EAC extraction logfile from 11. April 2019, 19:11

The Beatles / I Want to Hold Your Hand (Disc 5)

Used drive : ASUS DRW-24D5MT Adapter: 1 ID: 0

Read mode : Secure
Utilize accurate stream : Yes
Defeat audio cache : Yes
Make use of C2 pointers : No

Read offset correction : 6
Overread into Lead-In and Lead-Out : No
Fill up missing offset samples with silence : Yes
Delete leading and trailing silent blocks : No
Null samples used in CRC calculations : Yes
Used interface : Native Win32 interface for Win NT & 2000

Used output format : User Defined Encoder
Selected bitrate : 768 kBit/s
Quality : High
Add ID3 tag : No
Command line compressor : C:\Program Files (x86)\Exact Audio Copy\Flac\flac.exe
Additional command line options : -V -8 -T "Genre=%genre%" -T "Artist=%artist%" -T "Title=%title%" -T "Album=%albumtitle%" -T "Date=%year%" -T "Tracknumber=%tracknr%" -T "Comment=%comment%" %source%


TOC of the extracted CD

Track | Start | Length | Start sector | End sector
––––––––––––––––––––––––––––-
1 | 0:00.32 | 2:27.53 | 32 | 11109
2 | 2:28.10 | 2:12.37 | 11110 | 21046


Range status and errors

Selected range

Filename I:\dafnaplus\The Beatles - CD Singles Collection\05 I Want To Hold Your Hand\The Beatles - I Want to Hold Your Hand (Disc 5).wav

Peak level 100.0 %
Extraction speed 1.0 X
Range quality 100.0 %
Test CRC 74297B95
Copy CRC 74297B95
Copy OK

No errors occurred


AccurateRip summary

Track 1 accurately ripped (confidence 11) [C27429C4] (AR v2)
Track 2 accurately ripped (confidence 11) [556C7860] (AR v2)

All tracks accurately ripped

End of status report

–– CUETools DB Plugin V2.1.6

[CTDB TOCID: RVlogxjIarMtL69s.zB98bnNe.E-] found
Submit result: RVlogxjIarMtL69s.zB98bnNe.E- has been confirmed
Track | CTDB Status
1 | (13/13) Accurately ripped
2 | (13/13) Accurately ripped


==== Log checksum F8ABACCF3033C50B56ADE937427B2A408DB6EF69D939DCC2BE36B87714412807 ====


Tracklist CD6 Can't Buy Me Love:

01. Can't Buy Me Love 2:14
02. You Can't Do That 2:35

Exact Audio Copy V1.3 from 2. September 2016

EAC extraction logfile from 11. April 2019, 20:30

The Beatles / Can't Buy Me Love (Disc 6)

Used drive : ASUS DRW-24D5MT Adapter: 1 ID: 0

Read mode : Secure
Utilize accurate stream : Yes
Defeat audio cache : Yes
Make use of C2 pointers : No

Read offset correction : 6
Overread into Lead-In and Lead-Out : No
Fill up missing offset samples with silence : Yes
Delete leading and trailing silent blocks : No
Null samples used in CRC calculations : Yes
Used interface : Native Win32 interface for Win NT & 2000

Used output format : User Defined Encoder
Selected bitrate : 768 kBit/s
Quality : High
Add ID3 tag : No
Command line compressor : C:\Program Files (x86)\Exact Audio Copy\Flac\flac.exe
Additional command line options : -V -8 -T "Genre=%genre%" -T "Artist=%artist%" -T "Title=%title%" -T "Album=%albumtitle%" -T "Date=%year%" -T "Tracknumber=%tracknr%" -T "Comment=%comment%" %source%


TOC of the extracted CD

Track | Start | Length | Start sector | End sector
––––––––––––––––––––––––––––-
1 | 0:00.32 | 2:14.33 | 32 | 10114
2 | 2:14.65 | 2:34.67 | 10115 | 21731


Range status and errors

Selected range

Filename I:\dafnaplus\The Beatles - CD Singles Collection\06 Can't Buy Me Love\The Beatles - Can't Buy Me Love (Disc 6).wav

Peak level 100.0 %
Extraction speed 1.0 X
Range quality 100.0 %
Test CRC 7E95C555
Copy CRC 7E95C555
Copy OK

No errors occurred


AccurateRip summary

Track 1 accurately ripped (confidence 11) [12FAD4E2] (AR v2)
Track 2 accurately ripped (confidence 11) [F4315E04] (AR v2)

All tracks accurately ripped

End of status report

–– CUETools DB Plugin V2.1.6

[CTDB TOCID: VyVZsXMX0JXozH7odD.d387xl.4-] found
Submit result: VyVZsXMX0JXozH7odD.d387xl.4- has been confirmed
Track | CTDB Status
1 | (26/26) Accurately ripped
2 | (26/26) Accurately ripped


==== Log checksum D02331B9838DCB3B39A080604D3C639C9FED53CB156FBDAD08C036EC6778F437 ====


Tracklist CD7 A Hard Day's Night:

01. A Hard Day's Night 2:31
02. Things We Said Today 2:36

Exact Audio Copy V1.3 from 2. September 2016

EAC extraction logfile from 12. April 2019, 7:50

The Beatles / A Hard Day's Night (Disc 7)

Used drive : ASUS DRW-24D5MT Adapter: 1 ID: 0

Read mode : Secure
Utilize accurate stream : Yes
Defeat audio cache : Yes
Make use of C2 pointers : No

Read offset correction : 6
Overread into Lead-In and Lead-Out : No
Fill up missing offset samples with silence : Yes
Delete leading and trailing silent blocks : No
Null samples used in CRC calculations : Yes
Used interface : Native Win32 interface for Win NT & 2000

Used output format : User Defined Encoder
Selected bitrate : 768 kBit/s
Quality : High
Add ID3 tag : No
Command line compressor : C:\Program Files (x86)\Exact Audio Copy\Flac\flac.exe
Additional command line options : -V -8 -T "Genre=%genre%" -T "Artist=%artist%" -T "Title=%title%" -T "Album=%albumtitle%" -T "Date=%year%" -T "Tracknumber=%tracknr%" -T "Comment=%comment%" %source%


TOC of the extracted CD

Track | Start | Length | Start sector | End sector
––––––––––––––––––––––––––––-
1 | 0:00.32 | 2:31.00 | 32 | 11356
2 | 2:31.32 | 2:36.10 | 11357 | 23066


Range status and errors

Selected range

Filename I:\dafnaplus\The Beatles - CD Singles Collection\07 A Hard Day's Night\The Beatles - A Hard Day's Night (Disc 7).wav

Peak level 97.0 %
Extraction speed 1.0 X
Range quality 100.0 %
Test CRC 6EA92C6B
Copy CRC 6EA92C6B
Copy OK

No errors occurred


AccurateRip summary

Track 1 accurately ripped (confidence 16) [B8A8D670] (AR v2)
Track 2 accurately ripped (confidence 16) [66654D24] (AR v2)

All tracks accurately ripped

End of status report

–– CUETools DB Plugin V2.1.6

[CTDB TOCID: X97OK5ZlZVOuQySx4XC6sbPJKAE-] found
Submit result: X97OK5ZlZVOuQySx4XC6sbPJKAE- has been confirmed
Track | CTDB Status
1 | (28/28) Accurately ripped
2 | (28/28) Accurately ripped


==== Log checksum 092F62A0BFF30A889AA3002F35C8CFE08221B4089D9ABE63722C7095864BFAC9 ====


Tracklist CD8 Ticket To Ride:

01. Ticket To Ride 3:06
02. Yes It Is 2:40

Exact Audio Copy V1.3 from 2. September 2016

EAC extraction logfile from 12. April 2019, 14:20

The Beatles / Ticket To Ride (Disc 8)

Used drive : ASUS DRW-24D5MT Adapter: 1 ID: 0

Read mode : Secure
Utilize accurate stream : Yes
Defeat audio cache : Yes
Make use of C2 pointers : No

Read offset correction : 6
Overread into Lead-In and Lead-Out : No
Fill up missing offset samples with silence : Yes
Delete leading and trailing silent blocks : No
Null samples used in CRC calculations : Yes
Used interface : Native Win32 interface for Win NT & 2000

Used output format : User Defined Encoder
Selected bitrate : 768 kBit/s
Quality : High
Add ID3 tag : No
Command line compressor : C:\Program Files (x86)\Exact Audio Copy\Flac\flac.exe
Additional command line options : -V -8 -T "Genre=%genre%" -T "Artist=%artist%" -T "Title=%title%" -T "Album=%albumtitle%" -T "Date=%year%" -T "Tracknumber=%tracknr%" -T "Comment=%comment%" %source%


TOC of the extracted CD

Track | Start | Length | Start sector | End sector
––––––––––––––––––––––––––––-
1 | 0:00.32 | 3:05.45 | 32 | 13951
2 | 3:06.02 | 2:40.18 | 13952 | 25969


Range status and errors

Selected range

Filename I:\dafnaplus\The Beatles - CD Singles Collection\08 Ticket To Ride\The Beatles - Ticket To Ride (Disc 8).wav

Peak level 100.0 %
Extraction speed 1.0 X
Range quality 99.9 %
Test CRC D7C9568A
Copy CRC D7C9568A
Copy OK

No errors occurred


AccurateRip summary

Track 1 accurately ripped (confidence 16) [56E0A447] (AR v2)
Track 2 accurately ripped (confidence 16) [F50538F9] (AR v2)

All tracks accurately ripped

End of status report

–– CUETools DB Plugin V2.1.6

[CTDB TOCID: n2VWgBo6mVNoLulGoRUEStPPuzM-] found
Submit result: n2VWgBo6mVNoLulGoRUEStPPuzM- has been confirmed
Track | CTDB Status
1 | (14/14) Accurately ripped
2 | (14/14) Accurately ripped


==== Log checksum 0062E036F70D4340F235581A8FE95C08C18F0B6FF23AF3EC0C55E569D9674D70 ====


Tracklist CD9 Help:

01. Help! 2:21
02. I'm Down 2:34

Exact Audio Copy V1.3 from 2. September 2016

EAC extraction logfile from 12. April 2019, 15:20

The Beatles / Help (Disc 9)

Used drive : ASUS DRW-24D5MT Adapter: 1 ID: 0

Read mode : Secure
Utilize accurate stream : Yes
Defeat audio cache : Yes
Make use of C2 pointers : No

Read offset correction : 6
Overread into Lead-In and Lead-Out : No
Fill up missing offset samples with silence : Yes
Delete leading and trailing silent blocks : No
Null samples used in CRC calculations : Yes
Used interface : Native Win32 interface for Win NT & 2000

Used output format : User Defined Encoder
Selected bitrate : 768 kBit/s
Quality : High
Add ID3 tag : No
Command line compressor : C:\Program Files (x86)\Exact Audio Copy\Flac\flac.exe
Additional command line options : -V -8 -T "Genre=%genre%" -T "Artist=%artist%" -T "Title=%title%" -T "Album=%albumtitle%" -T "Date=%year%" -T "Tracknumber=%tracknr%" -T "Comment=%comment%" %source%


TOC of the extracted CD

Track | Start | Length | Start sector | End sector
––––––––––––––––––––––––––––-
1 | 0:00.32 | 2:20.48 | 32 | 10579
2 | 2:21.05 | 2:33.40 | 10580 | 22094


Range status and errors

Selected range

Filename I:\dafnaplus\The Beatles - CD Singles Collection\09 Help\The Beatles - Help (Disc 9).wav

Peak level 100.0 %
Extraction speed 1.0 X
Range quality 100.0 %
Test CRC CBF9037E
Copy CRC CBF9037E
Copy OK

No errors occurred


AccurateRip summary

Track 1 accurately ripped (confidence 16) [06FB0745] (AR v2)
Track 2 accurately ripped (confidence 16) [382117A9] (AR v2)

All tracks accurately ripped

End of status report

–– CUETools DB Plugin V2.1.6

[CTDB TOCID: P1qV8t40YqHU4zJf1PAN1CNPZQQ-] found
Submit result: P1qV8t40YqHU4zJf1PAN1CNPZQQ- has been confirmed
Track | CTDB Status
1 | (13/13) Accurately ripped
2 | (13/13) Accurately ripped


==== Log checksum A77183C1D57287E2B9ABB40F233179987BBF8CB866419FF181FBCC5752E9382B ====


Tracklist CD10 We Can Work It Out:

01. We Can Work It Out 2:16
02. Day Tripper 2:51

Exact Audio Copy V1.3 from 2. September 2016

EAC extraction logfile from 12. April 2019, 16:05

The Beatles / We Can Work It Out (Disc 10)

Used drive : ASUS DRW-24D5MT Adapter: 1 ID: 0

Read mode : Secure
Utilize accurate stream : Yes
Defeat audio cache : Yes
Make use of C2 pointers : No

Read offset correction : 6
Overread into Lead-In and Lead-Out : No
Fill up missing offset samples with silence : Yes
Delete leading and trailing silent blocks : No
Null samples used in CRC calculations : Yes
Used interface : Native Win32 interface for Win NT & 2000

Used output format : User Defined Encoder
Selected bitrate : 768 kBit/s
Quality : High
Add ID3 tag : No
Command line compressor : C:\Program Files (x86)\Exact Audio Copy\Flac\flac.exe
Additional command line options : -V -8 -T "Genre=%genre%" -T "Artist=%artist%" -T "Title=%title%" -T "Album=%albumtitle%" -T "Date=%year%" -T "Tracknumber=%tracknr%" -T "Comment=%comment%" %source%


TOC of the extracted CD

Track | Start | Length | Start sector | End sector
––––––––––––––––––––––––––––-
1 | 0:00.32 | 2:16.18 | 32 | 10249
2 | 2:16.50 | 2:50.55 | 10250 | 23054


Range status and errors

Selected range

Filename I:\dafnaplus\The Beatles - CD Singles Collection\10 We Can Work It Out\The Beatles - We Can Work It Out (Disc 10).wav

Peak level 100.0 %
Extraction speed 0.9 X
Range quality 99.9 %
Test CRC 8084BD0D
Copy CRC 8084BD0D
Copy OK

No errors occurred


AccurateRip summary

Track 1 accurately ripped (confidence 15) [3524514E] (AR v2)
Track 2 accurately ripped (confidence 15) [1DAE4CAB] (AR v2)

All tracks accurately ripped

End of status report

–– CUETools DB Plugin V2.1.6

[CTDB TOCID: U2wfrl33UMGNZPuUy.pPmGTkZpU-] found
Submit result: U2wfrl33UMGNZPuUy.pPmGTkZpU- has been confirmed
Track | CTDB Status
1 | (29/29) Accurately ripped
2 | (29/29) Accurately ripped


==== Log checksum B6D2371C592AAEB1263E33E60E2F3B41EC35DDB04F7AB241A327F9629C00F7BD ====


Tracklist CD11 Paperback Writer:

01. Paperback Writer 2:28
02. Rain 3:00

Exact Audio Copy V1.3 from 2. September 2016

EAC extraction logfile from 12. April 2019, 18:47

The Beatles / Paperback Writer (Disc 11)

Used drive : ASUS DRW-24D5MT Adapter: 1 ID: 0

Read mode : Secure
Utilize accurate stream : Yes
Defeat audio cache : Yes
Make use of C2 pointers : No

Read offset correction : 6
Overread into Lead-In and Lead-Out : No
Fill up missing offset samples with silence : Yes
Delete leading and trailing silent blocks : No
Null samples used in CRC calculations : Yes
Used interface : Native Win32 interface for Win NT & 2000

Used output format : User Defined Encoder
Selected bitrate : 768 kBit/s
Quality : High
Add ID3 tag : No
Command line compressor : C:\Program Files (x86)\Exact Audio Copy\Flac\flac.exe
Additional command line options : -V -8 -T "Genre=%genre%" -T "Artist=%artist%" -T "Title=%title%" -T "Album=%albumtitle%" -T "Date=%year%" -T "Tracknumber=%tracknr%" -T "Comment=%comment%" %source%


TOC of the extracted CD

Track | Start | Length | Start sector | End sector
––––––––––––––––––––––––––––-
1 | 0:00.32 | 2:27.40 | 32 | 11096
2 | 2:27.72 | 3:00.35 | 11097 | 24631


Range status and errors

Selected range

Filename I:\dafnaplus\The Beatles - CD Singles Collection\11 Paperback Writer\The Beatles - Paperback Writer (Disc 11).wav

Peak level 100.0 %
Extraction speed 1.1 X
Range quality 100.0 %
Test CRC 8077283A
Copy CRC 8077283A
Copy OK

No errors occurred


AccurateRip summary

Track 1 accurately ripped (confidence 16) [D3EA3E3A] (AR v2)
Track 2 accurately ripped (confidence 16) [F7F69080] (AR v2)

All tracks accurately ripped

End of status report

–– CUETools DB Plugin V2.1.6

[CTDB TOCID: VoAZlSeA89OmLvsvr7_JNr.I0Aw-] found
Submit result: VoAZlSeA89OmLvsvr7_JNr.I0Aw- has been confirmed
Track | CTDB Status
1 | (29/29) Accurately ripped
2 | (29/29) Accurately ripped


==== Log checksum 59BE898AFC7A41B598F95EC60BBD0D73A2F68F481025362E711EF6DF8E5B9A6F ====


Tracklist CD12 Yellow Submarine:

01. Yellow Submarine 2:41
02. Eleanor Rigby 2:07

Exact Audio Copy V1.3 from 2. September 2016

EAC extraction logfile from 13. April 2019, 12:15

Beatles, The / Yellow Submarine (Disc 12)

Used drive : ASUS DRW-24D5MT Adapter: 1 ID: 0

Read mode : Secure
Utilize accurate stream : Yes
Defeat audio cache : Yes
Make use of C2 pointers : No

Read offset correction : 6
Overread into Lead-In and Lead-Out : No
Fill up missing offset samples with silence : Yes
Delete leading and trailing silent blocks : No
Null samples used in CRC calculations : Yes
Used interface : Native Win32 interface for Win NT & 2000

Used output format : User Defined Encoder
Selected bitrate : 768 kBit/s
Quality : High
Add ID3 tag : No
Command line compressor : C:\Program Files (x86)\Exact Audio Copy\Flac\flac.exe
Additional command line options : -V -8 -T "Genre=%genre%" -T "Artist=%artist%" -T "Title=%title%" -T "Album=%albumtitle%" -T "Date=%year%" -T "Tracknumber=%tracknr%" -T "Comment=%comment%" %source%


TOC of the extracted CD

Track | Start | Length | Start sector | End sector
––––––––––––––––––––––––––––-
1 | 0:00.32 | 2:40.50 | 32 | 12081
2 | 2:41.07 | 2:06.45 | 12082 | 21576


Range status and errors

Selected range

Filename I:\dafnaplus\The Beatles - CD Singles Collection\12 Yellow Submarine\Beatles, The - Yellow Submarine (Disc 12).wav

Peak level 100.0 %
Extraction speed 1.0 X
Range quality 100.0 %
Test CRC 80881119
Copy CRC 80881119
Copy OK

No errors occurred


AccurateRip summary

Track 1 accurately ripped (confidence 16) [5451EFE4] (AR v2)
Track 2 accurately ripped (confidence 16) [96B01A54] (AR v2)

All tracks accurately ripped

End of status report

–– CUETools DB Plugin V2.1.6

[CTDB TOCID: sz1EO46lAAsMmE3UctV.1jf27u0-] found
Submit result: sz1EO46lAAsMmE3UctV.1jf27u0- has been confirmed
Track | CTDB Status
1 | (31/31) Accurately ripped
2 | (31/31) Accurately ripped


==== Log checksum 616C3106D8764A7BBAABBE567CA684B569B9BAA23E7A8F8C12C5670781164261 ====


Tracklist CD13 Strawberry Fields Forever:

01. Strawberry Fields Forever 4:11
02. Penny Lane 2:58

Exact Audio Copy V1.3 from 2. September 2016

EAC extraction logfile from 13. April 2019, 12:36

The Beatles / Strawberry Fields Forever (Disc 13)

Used drive : ASUS DRW-24D5MT Adapter: 1 ID: 0

Read mode : Secure
Utilize accurate stream : Yes
Defeat audio cache : Yes
Make use of C2 pointers : No

Read offset correction : 6
Overread into Lead-In and Lead-Out : No
Fill up missing offset samples with silence : Yes
Delete leading and trailing silent blocks : No
Null samples used in CRC calculations : Yes
Used interface : Native Win32 interface for Win NT & 2000

Used output format : User Defined Encoder
Selected bitrate : 768 kBit/s
Quality : High
Add ID3 tag : No
Command line compressor : C:\Program Files (x86)\Exact Audio Copy\Flac\flac.exe
Additional command line options : -V -8 -T "Genre=%genre%" -T "Artist=%artist%" -T "Title=%title%" -T "Album=%albumtitle%" -T "Date=%year%" -T "Tracknumber=%tracknr%" -T "Comment=%comment%" %source%


TOC of the extracted CD

Track | Start | Length | Start sector | End sector
––––––––––––––––––––––––––––-
1 | 0:00.32 | 4:10.50 | 32 | 18831
2 | 4:11.07 | 2:58.20 | 18832 | 32201


Range status and errors

Selected range

Filename I:\dafnaplus\The Beatles - CD Singles Collection\13 Strawberry Fields Forever\The Beatles - Strawberry Fields Forever (Disc 13).wav

Peak level 98.1 %
Extraction speed 1.1 X
Range quality 100.0 %
Test CRC A5CB9203
Copy CRC A5CB9203
Copy OK

No errors occurred


AccurateRip summary

Track 1 accurately ripped (confidence 19) [6B9DDA85] (AR v2)
Track 2 accurately ripped (confidence 19) [340051DD] (AR v2)

All tracks accurately ripped

End of status report

–– CUETools DB Plugin V2.1.6

[CTDB TOCID: 4no2blGN31CRUmoDEwGvrDc8PiQ-] found
Submit result: 4no2blGN31CRUmoDEwGvrDc8PiQ- has been confirmed
Track | CTDB Status
1 | (34/34) Accurately ripped
2 | (34/34) Accurately ripped


==== Log checksum 0C4CE7D308293C6BBC4A9C81381E76FA5D1A0DABA0718B87F5927AA0D0E5BAEA ====


Tracklist CD14 The Ballad Of John And Yoko:

01. The Ballad Of John And Yoko 3:01
02. Old Brown Shoe 3:17

Exact Audio Copy V1.3 from 2. September 2016

EAC extraction logfile from 13. April 2019, 12:56

The Beatles / The Ballad Of John and Yoko (Disc 14)

Used drive : ASUS DRW-24D5MT Adapter: 1 ID: 0

Read mode : Secure
Utilize accurate stream : Yes
Defeat audio cache : Yes
Make use of C2 pointers : No

Read offset correction : 6
Overread into Lead-In and Lead-Out : No
Fill up missing offset samples with silence : Yes
Delete leading and trailing silent blocks : No
Null samples used in CRC calculations : Yes
Used interface : Native Win32 interface for Win NT & 2000

Used output format : User Defined Encoder
Selected bitrate : 768 kBit/s
Quality : High
Add ID3 tag : No
Command line compressor : C:\Program Files (x86)\Exact Audio Copy\Flac\flac.exe
Additional command line options : -V -8 -T "Genre=%genre%" -T "Artist=%artist%" -T "Title=%title%" -T "Album=%albumtitle%" -T "Date=%year%" -T "Tracknumber=%tracknr%" -T "Comment=%comment%" %source%


TOC of the extracted CD

Track | Start | Length | Start sector | End sector
––––––––––––––––––––––––––––-
1 | 0:00.32 | 3:00.55 | 32 | 13586
2 | 3:01.12 | 3:17.35 | 13587 | 28396


Range status and errors

Selected range

Filename I:\dafnaplus\The Beatles - CD Singles Collection\14 The Ballad Of John And Yoko\The Beatles - The Ballad Of John and Yoko (Disc 14).wav

Peak level 98.7 %
Extraction speed 1.1 X
Range quality 100.0 %
Test CRC BDE4FBDD
Copy CRC BDE4FBDD
Copy OK

No errors occurred


AccurateRip summary

Track 1 accurately ripped (confidence 15) [F1A04542] (AR v2)
Track 2 accurately ripped (confidence 15) [9616F73E] (AR v2)

All tracks accurately ripped

End of status report

–– CUETools DB Plugin V2.1.6

[CTDB TOCID: yHYMRq4WIw0TDX8VpaD42PwO0nQ-] found
Submit result: yHYMRq4WIw0TDX8VpaD42PwO0nQ- has been confirmed
Track | CTDB Status
1 | (24/24) Accurately ripped
2 | (24/24) Accurately ripped


==== Log checksum FEA47AF6A0046E4E93C6286BCDAB2A48DBDFD9439A5F389C974C71573AF752DC ====


Tracklist CD15 Something:

01. Something 3:03
02. Come Together 4:17

Exact Audio Copy V1.3 from 2. September 2016

EAC extraction logfile from 13. April 2019, 21:49

The Beatles / Something (Disc15)

Used drive : ASUS DRW-24D5MT Adapter: 1 ID: 0

Read mode : Secure
Utilize accurate stream : Yes
Defeat audio cache : Yes
Make use of C2 pointers : No

Read offset correction : 6
Overread into Lead-In and Lead-Out : No
Fill up missing offset samples with silence : Yes
Delete leading and trailing silent blocks : No
Null samples used in CRC calculations : Yes
Used interface : Native Win32 interface for Win NT & 2000

Used output format : User Defined Encoder
Selected bitrate : 768 kBit/s
Quality : High
Add ID3 tag : No
Command line compressor : C:\Program Files (x86)\Exact Audio Copy\Flac\flac.exe
Additional command line options : -V -8 -T "Genre=%genre%" -T "Artist=%artist%" -T "Title=%title%" -T "Album=%albumtitle%" -T "Date=%year%" -T "Tracknumber=%tracknr%" -T "Comment=%comment%" %source%


TOC of the extracted CD

Track | Start | Length | Start sector | End sector
––––––––––––––––––––––––––––-
1 | 0:00.32 | 3:02.45 | 32 | 13726
2 | 3:03.02 | 4:17.05 | 13727 | 33006


Range status and errors

Selected range

Filename I:\dafnaplus\The Beatles - CD Singles Collection\15 Something\The Beatles - Something (Disc15).wav

Peak level 93.6 %
Extraction speed 1.1 X
Range quality 100.0 %
Test CRC EE363787
Copy CRC EE363787
Copy OK

No errors occurred


AccurateRip summary

Track 1 accurately ripped (confidence 16) [32BF7485] (AR v2)
Track 2 accurately ripped (confidence 16) [E52413E8] (AR v2)

All tracks accurately ripped

End of status report

–– CUETools DB Plugin V2.1.6

[CTDB TOCID: edLbkaMBQfYEgg7HYJwq8oDbLNE-] found
Submit result: edLbkaMBQfYEgg7HYJwq8oDbLNE- has been confirmed
Track | CTDB Status
1 | (26/26) Accurately ripped
2 | (26/26) Accurately ripped


==== Log checksum AD51716EABD1C07D312F7AA402B372466B55ED49F4A094AA564390DB2E84655A ====


Tracklist CD16 Let It Be:

01. Let It Be 3:52
02. You Know My Name 4:19

Exact Audio Copy V1.3 from 2. September 2016

EAC extraction logfile from 13. April 2019, 22:09

The Beatles / Let It Be (Disc 16)

Used drive : ASUS DRW-24D5MT Adapter: 1 ID: 0

Read mode : Secure
Utilize accurate stream : Yes
Defeat audio cache : Yes
Make use of C2 pointers : No

Read offset correction : 6
Overread into Lead-In and Lead-Out : No
Fill up missing offset samples with silence : Yes
Delete leading and trailing silent blocks : No
Null samples used in CRC calculations : Yes
Used interface : Native Win32 interface for Win NT & 2000

Used output format : User Defined Encoder
Selected bitrate : 768 kBit/s
Quality : High
Add ID3 tag : No
Command line compressor : C:\Program Files (x86)\Exact Audio Copy\Flac\flac.exe
Additional command line options : -V -8 -T "Genre=%genre%" -T "Artist=%artist%" -T "Title=%title%" -T "Album=%albumtitle%" -T "Date=%year%" -T "Tracknumber=%tracknr%" -T "Comment=%comment%" %source%


TOC of the extracted CD

Track | Start | Length | Start sector | End sector
––––––––––––––––––––––––––––-
1 | 0:00.32 | 3:51.48 | 32 | 17404
2 | 3:52.05 | 4:19.20 | 17405 | 36849


Range status and errors

Selected range

Filename I:\dafnaplus\The Beatles - CD Singles Collection\16 Let It Be\The Beatles - Let It Be (Disc 16).wav

Peak level 100.0 %
Extraction speed 1.1 X
Range quality 100.0 %
Test CRC 1459BDCD
Copy CRC 1459BDCD
Copy OK

No errors occurred


AccurateRip summary

Track 1 accurately ripped (confidence 16) [B3CF2A6E] (AR v2)
Track 2 accurately ripped (confidence 16) [EFBE51F1] (AR v2)

All tracks accurately ripped

End of status report

–– CUETools DB Plugin V2.1.6

[CTDB TOCID: rs.9nTodvYtF_s8yHe9dzL128UQ-] found
Submit result: rs.9nTodvYtF_s8yHe9dzL128UQ- has been confirmed
Track | CTDB Status
1 | (30/30) Accurately ripped
2 | (30/30) Accurately ripped


==== Log checksum 6F4B6F950347004D83C3214CEBE8116A95B49C9E5529156A5852C88200793555 ====


Tracklist CD17 All You Need Is Love:

01. All You Need Is Love 4:02
02. Baby, You're A Rich Man 3:04

Exact Audio Copy V1.3 from 2. September 2016

EAC extraction logfile from 14. April 2019, 13:15

Beatles, The / All You Need Is Love (Disc 17)

Used drive : ASUS DRW-24D5MT Adapter: 1 ID: 0

Read mode : Secure
Utilize accurate stream : Yes
Defeat audio cache : Yes
Make use of C2 pointers : No

Read offset correction : 6
Overread into Lead-In and Lead-Out : No
Fill up missing offset samples with silence : Yes
Delete leading and trailing silent blocks : No
Null samples used in CRC calculations : Yes
Used interface : Native Win32 interface for Win NT & 2000

Used output format : User Defined Encoder
Selected bitrate : 768 kBit/s
Quality : High
Add ID3 tag : No
Command line compressor : C:\Program Files (x86)\Exact Audio Copy\Flac\flac.exe
Additional command line options : -V -8 -T "Genre=%genre%" -T "Artist=%artist%" -T "Title=%title%" -T "Album=%albumtitle%" -T "Date=%year%" -T "Tracknumber=%tracknr%" -T "Comment=%comment%" %source%


TOC of the extracted CD

Track | Start | Length | Start sector | End sector
––––––––––––––––––––––––––––-
1 | 0:00.32 | 4:01.58 | 32 | 18164
2 | 4:02.15 | 3:04.05 | 18165 | 31969


Range status and errors

Selected range

Filename I:\dafnaplus\The Beatles - CD Singles Collection\17 All You Need Is Love\Beatles, The - All You Need Is Love (Disc 17).wav

Peak level 100.0 %
Extraction speed 1.0 X
Range quality 99.9 %
Test CRC 2C918EB9
Copy CRC 2C918EB9
Copy OK

No errors occurred


AccurateRip summary

Track 1 accurately ripped (confidence 13) [7E467818] (AR v2)
Track 2 accurately ripped (confidence 13) [4A3FE062] (AR v2)

All tracks accurately ripped

End of status report

–– CUETools DB Plugin V2.1.6

[CTDB TOCID: pHsZTrgZOLWir1t22Ejots.A8iU-] found
Submit result: pHsZTrgZOLWir1t22Ejots.A8iU- has been confirmed
Track | CTDB Status
1 | (26/26) Accurately ripped
2 | (26/26) Accurately ripped


==== Log checksum 0B9834D6B4AC0E1A6C32633B6966914BB90E4845D929F75DFDC361584D18C9C0 ====


Tracklist CD18 Hello, Goodbye:

01. Hello, Goodbye 3:27
02. I Am The Walrus 4:33

Exact Audio Copy V1.3 from 2. September 2016

EAC extraction logfile from 14. April 2019, 14:12

The Beatles / Hello, Goodbye (1992)

Used drive : ASUS DRW-24D5MT Adapter: 1 ID: 0

Read mode : Secure
Utilize accurate stream : Yes
Defeat audio cache : Yes
Make use of C2 pointers : No

Read offset correction : 6
Overread into Lead-In and Lead-Out : No
Fill up missing offset samples with silence : Yes
Delete leading and trailing silent blocks : No
Null samples used in CRC calculations : Yes
Used interface : Native Win32 interface for Win NT & 2000

Used output format : User Defined Encoder
Selected bitrate : 768 kBit/s
Quality : High
Add ID3 tag : No
Command line compressor : C:\Program Files (x86)\Exact Audio Copy\Flac\flac.exe
Additional command line options : -V -8 -T "Genre=%genre%" -T "Artist=%artist%" -T "Title=%title%" -T "Album=%albumtitle%" -T "Date=%year%" -T "Tracknumber=%tracknr%" -T "Comment=%comment%" %source%


TOC of the extracted CD

Track | Start | Length | Start sector | End sector
––––––––––––––––––––––––––––-
1 | 0:00.32 | 3:26.70 | 32 | 15551
2 | 3:27.27 | 4:32.73 | 15552 | 36024


Range status and errors

Selected range

Filename I:\dafnaplus\The Beatles - CD Singles Collection\18 Hello, Goodbye\The Beatles - Hello, Goodbye (1992).wav

Peak level 100.0 %
Extraction speed 1.1 X
Range quality 100.0 %
Test CRC 70B23C92
Copy CRC 70B23C92
Copy OK

No errors occurred


AccurateRip summary

Track 1 accurately ripped (confidence 17) [0A11E142] (AR v2)
Track 2 accurately ripped (confidence 17) [C043A450] (AR v2)

All tracks accurately ripped

End of status report

–– CUETools DB Plugin V2.1.6

[CTDB TOCID: 9tewZKLdFmwDAF5nnKQA43o0tsw-] found
Submit result: 9tewZKLdFmwDAF5nnKQA43o0tsw- has been confirmed
Track | CTDB Status
1 | (28/28) Accurately ripped
2 | (12/28) Accurately ripped, or (16/28) differs in 1035 samples @04:32:49-04:32:59
If you are sure that your rip contains errors, you can use CUETools to repair it.


==== Log checksum 7B225734B9D3E3D1797D807BB4810CAB29EAC6D23F7A0C28C05AD0346CF5D671 ====


Tracklist CD19 Lady Madonna:

01. Lady Madonna 2:19
02. The Inner Light 2:35

Exact Audio Copy V1.3 from 2. September 2016

EAC extraction logfile from 14. April 2019, 21:32

Beatles, The / Lady Madonna (Disc 19)

Used drive : ASUS DRW-24D5MT Adapter: 1 ID: 0

Read mode : Secure
Utilize accurate stream : Yes
Defeat audio cache : Yes
Make use of C2 pointers : No

Read offset correction : 6
Overread into Lead-In and Lead-Out : No
Fill up missing offset samples with silence : Yes
Delete leading and trailing silent blocks : No
Null samples used in CRC calculations : Yes
Used interface : Native Win32 interface for Win NT & 2000

Used output format : User Defined Encoder
Selected bitrate : 768 kBit/s
Quality : High
Add ID3 tag : No
Command line compressor : C:\Program Files (x86)\Exact Audio Copy\Flac\flac.exe
Additional command line options : -V -8 -T "Genre=%genre%" -T "Artist=%artist%" -T "Title=%title%" -T "Album=%albumtitle%" -T "Date=%year%" -T "Tracknumber=%tracknr%" -T "Comment=%comment%" %source%


TOC of the extracted CD

Track | Start | Length | Start sector | End sector
––––––––––––––––––––––––––––-
1 | 0:00.32 | 2:18.58 | 32 | 10439
2 | 2:19.15 | 2:35.12 | 10440 | 22076


Range status and errors

Selected range

Filename I:\dafnaplus\The Beatles - CD Singles Collection\19 Lady Madonna\Beatles, The - Lady Madonna (Disc 19).wav

Peak level 100.0 %
Extraction speed 1.0 X
Range quality 100.0 %
Test CRC B18DFED7
Copy CRC B18DFED7
Copy OK

No errors occurred


AccurateRip summary

Track 1 accurately ripped (confidence 20) [4E3E0C23] (AR v2)
Track 2 accurately ripped (confidence 20) [0EADEE6A] (AR v2)

All tracks accurately ripped

End of status report

–– CUETools DB Plugin V2.1.6

[CTDB TOCID: SwngSh2B8WS_uNQw.ao_wWs5ECM-] found
Submit result: SwngSh2B8WS_uNQw.ao_wWs5ECM- has been confirmed
Track | CTDB Status
1 | (12/12) Accurately ripped
2 | (12/12) Accurately ripped


==== Log checksum 0C1ABDD702F643B82C4D318D623E03B5D8208FEA941D07F36302BDE4B761C7AB ====


Tracklist CD20 Hey Jude:

01. Hey Jude 7:19
02. Revolution 3:23

Exact Audio Copy V1.3 from 2. September 2016

EAC extraction logfile from 14. April 2019, 22:14

The Beatles / Hey Jude (Disc 20)

Used drive : ASUS DRW-24D5MT Adapter: 1 ID: 0

Read mode : Secure
Utilize accurate stream : Yes
Defeat audio cache : Yes
Make use of C2 pointers : No

Read offset correction : 6
Overread into Lead-In and Lead-Out : No
Fill up missing offset samples with silence : Yes
Delete leading and trailing silent blocks : No
Null samples used in CRC calculations : Yes
Used interface : Native Win32 interface for Win NT & 2000

Used output format : User Defined Encoder
Selected bitrate : 768 kBit/s
Quality : High
Add ID3 tag : No
Command line compressor : C:\Program Files (x86)\Exact Audio Copy\Flac\flac.exe
Additional command line options : -V -8 -T "Genre=%genre%" -T "Artist=%artist%" -T "Title=%title%" -T "Album=%albumtitle%" -T "Date=%year%" -T "Tracknumber=%tracknr%" -T "Comment=%comment%" %source%


TOC of the extracted CD

Track | Start | Length | Start sector | End sector
––––––––––––––––––––––––––––-
1 | 0:00.32 | 7:18.55 | 32 | 32936
2 | 7:19.12 | 3:22.60 | 32937 | 48146


Range status and errors

Selected range

Filename I:\dafnaplus\The Beatles - CD Singles Collection\20 Hey Jude\The Beatles - Hey Jude (Disc 20).wav

Peak level 97.2 %
Extraction speed 1.2 X
Range quality 100.0 %
Test CRC 9FD6F45A
Copy CRC 9FD6F45A
Copy OK

No errors occurred


AccurateRip summary

Track 1 accurately ripped (confidence 20) [0F0744E3] (AR v2)
Track 2 accurately ripped (confidence 20) [FABEC576] (AR v2)

All tracks accurately ripped

End of status report

–– CUETools DB Plugin V2.1.6

[CTDB TOCID: OugKEQza1qlHakmtBXgM92X5bA8-] found
Submit result: already submitted
Track | CTDB Status
1 | (35/35) Accurately ripped
2 | (35/35) Accurately ripped


==== Log checksum 2C59B3868F90D89052B287C5641703EF3D0167A2DAB7D3662DE46593A22CE9F2 ====


Tracklist CD21 Get Back:

01. Get Back 3:14
02. Don't Let Me Down 3:30

Exact Audio Copy V1.3 from 2. September 2016

EAC extraction logfile from 15. April 2019, 8:01

The Beatles / Get Back (Disc 21)

Used drive : ASUS DRW-24D5MT Adapter: 1 ID: 0

Read mode : Secure
Utilize accurate stream : Yes
Defeat audio cache : Yes
Make use of C2 pointers : No

Read offset correction : 6
Overread into Lead-In and Lead-Out : No
Fill up missing offset samples with silence : Yes
Delete leading and trailing silent blocks : No
Null samples used in CRC calculations : Yes
Used interface : Native Win32 interface for Win NT & 2000

Used output format : User Defined Encoder
Selected bitrate : 768 kBit/s
Quality : High
Add ID3 tag : No
Command line compressor : C:\Program Files (x86)\Exact Audio Copy\Flac\flac.exe
Additional command line options : -V -8 -T "Genre=%genre%" -T "Artist=%artist%" -T "Title=%title%" -T "Album=%albumtitle%" -T "Date=%year%" -T "Tracknumber=%tracknr%" -T "Comment=%comment%" %source%


TOC of the extracted CD

Track | Start | Length | Start sector | End sector
––––––––––––––––––––––––––––-
1 | 0:00.32 | 3:13.50 | 32 | 14556
2 | 3:14.07 | 3:29.70 | 14557 | 30301


Range status and errors

Selected range

Filename I:\dafnaplus\The Beatles - CD Singles Collection\21 Get Back\The Beatles - Get Back (Disc 21).wav

Peak level 100.0 %
Extraction speed 1.0 X
Range quality 99.9 %
Test CRC 6E9E0449
Copy CRC 6E9E0449
Copy OK

No errors occurred


AccurateRip summary

Track 1 accurately ripped (confidence 15) [A09CCA76] (AR v2)
Track 2 accurately ripped (confidence 15) [E291B2F3] (AR v2)

All tracks accurately ripped

End of status report

–– CUETools DB Plugin V2.1.6

[CTDB TOCID: tcWdY4W0xvO8geVSTRiFFbzAVY4-] found
Submit result: tcWdY4W0xvO8geVSTRiFFbzAVY4- has been confirmed
Track | CTDB Status
1 | (31/31) Accurately ripped
2 | (31/31) Accurately ripped


==== Log checksum 506CE8C439C622019AB0CB673F739D2763E8DA5FFC03C77AA184D8E7B88196AE ====


Tracklist CD22 I Feel Fine:

01. I Feel Fine 2:25
02. She's A Woman 3:02

Exact Audio Copy V1.3 from 2. September 2016

EAC extraction logfile from 15. April 2019, 8:19

The Beatles / I Feel Fine (Disc 22)

Used drive : ASUS DRW-24D5MT Adapter: 1 ID: 0

Read mode : Secure
Utilize accurate stream : Yes
Defeat audio cache : Yes
Make use of C2 pointers : No

Read offset correction : 6
Overread into Lead-In and Lead-Out : No
Fill up missing offset samples with silence : Yes
Delete leading and trailing silent blocks : No
Null samples used in CRC calculations : Yes
Used interface : Native Win32 interface for Win NT & 2000

Used output format : User Defined Encoder
Selected bitrate : 768 kBit/s
Quality : High
Add ID3 tag : No
Command line compressor : C:\Program Files (x86)\Exact Audio Copy\Flac\flac.exe
Additional command line options : -V -8 -T "Genre=%genre%" -T "Artist=%artist%" -T "Title=%title%" -T "Album=%albumtitle%" -T "Date=%year%" -T "Tracknumber=%tracknr%" -T "Comment=%comment%" %source%


TOC of the extracted CD

Track | Start | Length | Start sector | End sector
––––––––––––––––––––––––––––-
1 | 0:00.32 | 2:24.55 | 32 | 10886
2 | 2:25.12 | 3:01.53 | 10887 | 24514


Range status and errors

Selected range

Filename I:\dafnaplus\The Beatles - CD Singles Collection\22 I Feel Fine\The Beatles - I Feel Fine (Disc 22).wav

Peak level 100.0 %
Extraction speed 1.1 X
Range quality 100.0 %
Test CRC 033EF9E0
Copy CRC 033EF9E0
Copy OK

No errors occurred


AccurateRip summary

Track 1 accurately ripped (confidence 15) [4CF72176] (AR v2)
Track 2 accurately ripped (confidence 15) [F1D95A7B] (AR v2)

All tracks accurately ripped

End of status report

–– CUETools DB Plugin V2.1.6

[CTDB TOCID: dsOkY8ocdLlUvVFPaoT75MZbq4A-] found
Submit result: dsOkY8ocdLlUvVFPaoT75MZbq4A- has been confirmed
Track | CTDB Status
1 | (26/26) Accurately ripped
2 | (26/26) Accurately ripped


==== Log checksum FA8710BC46545961CD4CB766AD78E20875AB9CD6305D4035442E1468EA750669 ====


The Beatles - CD Singles Collection (1992) [22CD Box Set]

All thanks go to dafnaplus

The Beatles in my Blog

Download The Beatles - CD Singles Collection (1992):