Subcategories

The Beatles: Discography (1963 - 1988) [Vinyl Rip 16/44 & mp3-320]

Posted By: v3122
The Beatles: Discography (1963 - 1988) [Vinyl Rip 16/44 & mp3-320]

The Beatles: Discography (1963 - 1988)
15 x Vinyl Rip 16/44 | Flac(Image + Cue) > 4087 Mb
MP3 CBR 320Kbps > 1590 Mb | Artwork(jpg) > 2177 Mb
Apple Records / Toshiba-EMI Ltd., Tokyo. Made in Japan.
Rock & Roll, Beat, Classic Rock, Pop Rock, Psychedelic Rock

British rock/pop group, formed in Liverpool, England during the late 1950s. Signed to recording contract with EMI in 1962.

The lineup (1962-70) comprised John Lennon (vocals, guitar, harmonica, keyboards), Paul McCartney (vocals, bass, guitar, keyboards, percussion), George Harrison (guitar, vocals, sitar), and Ringo Starr (drums, vocals, percussion). During 1961, Stu Sutcliffe (bass) and Pete Best (drums) were also members.

Following an initial period as a straightforward Mersey-beat group, later recordings saw them experiment with psychedelia, incorporating innovative production techniques involving tape loops and other effects. Although the group split in 1970, they have continued to release special products.

Inducted into Rock And Roll Hall of Fame in 1988 (Group). By 2015, all four members were inducted also as individual solo artists.

~ Discogs
The Beatles: Discography (1963 - 1988) [Vinyl Rip 16/44 & mp3-320]


The Beatles: Discography (1963 - 1988) [Vinyl Rip 16/44 & mp3-320]:

The Beatles: Discography (1963 - 1988) [Vinyl Rip 16/44 & mp3-320]

Tracklist VNL01 - 1963 - With The Beatles (Re-issue 1976):
JP LP 1976 Toshiba EMI Ltd., Tokyo • EAS-80551

A1. It Won't Be Long [02:11]
A2. All I've Got To Do [02:00]
A3. All My Loving [02:06]
A4. Don't Bother Me [02:27]
A5. Little Child [01:47]
A6. Till There Was You [02:13]
A7. Please Mister Postman [02:36]
B1. Roll Over Beethoven [02:44]
B2. Hold Me Tight [02:29]
B3. You Really Got A Hold On Me [03:00]
B4. I Wanna Be Your Man [02:00]
B5. Devil In Her Heart [02:25]
B6. Not A Second Time [02:06]
B7. Money (That's What I Want) [02:50]

foobar2000 1.2.9 / Dynamic Range Meter 1.1.1
log date: 2016-12-14 12:01:04

––––––––––––––––––––––––––––––––––––––––
Analyzed: THE BEATLES / With The Beatles (Japan, Apple, EAS-80551)
––––––––––––––––––––––––––––––––––––––––

DR Peak RMS Duration Track
––––––––––––––––––––––––––––––––––––––––
DR11 -1.71 dB -15.07 dB 2:11 01-It Won't Be Long
DR11 -3.09 dB -16.35 dB 2:00 02-All I've Got To Do
DR10 -1.36 dB -14.50 dB 2:06 03-All My Loving
DR11 -1.18 dB -14.55 dB 2:26 04-Don't Bother Me
DR12 -3.27 dB -17.02 dB 1:46 05-Little Child
DR11 -3.11 dB -17.47 dB 2:12 06-Till There Was You
DR12 -0.78 dB -15.21 dB 2:35 07-Please Mister Postman
DR11 -1.81 dB -14.84 dB 2:44 08-Roll Over Beethoven
DR10 -3.36 dB -14.71 dB 2:29 09-Hold Me Tight
DR10 -2.93 dB -15.43 dB 2:59 10-You Really Got A Hold On Me
DR10 -2.86 dB -14.98 dB 1:59 11-I Wanna Be Your Man
DR10 -2.74 dB -15.05 dB 2:25 12-Devil In Her Heart
DR10 -3.46 dB -15.99 dB 2:05 13-Not A Second Time
DR9 -1.72 dB -12.61 dB 2:50 14-Money (That's What I Want)
––––––––––––––––––––––––––––––––––––––––

Number of tracks: 14
Official DR value: DR11

Samplerate: 44100 Hz
Channels: 2
Bits per sample: 16
Bitrate: 940 kbps
Codec: FLAC
================================================================================



The Beatles: Discography (1963 - 1988) [Vinyl Rip 16/44 & mp3-320]

Tracklist VNL02 - 1963 - Please Please Me (Re-issue 1976):
JP LP 1976 Toshiba EMI Ltd., Tokyo • EAS-80550

A1. I Saw Her Standing There [02:59]
A2. Misery [01:52]
A3. Anna (Go To Him) [02:54]
A4. Chains [02:24]
A5. Boys [02:25]
A6. Ask Me Why [02:23]
A7. Please Please Me [02:02]
B1. Love Me Do [02:22]
B2. P.S. I Love You [02:07]
B3. Baby It's You [02:42]
B4. Do You Want To Know A Secret [01:56]
B5. A Taste Of Honey [02:02]
B6. There's A Place [01:54]
B7. Twist And Shout [02:35]

foobar2000 1.2.9 / Dynamic Range Meter 1.1.1
log date: 2016-12-14 12:01:21

––––––––––––––––––––––––––––––––––––––––
Analyzed: THE BEATLES / Please Please Me (Japan, Apple, EAS-80550)
––––––––––––––––––––––––––––––––––––––––

DR Peak RMS Duration Track
––––––––––––––––––––––––––––––––––––––––
DR11 -2.40 dB -15.61 dB 2:58 01-I Saw Her Standing There
DR11 -1.52 dB -15.30 dB 1:52 02-Misery
DR13 -2.89 dB -17.85 dB 2:54 03-Anna (Go To Him)
DR12 -3.46 dB -17.27 dB 2:23 04-Chains
DR11 -2.53 dB -15.73 dB 2:24 05-Boys
DR14 -2.55 dB -18.00 dB 2:23 06-Ask Me Why
DR11 -3.45 dB -16.94 dB 2:01 07-Please Please Me
DR11 -1.91 dB -16.62 dB 2:22 08-Love Me Do
DR11 -4.76 dB -17.82 dB 2:07 09-P.S. I Love You
DR13 -4.61 dB -19.55 dB 2:42 10-Baby It's You
DR12 -3.24 dB -17.49 dB 1:55 11-Do You Want To Know A Secret
DR13 -3.57 dB -18.63 dB 2:02 12-A Taste Of Honey
DR11 -3.24 dB -16.64 dB 1:53 13-There's A Place
DR12 -2.94 dB -15.84 dB 2:35 14-Twist And Shout
––––––––––––––––––––––––––––––––––––––––

Number of tracks: 14
Official DR value: DR12

Samplerate: 44100 Hz
Channels: 2
Bits per sample: 16
Bitrate: 917 kbps
Codec: FLAC
================================================================================



The Beatles: Discography (1963 - 1988) [Vinyl Rip 16/44 & mp3-320]

Tracklist VNL03 - 1964 - A Hard Day's Night (Re-issue 1973):
JP LP 1973 Toshiba EMI Ltd., Tokyo • AP-8147

A1. A Hard Day's Night [02:40]
A2. I Should Have Known Better [02:49]
A3. If I Fell [02:24]
A4. I'm Happy Just To Dance With You [02:01]
A5. And I Love Her [02:35]
A6. Tell Me Why [02:14]
A7. Can't Buy Me Love [02:15]
B1. Any Time At All [02:16]
B2. I'll Cry Instead [01:50]
B3. Things We Said Today [02:40]
B4. When I Get Home [02:21]
B5. You Can't Do That [02:39]
B6. I'll Be Back [02:26]

foobar2000 1.2.9 / Dynamic Range Meter 1.1.1
log date: 2016-12-14 12:01:36

––––––––––––––––––––––––––––––––––––––––
Analyzed: THE BEATLES / A Hard Day's Night (Japan, Apple, AP-8147)
––––––––––––––––––––––––––––––––––––––––

DR Peak RMS Duration Track
––––––––––––––––––––––––––––––––––––––––
DR10 -1.83 dB -14.28 dB 2:39 01-A Hard Day's Night
DR10 -1.23 dB -14.20 dB 2:48 02-I Should Have Known Better
DR10 -2.37 dB -13.86 dB 2:23 03-If I Fell
DR10 -1.74 dB -13.31 dB 2:01 04-I'm Happy Just To Dance With You
DR12 -1.73 dB -16.88 dB 2:34 05-And I Love Her
DR9 -1.99 dB -12.48 dB 2:14 06-Tell Me Why
DR10 -1.70 dB -14.19 dB 2:14 07-Can't Buy Me Love
DR12 -0.78 dB -14.28 dB 2:16 08-Any Time At All
DR12 -1.16 dB -15.32 dB 1:49 09-I'll Cry Instead
DR12 -0.66 dB -15.09 dB 2:40 10-Things We Said Today
DR11 -1.16 dB -14.00 dB 2:21 11-When I Get Home
DR10 -0.96 dB -13.29 dB 2:39 12-You Can't Do That
DR13 -1.17 dB -15.92 dB 2:25 13-I'll Be Back
––––––––––––––––––––––––––––––––––––––––

Number of tracks: 13
Official DR value: DR11

Samplerate: 44100 Hz
Channels: 2
Bits per sample: 16
Bitrate: 948 kbps
Codec: FLAC
================================================================================



The Beatles: Discography (1963 - 1988) [Vinyl Rip 16/44 & mp3-320]

Tracklist VNL04 - 1964 - Beatles For Sale (Re-issue 1970):
JP LP 1970 Toshiba EMI Ltd., Tokyo • AP-8442

A1. No Reply [02:22]
A2. I'm A Loser [02:35]
A3. Baby's In Black [02:11]
A4. Rock And Roll Music [02:36]
A5. I'll Follow The Sun [01:53]
A6. Mr. Moonlight [02:44]
A7. Kansas City [02:42]
B1. Eight Days A Week [02:49]
B2. Words Of Love [02:10]
B3. Honey Don't [03:03]
B4. Every Little Thing [02:09]
B5. I Don't Want To Spoil The Party [02:38]
B6. What You're Doing [02:36]
B7. Everybody's Trying To Be My Baby [02:30]

foobar2000 1.2.9 / Dynamic Range Meter 1.1.1
log date: 2016-12-14 12:02:00

––––––––––––––––––––––––––––––––––––––––
Analyzed: THE BEATLES / Beatles For Sale (Japan, Apple, AP-8442)
––––––––––––––––––––––––––––––––––––––––

DR Peak RMS Duration Track
––––––––––––––––––––––––––––––––––––––––
DR10 -2.38 dB -15.38 dB 2:21 01-No Reply
DR10 -3.45 dB -15.35 dB 2:34 02-I'm A Loser
DR10 -1.76 dB -14.51 dB 2:10 03-Baby's In Black
DR11 -1.04 dB -13.55 dB 2:35 04-Rock And Roll Music
DR11 -4.23 dB -17.62 dB 1:53 05-I'll Follow The Sun
DR10 -3.47 dB -15.27 dB 2:44 06-Mr. Moonlight
DR10 -2.17 dB -14.51 dB 2:41 07-Kansas City
DR11 -3.20 dB -15.92 dB 2:49 08-Eight Days A Week
DR10 -2.85 dB -15.25 dB 2:09 09-Words Of Love
DR12 -2.67 dB -16.49 dB 3:03 10-Honey Don't
DR11 -2.82 dB -15.99 dB 2:08 11-Every Little Thing
DR10 -2.88 dB -14.85 dB 2:38 12-I Don't Want To Spoil The Party
DR12 -2.50 dB -15.90 dB 2:36 13-What You're Doing
DR11 -2.26 dB -14.59 dB 2:29 14-Everybody's Trying To Be My Baby
––––––––––––––––––––––––––––––––––––––––

Number of tracks: 14
Official DR value: DR11

Samplerate: 44100 Hz
Channels: 2
Bits per sample: 16
Bitrate: 866 kbps
Codec: FLAC
================================================================================



The Beatles: Discography (1963 - 1988) [Vinyl Rip 16/44 & mp3-320]

Tracklist VNL05 - 1965 - Help! (Re-issue 1976):


A1. Help! [02:24]
A2. The Night Before [02:37]
A3. You've Got To Hide Your Love Away [02:12]
A4. I Need You [02:32]
A5. Another Girl [02:09]
A6. You're Going To Lose That Girl [02:21]
A7. Ticket To Ride [03:12]
B1. Act Naturally [02:33]
B2. It's Only Love [01:59]
B3. You Like Me Too Much [02:40]
B4. Tell Me What You See [02:41]
B5. I've Just Seen A Face [02:08]
B6. Yesterday [02:09]
B7. Dizzy Miss Lizzy [02:58]

foobar2000 1.2.9 / Dynamic Range Meter 1.1.1
log date: 2016-12-14 12:02:11

––––––––––––––––––––––––––––––––––––––––
Analyzed: THE BEATLES / Help! (Japan, Apple, EAS-80554)
––––––––––––––––––––––––––––––––––––––––

DR Peak RMS Duration Track
––––––––––––––––––––––––––––––––––––––––
DR11 -0.98 dB -13.87 dB 2:23 01-Help!
DR11 -1.44 dB -13.31 dB 2:36 02-The Night Before
DR11 -2.24 dB -16.34 dB 2:12 03-You've Got To Hide Your Love Away
DR11 -1.55 dB -15.23 dB 2:32 04-I Need You
DR11 -0.60 dB -12.96 dB 2:09 05-Another Girl
DR9 -2.56 dB -13.80 dB 2:21 06-You're Going To Lose That Girl
DR11 -0.84 dB -13.94 dB 3:12 07-Ticket To Ride
DR11 -2.15 dB -15.73 dB 2:33 08-Act Naturally
DR10 -2.36 dB -15.69 dB 1:58 09-It's Only Love
DR10 -2.35 dB -14.60 dB 2:39 10-You Like Me Too Much
DR11 -1.81 dB -15.38 dB 2:40 11-Tell Me What You See
DR11 -1.58 dB -14.30 dB 2:08 12-I've Just Seen A Face
DR11 -3.92 dB -17.13 dB 2:08 13-Yesterday
DR11 -3.33 dB -15.30 dB 2:58 14-Dizzy Miss Lizzy
––––––––––––––––––––––––––––––––––––––––

Number of tracks: 14
Official DR value: DR11

Samplerate: 44100 Hz
Channels: 2
Bits per sample: 16
Bitrate: 863 kbps
Codec: FLAC
================================================================================



The Beatles: Discography (1963 - 1988) [Vinyl Rip 16/44 & mp3-320]

Tracklist VNL06 - 1965 - Rubber Soul (Re-issue 1972):
JP LP 1972 Toshiba EMI Ltd., Tokyo • AP-8156

A1. Drive My Car [02:34]
A2. Norwegian Wood [02:08]
A3. You Won't See Me [03:26]
A4. Nowhere Man [02:48]
A5. Think For Yourself [02:23]
A6. The Word [02:49]
A7. Michelle [02:45]
B1. What Goes On [02:51]
B2. Girl [02:34]
B3. I'm Looking Through You [02:29]
B4. In My Life [02:30]
B5. Wait [02:18]
B6. If I Needed Someone [02:25]
B7. Run For Your Life [02:23]

foobar2000 1.2.9 / Dynamic Range Meter 1.1.1
log date: 2016-12-14 12:02:22

––––––––––––––––––––––––––––––––––––––––
Analyzed: THE BEATLES / Rubber Soul (Japan, Apple, AP-8156)
––––––––––––––––––––––––––––––––––––––––

DR Peak RMS Duration Track
––––––––––––––––––––––––––––––––––––––––
DR11 -1.67 dB -15.05 dB 2:34 01-Drive My Car
DR10 -0.13 dB -14.10 dB 2:07 02-Norwegian Wood
DR10 -1.07 dB -14.04 dB 3:26 03-You Won't See Me
DR11 -2.82 dB -16.03 dB 2:48 04-Nowhere Man
DR11 -2.39 dB -14.34 dB 2:22 05-Think For Yourself
DR10 -1.25 dB -13.57 dB 2:48 06-The Word
DR9 -0.89 dB -14.04 dB 2:44 07-Michelle
DR11 -2.50 dB -14.85 dB 2:50 08-What Goes On
DR12 -0.79 dB -14.61 dB 2:33 09-Girl
DR10 -2.05 dB -15.39 dB 2:28 10-I'm Looking Through You
DR11 -2.82 dB -16.23 dB 2:29 11-In My Life
DR10 -2.40 dB -14.89 dB 2:18 12-Wait
DR10 -3.25 dB -16.13 dB 2:25 13-If I Needed Someone
DR9 -2.29 dB -14.60 dB 2:22 14-Run For Your Life
––––––––––––––––––––––––––––––––––––––––

Number of tracks: 14
Official DR value: DR10

Samplerate: 44100 Hz
Channels: 2
Bits per sample: 16
Bitrate: 894 kbps
Codec: FLAC
================================================================================



The Beatles: Discography (1963 - 1988) [Vinyl Rip 16/44 & mp3-320]

Tracklist VNL07 - 1966 - Revolver (Re-issue 1973):
JP LP 1973 Toshiba EMI Ltd., Tokyo • AP-8443

A1. Taxman [02:43]
A2. Eleanor Rigby [02:10]
A3. I'm Only Sleeping [03:05]
A4. Love You To [03:04]
A5. Here, There And Everywhere [02:28]
A6. Yellow Submarine [02:44]
A7. She Said She Said [02:39]
B1. Good Day Sunshine [02:10]
B2. And Your Bird Can Sing [02:03]
B3. For No One [02:01]
B4. Dr. Robert [02:17]
B5. I Want To Tell You [02:30]
B6. Got To Get You Into My Life [02:30]
B7. Tomorrow Never Knows [03:00]

foobar2000 1.2.9 / Dynamic Range Meter 1.1.1
log date: 2016-12-14 12:02:33

––––––––––––––––––––––––––––––––––––––––
Analyzed: THE BEATLES / Revolver (Japan, Apple, AP-8443)
––––––––––––––––––––––––––––––––––––––––

DR Peak RMS Duration Track
––––––––––––––––––––––––––––––––––––––––
DR10 -2.48 dB -15.69 dB 2:42 01-Taxman
DR10 -2.70 dB -16.19 dB 2:09 02-Eleanor Rigby
DR10 -2.56 dB -16.38 dB 3:05 03-I'm Only Sleeping
DR10 -2.48 dB -15.52 dB 3:04 04-Love You To
DR11 -3.61 dB -18.70 dB 2:28 05-Here, There And Everywhere
DR11 -2.64 dB -16.56 dB 2:44 06-Yellow Submarine
DR9 -1.95 dB -13.10 dB 2:39 07-She Said She Said
DR12 -2.37 dB -16.55 dB 2:09 08-Good Day Sunshine
DR10 -2.58 dB -14.50 dB 2:03 09-And Your Bird Can Sing
DR10 -3.74 dB -16.11 dB 2:00 10-For No One
DR11 -3.57 dB -16.30 dB 2:17 11-Dr. Robert
DR11 -3.86 dB -17.15 dB 2:29 12-I Want To Tell You
DR11 -2.35 dB -15.04 dB 2:30 13-Got To Get You Into My Life
DR11 -2.82 dB -15.83 dB 2:59 14-Tomorrow Never Knows
––––––––––––––––––––––––––––––––––––––––

Number of tracks: 14
Official DR value: DR11

Samplerate: 44100 Hz
Channels: 2
Bits per sample: 16
Bitrate: 867 kbps
Codec: FLAC
================================================================================



The Beatles: Discography (1963 - 1988) [Vinyl Rip 16/44 & mp3-320]

Tracklist VNL08 - 1967 - Magical Mystery Tour (Re-issue 1973):
JP LP 1973 Toshiba EMI Ltd., Tokyo • EAP-9030X

A1. Magical Mystery Tour [02:49]
A2. The Fool On The Hill [02:57]
A3. Flying [02:18]
A4. Blue Jay Way [03:53]
A5. Your Mother Should Know [02:28]
A6. I Am The Walrus [04:36]
B1. Hello Goodbye [03:27]
B2. Strawberry Fields Forever [04:06]
B3. Penny Lane [03:00]
B4. Baby You're A Rich Man [03:05]
B5. All You Need Is Love [04:04]

foobar2000 1.2.9 / Dynamic Range Meter 1.1.1
log date: 2016-12-14 12:02:44

––––––––––––––––––––––––––––––––––––––––
Analyzed: THE BEATLES / Magical Mystery Tour (Japan, Apple, EAP-9030X)
––––––––––––––––––––––––––––––––––––––––

DR Peak RMS Duration Track
––––––––––––––––––––––––––––––––––––––––
DR11 -1.38 dB -15.49 dB 2:49 01-Magical Mystery Tour
DR11 -4.62 dB -18.91 dB 2:57 02-The Fool On The Hill
DR12 -1.98 dB -18.47 dB 2:17 03-Flying
DR12 -1.43 dB -18.40 dB 3:52 04-Blue Jay Way
DR11 -5.25 dB -19.41 dB 2:27 05-Your Mother Should Know
DR11 -4.40 dB -17.90 dB 4:35 06-I Am The Walrus
DR12 -1.93 dB -15.78 dB 3:27 07-Hello Goodbye
DR13 -1.37 dB -17.11 dB 4:06 08-Strawberry Fields Forever
DR12 -1.94 dB -17.65 dB 2:59 09-Penny Lane
DR12 -2.13 dB -17.42 dB 3:04 10-Baby You're A Rich Man
DR12 -3.22 dB -18.98 dB 4:03 11-All You Need Is Love
––––––––––––––––––––––––––––––––––––––––

Number of tracks: 11
Official DR value: DR12

Samplerate: 44100 Hz
Channels: 2
Bits per sample: 16
Bitrate: 875 kbps
Codec: FLAC
================================================================================



The Beatles: Discography (1963 - 1988) [Vinyl Rip 16/44 & mp3-320]

Tracklist VNL09 - 1967 - Sgt. Pepper's Lonely Hearts Club Band (Re-issue 1972):
JP LP 1972 Toshiba EMI Ltd., Tokyo • AP-8163

A1. Sgt. Pepper's Lonely Hearts Club Band [02:11]
A2. With A Little Help From My Friends [02:35]
A3. Lucy In The Sky With Diamonds [03:27]
A4. Getting Better [02:47]
A5. Fixing A Hole [02:36]
A6. She's Leaving Home [03:34]
A7. Being For The Benefit Of Mr. Kite [02:37]
B1. Within You, Without You [05:04]
B2. When I'm Sixty-Four [02:37]
B3. Lovely Rita [02:42]
B4. Good Morning, Good Morning [02:41]
B5. Sgt. Pepper's Lonely Hearts Club Band (Reprise) [01:19]
B6. A Day In The Life [05:18]

foobar2000 1.2.9 / Dynamic Range Meter 1.1.1
log date: 2016-12-14 12:02:55

––––––––––––––––––––––––––––––––––––––––
Analyzed: THE BEATLES / Sgt. Pepper's Lonely Hearts Club Band (Japan, Apple, AP-8163)
––––––––––––––––––––––––––––––––––––––––

DR Peak RMS Duration Track
––––––––––––––––––––––––––––––––––––––––
DR11 -1.58 dB -17.00 dB 2:10 01-Sgt. Pepper's Lonely Hearts Club Band
DR13 -1.45 dB -16.46 dB 2:34 02-With A Little Help From My Friends
DR13 -3.38 dB -19.26 dB 3:27 03-Lucy In The Sky With Diamonds
DR13 -1.19 dB -17.14 dB 2:47 04-Getting Better
DR12 -3.33 dB -18.36 dB 2:35 05-Fixing A Hole
DR11 -4.46 dB -18.19 dB 3:34 06-She's Leaving Home
DR12 -1.79 dB -16.03 dB 2:37 07-Being For The Benefit Of Mr. Kite
DR13 -2.09 dB -18.71 dB 5:04 08-Within You, Without You
DR12 -3.35 dB -18.04 dB 2:37 09-When I'm Sixty-Four
DR12 -1.31 dB -16.16 dB 2:42 10-Lovely Rita
DR11 -0.90 dB -15.13 dB 2:41 11-Good Morning, Good Morning
DR12 -1.01 dB -14.83 dB 1:19 12-Sgt. Pepper's Lonely Hearts Club Band (Reprise)
DR11 -3.47 dB -19.28 dB 5:18 13-A Day In The Life
––––––––––––––––––––––––––––––––––––––––

Number of tracks: 13
Official DR value: DR12

Samplerate: 44100 Hz
Channels: 2
Bits per sample: 16
Bitrate: 849 kbps
Codec: FLAC
================================================================================



The Beatles: Discography (1963 - 1988) [Vinyl Rip 16/44 & mp3-320]

Tracklist VNL10 - 1968 - The Beatles (White Album) (Re-issue 1976):
JP 2 x LP 1976 Toshiba EMI Ltd., Tokyo • EAS-77001~2

A1. Back In The U.S.S.R. [02:44]
A2. Dear Prudence [03:56]
A3. Glass Onion [02:19]
A4. Ob-La-Di, Ob-La-Da [03:09]
A5. Wild Honey Pie [01:02]
A6. The Continuing Story Of Bungalow Bill [03:06]
A7. While My Guitar Gently Weeps [04:46]
A8. Happiness Is A Warm Gun [02:46]
B1. Martha My Dear [02:28]
B2. I'm So Tired [02:03]
B3. Blackbird [02:18]
B4. Piggies [02:04]
B5. Rocky Racoon [03:32]
B6. Don't Pass Me By [03:49]
B7. Why Don't We Do It In The Road? [01:41]
B8. I Will [01:46]
B9. Julia [02:57]
C1. Birthday [02:44]
C2. Yer Blues [04:01]
C3. Mother Nature's Son [02:48]
C4. Everybody's Got Something To Hide Except Me And My Monkey [02:25]
C5. Sexy Sadie [03:15]
C6. Helter Skelter [04:30]
C7. Long, Long, Long [03:04]
D1. Revolution [04:16]
D2. Honey Pie [02:42]
D3. Savoy Truffle [02:55]
D4. Cry Baby Cry [03:11]
D5. Revolution 9 [08:13]
D6. Good Night [03:17]

foobar2000 1.2.9 / Dynamic Range Meter 1.1.1
log date: 2016-12-14 12:03:15

––––––––––––––––––––––––––––––––––––––––
Analyzed: THE BEATLES / The Beatles (aka: White Album) (Japan, Apple, EAS-77001~2)
––––––––––––––––––––––––––––––––––––––––

DR Peak RMS Duration Track
––––––––––––––––––––––––––––––––––––––––
DR11 -2.29 dB -15.25 dB 2:44 01-Back In The U.S.S.R.
DR12 -2.69 dB -18.87 dB 3:55 02-Dear Prudence
DR12 -2.15 dB -16.86 dB 2:18 03-Glass Onion
DR12 -2.81 dB -17.10 dB 3:09 04-Ob-La-Di, Ob-La-Da
DR13 -2.99 dB -18.96 dB 1:01 05-Wild Honey Pie
DR13 -2.59 dB -17.52 dB 3:06 06-The Continuing Story Of Bungalow Bill
DR12 -1.39 dB -16.34 dB 4:45 07-While My Guitar Gently Weeps
DR12 -1.86 dB -16.53 dB 2:45 08-Happiness Is A Warm Gun
DR13 -3.34 dB -19.58 dB 2:28 09-Martha My Dear
DR13 -0.76 dB -16.16 dB 2:03 10-I'm So Tired
DR14 -5.37 dB -22.59 dB 2:18 11-Blackbird
DR12 -4.11 dB -19.06 dB 2:03 12-Piggies
DR13 -2.78 dB -19.34 dB 3:32 13-Rocky Racoon
DR11 -3.85 dB -18.03 dB 3:49 14-Don't Pass Me By
DR12 -3.23 dB -17.41 dB 1:41 15-Why Don't We Do It In The Road?
DR10 -4.80 dB -16.28 dB 1:45 16-I Will
DR11 -6.39 dB -21.11 dB 2:57 17-Julia
DR11 -2.46 dB -16.03 dB 2:43 18-Birthday
DR11 -4.02 dB -18.50 dB 4:00 19-Yer Blues
DR12 -7.80 dB -25.62 dB 2:47 20-Mother Nature's Son
DR11 -4.20 dB -17.37 dB 2:25 21-Everybody's Got Something To Hide Except Me And My Monkey
DR12 -4.64 dB -19.42 dB 3:15 22-Sexy Sadie
DR10 -4.25 dB -17.42 dB 4:30 23-Helter Skelter
DR10 -6.33 dB -20.21 dB 3:04 24-Long, Long, Long
DR12 -3.31 dB -17.23 dB 4:15 25-Revolution
DR13 -4.74 dB -20.70 dB 2:42 26-Honey Pie
DR12 -4.96 dB -18.62 dB 2:55 27-Savoy Truffle
DR14 -1.09 dB -19.28 dB 3:11 28-Cry Baby Cry
DR12 -5.32 dB -22.89 dB 8:12 29-Revolution 9
DR11 -6.52 dB -21.26 dB 3:16 30-Good Night
––––––––––––––––––––––––––––––––––––––––

Number of tracks: 30
Official DR value: DR12

Samplerate: 44100 Hz
Channels: 2
Bits per sample: 16
Bitrate: 808 kbps
Codec: FLAC
================================================================================



The Beatles: Discography (1963 - 1988) [Vinyl Rip 16/44 & mp3-320]

Tracklist VNL11 - 1969 - Yellow Submarine (Re-issue 1976):
JP 1976 Toshiba EMI Ltd., Tokyo • EAS-80559

A1. Yellow Submarine [02:43]
A2. Only A Northern Song [03:27]
A3. All Together Now [02:13]
A4. Hey Bulldog [03:13]
A5. It's All Too Much [06:27]
A6. All You Need Is Love [03:48]
B1. Pepperland [02:23]
B2. Sea Of Time & Sea Of Holes [05:18]
B3. Sea Of Monsters [03:39]
B4. March Of The Meanies [02:24]
B5. Pepperland Laid Waste [02:15]
B6. Yellow Submarine In Pepperland [02:13]

foobar2000 1.2.9 / Dynamic Range Meter 1.1.1
log date: 2016-12-14 12:03:26

––––––––––––––––––––––––––––––––––––––––
Analyzed: THE BEATLES / Yellow Submarine (Japan, Apple, EAS-80559)
––––––––––––––––––––––––––––––––––––––––

DR Peak RMS Duration Track
––––––––––––––––––––––––––––––––––––––––
DR11 -3.19 dB -17.92 dB 2:43 01-Yellow Submarine
DR11 -4.91 dB -19.27 dB 3:27 02-Only A Northern Song
DR12 -3.29 dB -18.15 dB 2:13 03-All Together Now
DR12 -0.90 dB -16.02 dB 3:13 04-Hey Bulldog
DR11 -2.93 dB -16.47 dB 6:26 05-It's All Too Much
DR12 -3.19 dB -18.08 dB 3:47 06-All You Need Is Love
DR10 -4.91 dB -19.71 dB 2:22 07-Pepperland
DR12 -4.61 dB -22.91 dB 5:18 08-Sea Of Time & Sea Of Holes
DR12 -3.71 dB -20.42 dB 3:38 09-Sea Of Monsters
DR10 -3.26 dB -19.19 dB 2:23 10-March Of The Meanies
DR16 -2.25 dB -24.64 dB 2:14 11-Pepperland Laid Waste
DR11 -2.39 dB -19.78 dB 2:13 12-Yellow Submarine In Pepperland
––––––––––––––––––––––––––––––––––––––––

Number of tracks: 12
Official DR value: DR12

Samplerate: 44100 Hz
Channels: 2
Bits per sample: 16
Bitrate: 813 kbps
Codec: FLAC
================================================================================



The Beatles: Discography (1963 - 1988) [Vinyl Rip 16/44 & mp3-320]

Tracklist VNL12 - 1969 - Abbey Road (Re-issue 1973):
JP 1973 Toshiba EMI Ltd., Tokyo • AP-8815

A1. Come Together [04:21]
A2. Something [03:03]
A3. Maxwell's Silver Hammer [03:28]
A4. Oh! Darling [03:27]
A5. Octopus's Garden [02:51]
A6. I Want You (She's So Heavy) [07:45]
B1. Here Comes The Sun [03:05]
B2. Because [02:46]
B3. You Never Give Me Your Money [04:02]
B4. Sun King [02:26]
B5. Mean Mr. Mustard [01:06]
B6. Polythene Pam [01:13]
B7. She Came In Through The Bathroom Window [01:59]
B8. Golden Slumbers [01:32]
B9. Carry That Weight [01:37]
B10. The End [02:20]
B11. Her Majesty [00:28]

foobar2000 1.2.9 / Dynamic Range Meter 1.1.1
log date: 2016-12-14 12:03:43

––––––––––––––––––––––––––––––––––––––––
Analyzed: THE BEATLES / Abbey Road (Japan, Apple, AP-8815)
––––––––––––––––––––––––––––––––––––––––

DR Peak RMS Duration Track
––––––––––––––––––––––––––––––––––––––––
DR10 -2.47 dB -15.67 dB 4:21 01-Come Together
DR10 -3.58 dB -16.15 dB 3:03 02-Something
DR12 -3.60 dB -17.65 dB 3:27 03-Maxwell's Silver Hammer
DR12 -3.36 dB -16.39 dB 3:27 04-Oh! Darling
DR11 -3.26 dB -17.44 dB 2:51 05-Octopus's Garden
DR11 -3.22 dB -15.56 dB 7:45 06-I Want You (She's So Heavy)
DR12 -1.40 dB -15.99 dB 3:05 07-Here Comes The Sun
DR11 -4.71 dB -18.97 dB 2:45 08-Because
DR12 -1.45 dB -17.86 dB 4:02 09-You Never Give Me Your Money
DR9 -5.20 dB -16.79 dB 2:26 10-Sun King
DR12 -0.77 dB -14.19 dB 1:06 11-Mean Mr. Mustard
DR11 -0.82 dB -13.78 dB 1:12 12-Polythene Pam
DR12 -1.20 dB -14.27 dB 1:58 13-She Came In Through The Bathroom Window
DR11 -2.50 dB -17.87 dB 1:31 14-Golden Slumbers
DR11 -1.52 dB -15.14 dB 1:36 15-Carry That Weight
DR11 -1.84 dB -15.95 dB 2:20 16-The End
DR11 -3.98 dB -24.72 dB 0:28 17-Her Majesty
––––––––––––––––––––––––––––––––––––––––

Number of tracks: 17
Official DR value: DR11

Samplerate: 44100 Hz
Channels: 2
Bits per sample: 16
Bitrate: 821 kbps
Codec: FLAC
================================================================================



The Beatles: Discography (1963 - 1988) [Vinyl Rip 16/44 & mp3-320]

Tracklist VNL13 - 1970 - Let It Be (Re-issue 1976):


A1. Two Of Us [3:33]
A2. Dig A Pony [3:55]
A3. Across The Universe [3:51]
A4. I Me Mine [2:25]
A5. Dig It [0:51]
A6. Let It Be [4:01]
A7. Maggie Mae [0:39]
B1. I've Got A Feeling [3:38]
B2. One After 909 [2:52]
B3. The Long And Winding Road [3:40]
B4. For You Blue [2:33]
B5. Get Back [3:09]

foobar2000 1.2.9 / Dynamic Range Meter 1.1.1
log date: 2016-12-14 12:03:56

––––––––––––––––––––––––––––––––––––––––
Analyzed: THE BEATLES / Let It Be (Japan, Apple, EAS-80561)
––––––––––––––––––––––––––––––––––––––––

DR Peak RMS Duration Track
––––––––––––––––––––––––––––––––––––––––
DR12 -0.71 dB -15.78 dB 3:38 01-Two Of Us
DR11 -1.82 dB -14.70 dB 3:56 02-Dig A Pony
DR10 -4.54 dB -16.92 dB 3:48 03-Across The Universe
DR11 -1.30 dB -14.64 dB 2:27 04-I Me Mine
DR12 -1.67 dB -16.67 dB 0:50 05-Dig It
DR11 -1.32 dB -15.73 dB 4:03 06-Let It Be
DR11 -3.09 dB -17.04 dB 0:40 07-Maggie Mae
DR10 -2.38 dB -14.99 dB 3:38 08-I've Got A Feeling
DR11 -0.43 dB -12.49 dB 2:55 09-One After 909
DR10 -3.24 dB -15.75 dB 3:39 10-The Long And Winding Road
DR13 -0.74 dB -15.70 dB 2:33 11-For You Blue
DR11 -0.63 dB -13.59 dB 3:11 12-Get Back
––––––––––––––––––––––––––––––––––––––––

Number of tracks: 12
Official DR value: DR11

Samplerate: 44100 Hz
Channels: 2
Bits per sample: 16
Bitrate: 799 kbps
Codec: FLAC
================================================================================



The Beatles: Discography (1963 - 1988) [Vinyl Rip 16/44 & mp3-320]

Tracklist VNL14 - 1970 - Hey Jude (Reissue 1974):


A1. Can't Buy Me Love [2:15]
A2. I Should Have Known Better [2:49]
A3. Paperback Writer [2:22]
A4. Rain [3:06]
A5. Lady Madonna [2:22]
A6. Revolution [3:26]
B1. Hey Jude [7:11]
B2. Old Brown Shoe [3:22]
B3. Don't Let Me Down [3:38]
B4. Ballad Of John And Yoko [2:59]

foobar2000 1.2.9 / Dynamic Range Meter 1.1.1
log date: 2016-12-14 12:04:27

––––––––––––––––––––––––––––––––––––––––
Analyzed: THE BEATLES / Hey Jude (Japan, Apple, AP-8940)
––––––––––––––––––––––––––––––––––––––––

DR Peak RMS Duration Track
––––––––––––––––––––––––––––––––––––––––
DR10 -2.74 dB -14.54 dB 2:15 01-Can't Buy Me Love
DR11 -1.86 dB -14.88 dB 2:49 02-I Should Have Known Better
DR10 -3.70 dB -15.73 dB 2:22 03-Paperback Writer
DR9 -2.32 dB -13.41 dB 3:06 04-Rain
DR10 -3.81 dB -15.42 dB 2:22 05-Lady Madonna
DR11 -2.23 dB -14.41 dB 3:26 06-Revolution
DR12 -1.60 dB -16.59 dB 7:11 07-Hey Jude
DR11 -3.29 dB -17.36 dB 3:22 08-Old Brown Shoe
DR11 -3.23 dB -15.63 dB 3:38 09-Don't Let Me Down
DR11 -1.06 dB -13.55 dB 2:59 10-Ballad Of John And Yoko
––––––––––––––––––––––––––––––––––––––––

Number of tracks: 10
Official DR value: DR11

Samplerate: 44100 Hz
Channels: 2
Bits per sample: 16
Bitrate: 915 kbps
Codec: FLAC
================================================================================



The Beatles: Discography (1963 - 1988) [Vinyl Rip 16/44 & mp3-320]

Tracklist VNL15 - 1988 - Past Masters, Vol. 1 & 2 (Reissue 1993):
JP 2 x LP 1993 Toshiba EMI Ltd. • TOJP-7421~22

A1. Love Me Do (single version) [2:24]
A2. From Me To You [1:58]
A3. Thank You Girl [2:04]
A4. She Love You [2:21]
A5. I'll Get You [2:06]
A6. I Want To Hold Your Hand [2:27]
A7. This Boy [2:16]
A8. Komm, Gib Mir Deine Hand [2:27]
A9. Sie Leibt Dich [2:22]
B1. Long Tall Sally [2:03]
B2. I Call Your Name [2:09]
B3. Slow Down [2:56]
B4. Matchbox [1:59]
B5. I Feel Fine [2:20]
B6. She's A Woman [3:03]
B7. Bad Boy [2:21]
B8. Yes It Is [2:43]
B9. I'm Down [2:32]
C1. Day Tripper [2:49]
C2. We Can Work It Out [2:16]
C3. Paperback Writer [2:19]
C4. Rain [3:02]
C5. Lady Madonna [2:17]
C6. The Inner Light [2:37]
C7. Hey Jude [7:08]
C8. Revolution [3:25]
D1. Get Back [3:15]
D2. Don't Let Me Down [3:35]
D3. The Ballad of John & Yoko [3:00]
D4. Old Brown Shoe [3:18]
D5. Across The Universe [3:49]
D6. Let It Be [3:51]
D7. You Know My Name (Look Up The Number) [4:22]

foobar2000 1.2.9 / Dynamic Range Meter 1.1.1
log date: 2016-12-14 12:04:16

––––––––––––––––––––––––––––––––––––––––
Analyzed: THE BEATLES / Past Masters, Vol. 1 & 2 (Japan, Odeon, TOJP-7421~22)
––––––––––––––––––––––––––––––––––––––––

DR Peak RMS Duration Track
––––––––––––––––––––––––––––––––––––––––
DR12 -1.79 dB -15.67 dB 2:24 01-Love Me Do (single version)
DR10 -2.31 dB -12.92 dB 1:58 02-From Me To You
DR12 -2.78 dB -15.66 dB 2:04 03-Thank You Girl
DR10 -1.43 dB -13.22 dB 2:21 04-She Love You
DR10 -2.91 dB -14.15 dB 2:06 05-I'll Get You
DR9 -2.69 dB -14.32 dB 2:27 06-I Want To Hold Your Hand
DR10 -3.75 dB -17.28 dB 2:16 07-This Boy
DR11 -4.14 dB -17.19 dB 2:27 08-Komm, Gib Mir Deine Hand
DR11 -4.87 dB -17.33 dB 2:22 09-Sie Leibt Dich
DR11 -0.86 dB -13.57 dB 2:03 10-Long Tall Sally
DR11 -1.59 dB -15.43 dB 2:09 11-I Call Your Name
DR11 -2.15 dB -15.14 dB 2:56 12-Slow Down
DR11 -2.90 dB -15.99 dB 1:59 13-Matchbox
DR11 -2.52 dB -15.41 dB 2:20 14-I Feel Fine
DR12 -2.19 dB -17.57 dB 3:03 15-She's A Woman
DR12 -1.89 dB -16.83 dB 2:21 16-Bad Boy
DR12 -2.76 dB -16.80 dB 2:43 17-Yes It Is
DR11 -1.42 dB -16.54 dB 2:32 18-I'm Down
DR12 -1.37 dB -15.87 dB 2:49 19-Day Tripper
DR12 -1.80 dB -15.75 dB 2:16 20-We Can Work It Out
DR10 -2.85 dB -15.59 dB 2:19 21-Paperback Writer
DR9 -2.10 dB -13.63 dB 3:02 22-Rain
DR11 -3.68 dB -16.09 dB 2:17 23-Lady Madonna
DR12 -2.61 dB -17.18 dB 2:37 24-The Inner Light
DR12 -2.52 dB -18.04 dB 7:08 25-Hey Jude
DR12 -0.56 dB -16.64 dB 3:25 26-Revolution
DR10 -3.04 dB -15.43 dB 3:15 27-Get Back
DR11 -1.90 dB -14.13 dB 3:35 28-Don't Let Me Down
DR11 -1.27 dB -14.51 dB 3:00 29-The Ballad of John & Yoko
DR11 -2.49 dB -16.01 dB 3:18 30-Old Brown Shoe
DR11 -5.19 dB -18.33 dB 3:49 31-Across The Universe
DR11 -3.11 dB -17.69 dB 3:51 32-Let It Be
DR13 -4.14 dB -19.11 dB 4:22 33-You Know My Name (Look Up The Number)
––––––––––––––––––––––––––––––––––––––––

Number of tracks: 33
Official DR value: DR11

Samplerate: 44100 Hz
Channels: 2
Bits per sample: 16
Bitrate: 742 kbps
Codec: FLAC
================================================================================



All thanks goes to Dymokust, dr.Robert & KoGGaN