Subcategories

The Beatles - Never Mind The Tremeloes... Here's The Beatles (2011)

Posted By: v3122
The Beatles - Never Mind The Tremeloes... Here's The Beatles (2011)

The Beatles - Never Mind The Tremeloes… Here's The Beatles (2011)
EAC | Flac(Image) + Cue + Log & MP3 CBR 320Kbps
45-F.11486 | ~ 111 or 83 Mb | Artwork(jpg) -> 1.24 Mb
Rock, Beat

~ Compilation, Unofficial Release ~

On 1st January 1962, some four days before the English release of "My Bonnie", the Beatles auditioned for Decca, their first for a major U.K. record label.
As history records they were turned down.
As stated above, The Beatles legendary audition for Decca took place in London on New Year's Day in 1962.
The session followed the label's A&R representative Mike Smith's attendance at a Cavern performance on 13th December 1961. The Beatles' performance that night hadn't been strong enough to secure them a record deal, but the label was willing to offer them a session in their studios at 165 Broadhurst Gardens, West Hampstead, London.

The group as it was then - John Lennon, Paul McCartney, George Harrison and Pete Best - travelled down from Liverpool with driver and roadie Neil Aspinall. Beset by snowstorms, the party eventually arrived just in time for the 11am audition. Brian Epstein had travelled separately on train.

The group was annoyed that Smith turned up late, having spent the night before seeing in the new year. Smith further unnerved them by insisting they use Decca's amplifiers, having judged The Beatles' own gear to be substandard.
The Beatles recorded 15 songs altogether as appears on this disc and listed below.
Three of the songs - Like Dreamers Do, Hello Little Girl and Love Of The Loved - were Lennon-McCartney originals. It is likely that the majority of songs were recorded in a single take without overdubs; the entire session, which began at 11am, took roughly an hour.

Five of the Decca recordings - Searchin', Three Cool Cats, The Sheik Of Araby, Like Dreamers Do and Hello Little Girl - appeared on the Anthology 1 collection in 1995. The rest have been widely available on bootleg since the late seventies.

Although nerves meant The Beatles didn't perform at their best, all four members and Brian Epstein were confident that the session would inevitably lead to a contract with Decca. The label, meanwhile, was erring towards Brian Poole and the Tremeloes, who had also auditioned that day. As head of A&R Dick Rowe later remembered:

"I told Mike he'd have to decide between them. It was up to him - The Beatles or Brian Poole and the Tremeoloes. He said, 'They're both good, but one's a local group, the other comes from Liverpool.' We decided it was better to take the local group. We could work with them more easily and stay closer in touch as they came from Dagenham."
Hence the title of this issue !
But the official reason given was that "guitar groups are on the way out". These words would become infamous, and Dick Rowe later became known as "the man who turned down The Beatles". He did, however, sign The Rolling Stones on the recommendation of George Harrison.
Brian Epstein didn't take rejection lying down. He travelled back to London for further meetings with Decca, even promising their sales team that he'd buy 3,000 copies of any Beatles single they released. Had Dick Rowe been informed of this, history could have been quite different.

"I was never told about that at the time. The way economics were in the record business then, if we'd been sure of selling 3,000 copies, we'd have been forced to record them, whatever sort of group they were."
However, the Decca audition tapes did prove fortunate for The Beatles. Had they signed to Decca, their career may never have involved Ringo Starr, who joined the group only after George Martin expressed concerns about Pete Best's drumming. Furthermore, the audition gave Epstein some good-quality recordings of the group on reel-to-reel, enabling him to take them around the remaining London labels.
The manager of the HMV record store on London's Oxford Street suggested that Epstein transfer the recordings from reel-to-reel to disc, to enable them to be more easily played. Epstein agreed, and immediately took the tapes to a studio and pressing plant situated above the store. Engineer Jim Foy was impressed with the recordings. When Epstein told him three of the songs were original Lennon-McCartney compositions, Foy contacted Sid Coleman, of music publishers Ardmore & Beechwood (a subsidiary of EMI), who offered Epstein a publishing deal.

Epstein's priority was to get the group signed, and so Coleman arranged a meeting between The Beatles' manager and George Martin, the A&R head at Parlophone. Upon hearing the Decca recordings, Martin was sufficiently interested to offer The Beatles an audition at Abbey Road.
The rest is history …..

This CD was made available for free as a download and announced as the ultimate version of the legendary Decca tapes.

~ jpgr.co.uk
The Beatles - Never Mind The Tremeloes… Here's The Beatles (2011):

The Beatles - Never Mind The Tremeloes... Here's The Beatles (2011)

Tracklist:

1. Money (That's What I Want) (2:22)
2. The Sheik of Araby (1:42)
3. Memphis Tennessee (2:19)
4. Three Cool Cats (2:26)
5. Sure To Fall (2:02)
6. September In The Rain (1:55)
7. Take Good Care of My Baby (2:26)
8. Till There Was You (2:58)
9. Crying, Waiting, Hoping (2:02)
10. To Know Her Is To Love Her (2:35)
11. Besame Mucho (2:39)
12. Searchin' (3:03)
13. Like Dreamers Do (2:36)
14. Hello Little Girl (1:40)
15. Love of The Loved (1:51)
16. We Hoped We'd Passed The Audition (0:32)

Exact Audio Copy V0.99 prebeta 5 from 4. May 2009

EAC extraction logfile from 29. July 2011, 19:59

The Beatles / Nevermind The Tremeloes … Here's The Beatles

Used drive : PIONEER DVD-RW DVR-111D Adapter: 1 ID: 1

Read mode : Secure
Utilize accurate stream : Yes
Defeat audio cache : Yes
Make use of C2 pointers : No

Read offset correction : 48
Overread into Lead-In and Lead-Out : No
Fill up missing offset samples with silence : Yes
Delete leading and trailing silent blocks : No
Null samples used in CRC calculations : Yes
Used interface : Native Win32 interface for Win NT & 2000

Used output format : User Defined Encoder
Selected bitrate : 896 kBit/s
Quality : High
Add ID3 tag : No
Command line compressor : C:\Program Files\Exact Audio Copy\FLAC\FLAC.EXE
Additional command line options : -V -8 -T "artist=%a" -T "title=%t" -T "album=%g" -T "date=%y" -T "tracknumber=%n" -T "genre=%m" %s


TOC of the extracted CD

Track | Start | Length | Start sector | End sector
––––––––––––––––––––––––––––-
1 | 0:00.00 | 2:22.58 | 0 | 10707
2 | 2:22.58 | 1:41.54 | 10708 | 18336
3 | 4:04.37 | 2:19.37 | 18337 | 28798
4 | 6:23.74 | 2:25.38 | 28799 | 39711
5 | 8:49.37 | 2:02.21 | 39712 | 48882
6 | 10:51.58 | 1:54.42 | 48883 | 57474
7 | 12:46.25 | 2:25.66 | 57475 | 68415
8 | 15:12.16 | 2:58.08 | 68416 | 81773
9 | 18:10.24 | 2:02.41 | 81774 | 90964
10 | 20:12.65 | 2:34.43 | 90965 | 102557
11 | 22:47.33 | 2:39.01 | 102558 | 114483
12 | 25:26.34 | 3:03.38 | 114484 | 128246
13 | 28:29.72 | 2:35.13 | 128247 | 139884
14 | 31:05.10 | 1:39.65 | 139885 | 147374
15 | 32:45.00 | 1:51.12 | 147375 | 155711
16 | 34:36.12 | 0:32.11 | 155712 | 158122


Range status and errors

Selected range

Filename D:\The Beatles - Nevermind The Tremeloes … Here's The Beatles.wav

Peak level 100.0 %
Range quality 100.0 %
Copy CRC 665CDC3E
Copy OK

No errors occurred


AccurateRip summary

Track 1 not present in database
Track 2 not present in database
Track 3 not present in database
Track 4 not present in database
Track 5 not present in database
Track 6 not present in database
Track 7 not present in database
Track 8 not present in database
Track 9 not present in database
Track 10 not present in database
Track 11 not present in database
Track 12 not present in database
Track 13 not present in database
Track 14 not present in database
Track 15 not present in database
Track 16 not present in database

None of the tracks are present in the AccurateRip database

End of status report


[CUETools log; Date: 11.03.2020 13:16:06; Version: 2.1.4]
[AccurateRip ID: 00153b5d-01004af6-e0083c10] found.
Track [ CRC | V2 ] Status
01 [bb0cb7dc|03cf4a24] (0+2/2) Accurately ripped
02 [ba27628b|9f22b154] (0+2/2) Accurately ripped
03 [3ee1311d|65b8c334] (0+2/2) Accurately ripped
04 [c0d18852|101b6840] (0+2/2) Accurately ripped
05 [7fc7b621|adc7d946] (0+2/2) Accurately ripped
06 [cabaada6|820c4581] (0+2/2) Accurately ripped
07 [d77b8585|56ed8ddd] (0+2/2) Accurately ripped
08 [a4e3f3ba|d9872d32] (0+2/2) Accurately ripped
09 [a6202518|84f697aa] (0+2/2) Accurately ripped
10 [0c8565ef|1bc164c9] (0+2/2) Accurately ripped
11 [455682ad|2788f2d5] (0+2/2) Accurately ripped
12 [1b447a17|99ba206b] (0+2/2) Accurately ripped
13 [5aedcc1b|ab59c969] (0+2/2) Accurately ripped
14 [662c9026|a28659a8] (0+2/2) Accurately ripped
15 [3e9e25b7|56894420] (0+2/2) Accurately ripped
16 [f5eee448|5871fc93] (0+2/2) Accurately ripped

Track Peak [ CRC32 ] [W/O NULL] [ LOG ]
– 99,9 [665CDC3E] [C7D73068] CRC32
01 91,9 [2710D4DE] [455928CD]
02 99,9 [A3F073CB] [0436F72A]
03 94,1 [88D2B90B] [73E29DB4]
04 80,0 [E0E176E0] [A2252C80]
05 82,8 [851EA8C6] [6C0B7A49]
06 81,8 [8DA07D6D] [CA7ACAE6]
07 94,5 [8BFA615C] [E570D729]
08 82,9 [B7412ADF] [38C87DCF]
09 90,7 [7E5E2845] [9650A2C9]
10 97,8 [6D908039] [4C2A970B]
11 92,7 [EDE73CC9] [549A3A5D]
12 97,3 [AE6A7F60] [D3FAA759]
13 88,9 [40351BAA] [38177617]
14 77,6 [DE2E86C4] [756B5C39]
15 97,8 [D8EDD43D] [DA2B2D45]
16 56,7 [11F84D2F] [86CA781C]


The Beatles - Never Mind The Tremeloes... Here's The Beatles (2011)

All thanks go to Dualtrack

Beatles in my Blog

Download The Beatles - Never Mind The Tremeloes… Here's The Beatles (2011):