Subcategories

The Beatles - The Beatles (White Album) (1968) {2018, 3CD Box Set, 50th Anniversary Deluxe Edition, Japan}

Posted By: popsakov
The Beatles - The Beatles (White Album) (1968) {2018, 3CD Box Set, 50th Anniversary Deluxe Edition, Japan}

The Beatles - The Beatles (White Album) (1968) {2018, 3CD Box Set, 50th Anniversary Deluxe Edition, Japan}
EAC Rip | FLAC (Img) + Cue + Log ~ 1,02 Gb | MP3 CBR320 ~ 408 Mb
Full Scans ~ 134 Mb | RAR 5% Recovery
Pop Rock / Soft Rock / Progressive Rock / Psychedelic Rock / Rock & Roll / Experimental
Apple Records / Universal Music #UICY-78857/8/9

For 50 years, The White Album has invited its listeners to venture forth and explore the breadth and ambition of its music, delighting and inspiring each new generation in turn. The Beatles have now released a suite of lavishly presented White Album packages, including an expanded 3CD package. The album's 30 tracks are newly mixed by producer Giles Martin and mix engineer Sam Okell and features the new stereo album mix on 2CDs, adding a third CD of the Esher Demos.

This is the first time The BEATLES (‘White Album’) has been remixed and presented with an additional disc demo recordings. To create the new stereo audio mixes for ‘The White Album,’ Giles Martin and Sam Okell worked with an expert team of engineers and audio restoration specialists at Abbey Road Studios in London. This 3CD ‘White Album’ release includes Martin’s new stereo album mix, sourced directly from the original four-track and eight-track session tapes. Martin’s new mix is guided by the album’s original stereo mix produced by his father, George Martin. During the last week of May 1968, The Beatles gathered at George’s house in Esher, Surrey, where they recorded acoustic demos for 27 songs. Known as the Esher Demos, all 27 recordings are also included in the 3CD Deluxe package, sourced from the original four-track tapes. The Deluxe 3CD set is presented in an embossed digipak with the fold-out poster and portrait photos, plus a 24-page booklet.

***************

Track List CD1: 2018 Stereo • Mix

01. Back In The U.S.S.R. [0:02:44.36]
02. Dear Prudence [0:03:54.73]
03. Glass Onion [0:02:17.53]
04. Ob-La-Di, Ob-La-Da [0:03:08.61]
05. Wild Honey Pie [0:00:53.00]
06. The Continuing Story Of Bungalow Bill [0:03:14.17]
07. While My Guitar Gently Weeps [0:04:45.18]
08. Happiness Is A Warm Gun [0:02:44.39]
09. Martha My Dear [0:02:28.36]
10. I'm So Tired [0:02:03.30]
11. Blackbird [0:02:18.27]
12. Piggies [0:02:04.23]
13. Rocky Racoon [0:03:33.06]
14. Don't Pass Me By [0:03:50.23]
15. Why Don't We Do It In The Road? [0:01:41.55]
16. I Will [0:01:45.59]
17. Julia [0:03:00.37]

Exact Audio Copy V1.3 from 2. September 2016

Отчёт EAC об извлечении, выполненном 15. мая 2019, 15:12

The Beatles / The Beatles [White Album] (Disc 1)

Дисковод: PLEXTOR DVDR PX-755A Adapter: 1 ID: 0

Режим чтения : Достоверность
Использование точного потока : Да
Отключение кэша аудио : Да
Использование указателей C2 : Нет

Коррекция смещения при чтении : 30
Способность читать области Lead-in и Lead-out : Нет
Заполнение пропущенных сэмплов тишиной : Да
Удаление блоков с тишиной в начале и конце : Нет
При вычислениях CRC использовались нулевые сэмплы : Да
Интерфейс : Встроенный Win32-интерфейс для Win NT/2000

Выходной формат : Пользовательский кодировщик
Выбранный битрейт : 1024 kBit/s
Качество : Высокий
Добавление ID3-тега : Нет
Утилита сжатия : C:\Program Files (x86)\Exact Audio Copy\FLAC\FLAC.EXE
Дополнительные параметры : -6 -V -T "ARTIST=%artist%" -T "TITLE=%title%" -T "ALBUM=%albumtitle%" -T "DATE=%year%" -T "TRACKNUMBER=%tracknr%" -T "GENRE=%genre%" -T "COMMENT=%comment%" -T "BAND=%albuminterpret%" -T "ALBUMARTIST=%albuminterpret%" -T "COMPOSER=%composer%" %haslyrics%–tag-from-file=LYRICS="%lyricsfile%"%haslyrics% -T "DISCNUMBER=%cdnumber%" -T "TOTALDISCS=%totalcds%" -T "TOTALTRACKS=%numtracks%" %hascover%–picture="%coverfile%"%hascover% %source% -o %dest%


TOC извлечённого CD

Трек | Старт | Длительность | Начальный сектор | Конечный сектор
––––––––––––––––––––––––––––––––––-
1 | 0:00.00 | 2:44.36 | 0 | 12335
2 | 2:44.36 | 3:54.73 | 12336 | 29958
3 | 6:39.34 | 2:17.53 | 29959 | 40286
4 | 8:57.12 | 3:08.61 | 40287 | 54447
5 | 12:05.73 | 0:53.00 | 54448 | 58422
6 | 12:58.73 | 3:14.17 | 58423 | 72989
7 | 16:13.15 | 4:45.18 | 72990 | 94382
8 | 20:58.33 | 2:44.39 | 94383 | 106721
9 | 23:42.72 | 2:28.36 | 106722 | 117857
10 | 26:11.33 | 2:03.30 | 117858 | 127112
11 | 28:14.63 | 2:18.27 | 127113 | 137489
12 | 30:33.15 | 2:04.23 | 137490 | 146812
13 | 32:37.38 | 3:33.06 | 146813 | 162793
14 | 36:10.44 | 3:50.23 | 162794 | 180066
15 | 40:00.67 | 1:41.55 | 180067 | 187696
16 | 41:42.47 | 1:45.59 | 187697 | 195630
17 | 43:28.31 | 3:00.37 | 195631 | 209167


Характеристики диапазона извлечения и сообщения об ошибках

Выбранный диапазон

Имя файла E:\РАЗДАЧА\The Beatles [White Album - 2018 Japan]\The Beatles - The Beatles [White Album] (Disc 1).wav

Пиковый уровень 98.6 %
Скорость извлечения 7.8 X
Качество диапазона 100.0 %
CRC теста 3B76AD97
CRC копии 3B76AD97
Копирование… OK

Ошибок не произошло


AccurateRip: сводка

Трек 1 : извлечено точно (доверие 19) [0F7057E0] (AR v2)
Трек 2 : извлечено точно (доверие 19) [3A7D49D7] (AR v2)
Трек 3 : извлечено точно (доверие 19) [056223C6] (AR v2)
Трек 4 : извлечено точно (доверие 19) [70F13B8C] (AR v2)
Трек 5 : извлечено точно (доверие 19) [56EB3F80] (AR v2)
Трек 6 : извлечено точно (доверие 19) [3B612221] (AR v2)
Трек 7 : извлечено точно (доверие 19) [5E710C1F] (AR v2)
Трек 8 : извлечено точно (доверие 19) [7F067515] (AR v2)
Трек 9 : извлечено точно (доверие 19) [35BE7F45] (AR v2)
Трек 10 : извлечено точно (доверие 19) [6685064E] (AR v2)
Трек 11 : извлечено точно (доверие 19) [F6EE80BD] (AR v2)
Трек 12 : извлечено точно (доверие 19) [B825C41A] (AR v2)
Трек 13 : извлечено точно (доверие 19) [D4C62B98] (AR v2)
Трек 14 : извлечено точно (доверие 19) [05E5082A] (AR v2)
Трек 15 : извлечено точно (доверие 19) [C5E86D0E] (AR v2)
Трек 16 : извлечено точно (доверие 19) [79836B55] (AR v2)
Трек 17 : извлечено точно (доверие 18) [F673931B] (AR v2)

Все треки извлечены точно

Конец отчёта

==== Контрольная сумма отчёта F042CE52B12867A4AAC71E49724FC14D8A54B136E21489BD991C0930468F11B9 ====

Track List CD2: 2018 Stereo • Mix

01. Birthday [0:02:42.74]
02. Yer Blues [0:04:01.00]
03. Mother Nature's Son [0:02:47.62]
04. Everybody's Got Something To Hide Except Me And My Monkey [0:02:24.49]
05. Sexy Sadie [0:03:15.32]
06. Helter Skelter [0:04:29.58]
07. Long, Long, Long [0:03:06.32]
08. Revolution 1 [0:04:15.49]
09. Honey Pie [0:02:41.12]
10. Savoy Truffle [0:02:54.33]
11. Cry Baby Cry [0:03:01.65]
12. Revolution 9 [0:08:20.64]
13. Good Night [0:03:17.30]

Exact Audio Copy V1.3 from 2. September 2016

Отчёт EAC об извлечении, выполненном 15. мая 2019, 15:34

The Beatles / The Beatles [White Album] (Disc 2)

Дисковод: PLEXTOR DVDR PX-755A Adapter: 1 ID: 0

Режим чтения : Достоверность
Использование точного потока : Да
Отключение кэша аудио : Да
Использование указателей C2 : Нет

Коррекция смещения при чтении : 30
Способность читать области Lead-in и Lead-out : Нет
Заполнение пропущенных сэмплов тишиной : Да
Удаление блоков с тишиной в начале и конце : Нет
При вычислениях CRC использовались нулевые сэмплы : Да
Интерфейс : Встроенный Win32-интерфейс для Win NT/2000

Выходной формат : Пользовательский кодировщик
Выбранный битрейт : 1024 kBit/s
Качество : Высокий
Добавление ID3-тега : Нет
Утилита сжатия : C:\Program Files (x86)\Exact Audio Copy\FLAC\FLAC.EXE
Дополнительные параметры : -6 -V -T "ARTIST=%artist%" -T "TITLE=%title%" -T "ALBUM=%albumtitle%" -T "DATE=%year%" -T "TRACKNUMBER=%tracknr%" -T "GENRE=%genre%" -T "COMMENT=%comment%" -T "BAND=%albuminterpret%" -T "ALBUMARTIST=%albuminterpret%" -T "COMPOSER=%composer%" %haslyrics%–tag-from-file=LYRICS="%lyricsfile%"%haslyrics% -T "DISCNUMBER=%cdnumber%" -T "TOTALDISCS=%totalcds%" -T "TOTALTRACKS=%numtracks%" %hascover%–picture="%coverfile%"%hascover% %source% -o %dest%


TOC извлечённого CD

Трек | Старт | Длительность | Начальный сектор | Конечный сектор
––––––––––––––––––––––––––––––––––-
1 | 0:00.00 | 2:42.74 | 0 | 12223
2 | 2:42.74 | 4:01.00 | 12224 | 30298
3 | 6:43.74 | 2:47.62 | 30299 | 42885
4 | 9:31.61 | 2:24.49 | 42886 | 53734
5 | 11:56.35 | 3:15.32 | 53735 | 68391
6 | 15:11.67 | 4:29.58 | 68392 | 88624
7 | 19:41.50 | 3:06.32 | 88625 | 102606
8 | 22:48.07 | 4:15.49 | 102607 | 121780
9 | 27:03.56 | 2:41.12 | 121781 | 133867
10 | 29:44.68 | 2:54.33 | 133868 | 146950
11 | 32:39.26 | 3:01.65 | 146951 | 160590
12 | 35:41.16 | 8:20.64 | 160591 | 198154
13 | 44:02.05 | 3:17.30 | 198155 | 212959


Характеристики диапазона извлечения и сообщения об ошибках

Выбранный диапазон

Имя файла E:\РАЗДАЧА\The Beatles [White Album - 2018 Japan]\CD-2\The Beatles - The Beatles [White Album] (Disc 2).wav

Пиковый уровень 96.4 %
Скорость извлечения 7.7 X
Качество диапазона 100.0 %
CRC теста DF42782D
CRC копии DF42782D
Копирование… OK

Ошибок не произошло


AccurateRip: сводка

Трек 1 : извлечено точно (доверие 18) [DF13EAA9] (AR v2)
Трек 2 : извлечено точно (доверие 18) [5661600B] (AR v2)
Трек 3 : извлечено точно (доверие 18) [BDE47FA0] (AR v2)
Трек 4 : извлечено точно (доверие 18) [710A5276] (AR v2)
Трек 5 : извлечено точно (доверие 18) [ED6652C3] (AR v2)
Трек 6 : извлечено точно (доверие 18) [F782B6B6] (AR v2)
Трек 7 : извлечено точно (доверие 18) [DC9CC2BB] (AR v2)
Трек 8 : извлечено точно (доверие 18) [7291FEFF] (AR v2)
Трек 9 : извлечено точно (доверие 18) [079D09FA] (AR v2)
Трек 10 : извлечено точно (доверие 18) [15479C7D] (AR v2)
Трек 11 : извлечено точно (доверие 18) [8DE8B09F] (AR v2)
Трек 12 : извлечено точно (доверие 18) [D7BC9DAE] (AR v2)
Трек 13 : извлечено точно (доверие 18) [65458C8D] (AR v2)

Все треки извлечены точно

Конец отчёта

==== Контрольная сумма отчёта 075E4D6B96321E73B142644FB9EAD286B178E0FCFF6DFE88DBD53BAD1F62968C ====

Track List CD3: Esher Demos

01. Back In The U.S.S.R. [0:03:00.68]
02. Dear Prudence [0:04:47.04]
03. Glass Onion [0:01:55.45]
04. Ob-La-Di, Ob-La-Da [0:03:10.45]
05. The Continuing Story Of Bungalow Bill [0:02:40.69]
06. While My Guitar Gently Weeps [0:02:41.33]
07. Happiness Is A Warm Gun [0:01:55.02]
08. I'm So Tired [0:03:10.57]
09. Blackbird [0:02:34.39]
10. Piggies [0:02:05.59]
11. Rocky Raccoon [0:02:44.24]
12. Julia [0:03:56.35]
13. Yer Blues [0:03:31.29]
14. Mother Nature's Son [0:02:24.31]
15. Everybody's Got Something To Hide Except Me And My Monkey [0:03:03.67]
16. Sexy Sadie [0:02:26.52]
17. Revolution [0:04:06.48]
18. Honey Pie [0:01:59.68]
19. Cry Baby Cry [0:02:27.55]
20. Sour Milk Sea [0:03:43.40]
21. Junk [0:02:36.44]
22. Child Of Nature [0:02:37.58]
23. Circles [0:02:16.53]
24. Mean Mr Mustard [0:02:05.44]
25. Polythene Pam [0:01:26.18]
26. Not Guilty [0:03:05.14]
27. What's The New Mary Jane [0:02:45.11]

Exact Audio Copy V1.3 from 2. September 2016

Отчёт EAC об извлечении, выполненном 15. мая 2019, 16:01

The Beatles / The Beatles & The Esher Demos (50th Anniversary)

Дисковод: PLEXTOR DVDR PX-755A Adapter: 1 ID: 0

Режим чтения : Достоверность
Использование точного потока : Да
Отключение кэша аудио : Да
Использование указателей C2 : Нет

Коррекция смещения при чтении : 30
Способность читать области Lead-in и Lead-out : Нет
Заполнение пропущенных сэмплов тишиной : Да
Удаление блоков с тишиной в начале и конце : Нет
При вычислениях CRC использовались нулевые сэмплы : Да
Интерфейс : Встроенный Win32-интерфейс для Win NT/2000

Выходной формат : Пользовательский кодировщик
Выбранный битрейт : 1024 kBit/s
Качество : Высокий
Добавление ID3-тега : Нет
Утилита сжатия : C:\Program Files (x86)\Exact Audio Copy\FLAC\FLAC.EXE
Дополнительные параметры : -6 -V -T "ARTIST=%artist%" -T "TITLE=%title%" -T "ALBUM=%albumtitle%" -T "DATE=%year%" -T "TRACKNUMBER=%tracknr%" -T "GENRE=%genre%" -T "COMMENT=%comment%" -T "BAND=%albuminterpret%" -T "ALBUMARTIST=%albuminterpret%" -T "COMPOSER=%composer%" %haslyrics%–tag-from-file=LYRICS="%lyricsfile%"%haslyrics% -T "DISCNUMBER=%cdnumber%" -T "TOTALDISCS=%totalcds%" -T "TOTALTRACKS=%numtracks%" %hascover%–picture="%coverfile%"%hascover% %source% -o %dest%


TOC извлечённого CD

Трек | Старт | Длительность | Начальный сектор | Конечный сектор
––––––––––––––––––––––––––––––––––-
1 | 0:00.00 | 3:00.68 | 0 | 13567
2 | 3:00.68 | 4:47.04 | 13568 | 35096
3 | 7:47.72 | 1:55.45 | 35097 | 43766
4 | 9:43.42 | 3:10.45 | 43767 | 58061
5 | 12:54.12 | 2:40.69 | 58062 | 70130
6 | 15:35.06 | 2:41.33 | 70131 | 82238
7 | 18:16.39 | 1:55.02 | 82239 | 90865
8 | 20:11.41 | 3:10.57 | 90866 | 105172
9 | 23:22.23 | 2:34.39 | 105173 | 116761
10 | 25:56.62 | 2:05.59 | 116762 | 126195
11 | 28:02.46 | 2:44.24 | 126196 | 138519
12 | 30:46.70 | 3:56.35 | 138520 | 156254
13 | 34:43.30 | 3:31.29 | 156255 | 172108
14 | 38:14.59 | 2:24.31 | 172109 | 182939
15 | 40:39.15 | 3:03.67 | 182940 | 196731
16 | 43:43.07 | 2:26.52 | 196732 | 207733
17 | 46:09.59 | 4:06.48 | 207734 | 226231
18 | 50:16.32 | 1:59.68 | 226232 | 235224
19 | 52:16.25 | 2:27.55 | 235225 | 246304
20 | 54:44.05 | 3:43.40 | 246305 | 263069
21 | 58:27.45 | 2:36.44 | 263070 | 274813
22 | 61:04.14 | 2:37.58 | 274814 | 286646
23 | 63:41.72 | 2:16.53 | 286647 | 296899
24 | 65:58.50 | 2:05.44 | 296900 | 306318
25 | 68:04.19 | 1:26.18 | 306319 | 312786
26 | 69:30.37 | 3:05.14 | 312787 | 326675
27 | 72:35.51 | 2:45.11 | 326676 | 339061


Характеристики диапазона извлечения и сообщения об ошибках

Выбранный диапазон

Имя файла E:\РАЗДАЧА\The Beatles [White Album - 2018 Japan]\CD-3\The Beatles - The Beatles & The Esher Demos (50th Anniversary).wav

Пиковый уровень 98.9 %
Скорость извлечения 7.1 X
Качество диапазона 99.9 %
CRC теста 1EB4570D
CRC копии 1EB4570D
Копирование… OK

Ошибок не произошло


AccurateRip: сводка

Трек 1 : извлечено точно (доверие 18) [3E13DB24] (AR v2)
Трек 2 : извлечено точно (доверие 18) [999D3F86] (AR v2)
Трек 3 : извлечено точно (доверие 18) [4AF04092] (AR v2)
Трек 4 : извлечено точно (доверие 18) [81AC5BB0] (AR v2)
Трек 5 : извлечено точно (доверие 18) [898DD6F6] (AR v2)
Трек 6 : извлечено точно (доверие 18) [8DFDBE6F] (AR v2)
Трек 7 : извлечено точно (доверие 18) [80485C6C] (AR v2)
Трек 8 : извлечено точно (доверие 18) [EA926BA2] (AR v2)
Трек 9 : извлечено точно (доверие 18) [6DAD531C] (AR v2)
Трек 10 : извлечено точно (доверие 18) [7296B55F] (AR v2)
Трек 11 : извлечено точно (доверие 18) [6F14FF7D] (AR v2)
Трек 12 : извлечено точно (доверие 18) [E6715EE8] (AR v2)
Трек 13 : извлечено точно (доверие 18) [19B920BB] (AR v2)
Трек 14 : извлечено точно (доверие 18) [381E08DC] (AR v2)
Трек 15 : извлечено точно (доверие 18) [648185CA] (AR v2)
Трек 16 : извлечено точно (доверие 18) [3D793554] (AR v2)
Трек 17 : извлечено точно (доверие 18) [BA95E919] (AR v2)
Трек 18 : извлечено точно (доверие 18) [E5DFBE02] (AR v2)
Трек 19 : извлечено точно (доверие 18) [966543B0] (AR v2)
Трек 20 : извлечено точно (доверие 18) [4E42D8BB] (AR v2)
Трек 21 : извлечено точно (доверие 18) [32EFB2E7] (AR v2)
Трек 22 : извлечено точно (доверие 17) [3284122F] (AR v2)
Трек 23 : извлечено точно (доверие 18) [626506CE] (AR v2)
Трек 24 : извлечено точно (доверие 18) [F24FBD2B] (AR v2)
Трек 25 : извлечено точно (доверие 18) [84A8D7F2] (AR v2)
Трек 26 : извлечено точно (доверие 17) [1ED8BB96] (AR v2)
Трек 27 : извлечено точно (доверие 18) [5DB478FB] (AR v2)

Все треки извлечены точно

Конец отчёта

==== Контрольная сумма отчёта CDAF6A1C5A9791422A457EE0D45980070846E35879F0A36D4FACEE7372671C96 ====

The Beatles - The Beatles (White Album) (1968) {2018, 3CD Box Set, 50th Anniversary Deluxe Edition, Japan}

All thanks go to pishin

>>> "The Beatles" in my Blog <<<

Download from icerbox.com: