Subcategories

The Beatles - UK EP Collection Vol. 2 (2000)

Posted By: v3122
The Beatles - UK EP Collection Vol. 2 (2000)

The Beatles - UK EP Collection Vol. 2 (2000)
EAC | Flac(Image) + Cue + Log & MP3 CBR 320Kbps
Dr. Ebbetts, EPC CD045 | ~ 289 or 182 Mb | Artwork(jpg) -> 2.91 Mb
Classic Rock

~ "The Beatles UK EP Collection - Volume 2" contains last 6 The Beatles U.K. EPs. "Magical Mystery Tour" is presented here in mono and stereo. ~

Dr. Ebbets was a needledropper (a person who rips near mint/mint condition or unplayed vinyl records) who was famous in the bootleg/audiophile communities for his Beatles releases, which are regarded by some as being the best sounding versions of those albums.

He retired in 2009 due to the upcoming release of The Beatles, but returned in 2010 to release four new titles to his most dedicated customers.

~ discogs
The Beatles - UK EP Collection Vol. 2 (2000):

The Beatles - UK EP Collection Vol. 2 (2000)

Tracklist:

01. I'll Follow The Sun [01:53]
02. Baby's In Black [02:09]
03. Words Of Love [02:15]
04. I Don't Want To Spoil The Party [02:34]
05. She Loves You [02:22]
06. I Want To Hold Your Hand [02:27]
07. Can't Buy Me Love [02:15]
08. I Feel Fine [02:23]
09. Yesterday [02:08]
10. Act Naturally [02:32]
11. You Like Me Too Much [02:39]
12. It's Only Love [01:55]
13. Nowhere Man [02:44]
14. Drive My Car [02:30]
15. Michelle [02:39]
16. You Won't See Me [03:23]
17. Magical Mystery Tour (Mono) [02:49]
18. Your Mother Should Know (Mono) [02:31]
19. I Am The Walrus (Mono) [04:36]
20. The Fool On The Hill (Mono) [03:00]
21. Flying (Mono) [02:16]
22. Blue Jay Way (Mono) [03:51]
23. Magical Mystery Tour (Stereo) [02:51]
24. Your Mother Should Know (Stereo) [02:30]
25. I Am The Walrus (Stereo) [04:36]
26. The Fool On The Hill (Stereo) [03:00]
27. Flying (Stereo) [02:16]
28. Blue Jay Way (Stereo) [03:51]

Exact Audio Copy V0.99 prebeta 5 from 4. May 2009

EAC extraction logfile from 9. September 2010, 22:19

The Beatles / UK EP Collection Vol. 2, (Stereo/Mono)

Used drive : PHILIPS DVD+-RW DVD8881 Adapter: 0 ID: 1

Read mode : Secure
Utilize accurate stream : Yes
Defeat audio cache : Yes
Make use of C2 pointers : No

Read offset correction : 618
Overread into Lead-In and Lead-Out : No
Fill up missing offset samples with silence : Yes
Delete leading and trailing silent blocks : No
Null samples used in CRC calculations : Yes
Used interface : Native Win32 interface for Win NT & 2000
Gap handling : Appended to previous track

Used output format : Internal WAV Routines
Sample format : 44.100 Hz; 16 Bit; Stereo


TOC of the extracted CD

Track | Start | Length | Start sector | End sector
––––––––––––––––––––––––––––-
1 | 0:00.00 | 1:53.23 | 0 | 8497
2 | 1:53.23 | 2:09.65 | 8498 | 18237
3 | 4:03.13 | 2:15.60 | 18238 | 28422
4 | 6:18.73 | 2:34.48 | 28423 | 40020
5 | 8:53.46 | 2:22.55 | 40021 | 50725
6 | 11:16.26 | 2:27.66 | 50726 | 61816
7 | 13:44.17 | 2:15.58 | 61817 | 71999
8 | 16:00.00 | 2:23.10 | 72000 | 82734
9 | 18:23.10 | 2:08.37 | 82735 | 92371
10 | 20:31.47 | 2:32.28 | 92372 | 103799
11 | 23:04.00 | 2:39.23 | 103800 | 115747
12 | 25:43.23 | 1:55.11 | 115748 | 124383
13 | 27:38.34 | 2:44.07 | 124384 | 136690
14 | 30:22.41 | 2:30.54 | 136691 | 147994
15 | 32:53.20 | 2:39.08 | 147995 | 159927
16 | 35:32.28 | 3:23.51 | 159928 | 175203
17 | 38:56.04 | 2:49.63 | 175204 | 187941
18 | 41:45.67 | 2:31.04 | 187942 | 199270
19 | 44:16.71 | 4:36.22 | 199271 | 219992
20 | 48:53.18 | 3:00.15 | 219993 | 233507
21 | 51:53.33 | 2:16.68 | 233508 | 243775
22 | 54:10.26 | 3:51.65 | 243776 | 261165
23 | 58:02.16 | 2:51.05 | 261166 | 273995
24 | 60:53.21 | 2:30.38 | 273996 | 285283
25 | 63:23.59 | 4:36.51 | 285284 | 306034
26 | 68:00.35 | 3:00.35 | 306035 | 319569
27 | 71:00.70 | 2:16.74 | 319570 | 329843
28 | 73:17.69 | 3:51.65 | 329844 | 347233


Track 1

Filename C:\Users\apes\Desktop\The Beatles - UK EP Collection (Dr. Ebbetts)\Vol. 2\01 I'll Follow The Sun.wav

Pre-gap length 0:00:02.00

Peak level 92.3 %
Track quality 100.0 %
Copy CRC A9483A34
Accurately ripped (confidence 1) [889FB69A]
Copy OK

Track 2

Filename C:\Users\apes\Desktop\The Beatles - UK EP Collection (Dr. Ebbetts)\Vol. 2\02 Baby's In Black.wav

Peak level 99.1 %
Track quality 100.0 %
Copy CRC 0B9C14BC
Accurately ripped (confidence 1) [0B55B175]
Copy OK

Track 3

Filename C:\Users\apes\Desktop\The Beatles - UK EP Collection (Dr. Ebbetts)\Vol. 2\03 Words Of Love.wav

Peak level 84.2 %
Track quality 99.9 %
Copy CRC C8773EFA
Accurately ripped (confidence 1) [53D33D6F]
Copy OK

Track 4

Filename C:\Users\apes\Desktop\The Beatles - UK EP Collection (Dr. Ebbetts)\Vol. 2\04 I Don't Want To Spoil The Party.wav

Peak level 81.4 %
Track quality 100.0 %
Copy CRC CEE97188
Accurately ripped (confidence 1) [B44081B4]
Copy OK

Track 5

Filename C:\Users\apes\Desktop\The Beatles - UK EP Collection (Dr. Ebbetts)\Vol. 2\05 She Loves You.wav

Peak level 97.9 %
Track quality 100.0 %
Copy CRC CCB40EF9
Accurately ripped (confidence 1) [407DD51E]
Copy OK

Track 6

Filename C:\Users\apes\Desktop\The Beatles - UK EP Collection (Dr. Ebbetts)\Vol. 2\06 I Want To Hold Your Hand.wav

Peak level 98.9 %
Track quality 100.0 %
Copy CRC E9808125
Accurately ripped (confidence 1) [8B578ADC]
Copy OK

Track 7

Filename C:\Users\apes\Desktop\The Beatles - UK EP Collection (Dr. Ebbetts)\Vol. 2\07 Can't Buy Me Love.wav

Peak level 93.5 %
Track quality 100.0 %
Copy CRC 1BC91635
Accurately ripped (confidence 1) [35264A11]
Copy OK

Track 8

Filename C:\Users\apes\Desktop\The Beatles - UK EP Collection (Dr. Ebbetts)\Vol. 2\08 I Feel Fine.wav

Peak level 100.0 %
Track quality 99.9 %
Copy CRC 805B55E9
Accurately ripped (confidence 1) [F8B5F80B]
Copy OK

Track 9

Filename C:\Users\apes\Desktop\The Beatles - UK EP Collection (Dr. Ebbetts)\Vol. 2\09 Yesterday.wav

Peak level 70.7 %
Track quality 99.9 %
Copy CRC 634DE7AB
Accurately ripped (confidence 1) [702C5E7C]
Copy OK

Track 10

Filename C:\Users\apes\Desktop\The Beatles - UK EP Collection (Dr. Ebbetts)\Vol. 2\10 Act Naturally.wav

Peak level 94.9 %
Track quality 100.0 %
Copy CRC 106812DB
Accurately ripped (confidence 1) [A2FED354]
Copy OK

Track 11

Filename C:\Users\apes\Desktop\The Beatles - UK EP Collection (Dr. Ebbetts)\Vol. 2\11 You Like Me Too Much.wav

Peak level 93.3 %
Track quality 100.0 %
Copy CRC DA1E4490
Accurately ripped (confidence 1) [62DA5270]
Copy OK

Track 12

Filename C:\Users\apes\Desktop\The Beatles - UK EP Collection (Dr. Ebbetts)\Vol. 2\12 It's Only Love.wav

Peak level 94.9 %
Track quality 100.0 %
Copy CRC 8954ACA9
Accurately ripped (confidence 1) [FC7F70F2]
Copy OK

Track 13

Filename C:\Users\apes\Desktop\The Beatles - UK EP Collection (Dr. Ebbetts)\Vol. 2\13 Nowhere Man.wav

Peak level 92.0 %
Track quality 100.0 %
Copy CRC EF8A9009
Accurately ripped (confidence 1) [49461265]
Copy OK

Track 14

Filename C:\Users\apes\Desktop\The Beatles - UK EP Collection (Dr. Ebbetts)\Vol. 2\14 Drive My Car.wav

Peak level 94.3 %
Track quality 100.0 %
Copy CRC ACAE8CB7
Accurately ripped (confidence 1) [1F1B94CD]
Copy OK

Track 15

Filename C:\Users\apes\Desktop\The Beatles - UK EP Collection (Dr. Ebbetts)\Vol. 2\15 Michelle.wav

Peak level 77.0 %
Track quality 100.0 %
Copy CRC C83DEE8A
Accurately ripped (confidence 1) [B5F52C60]
Copy OK

Track 16

Filename C:\Users\apes\Desktop\The Beatles - UK EP Collection (Dr. Ebbetts)\Vol. 2\16 You Won't See Me.wav

Peak level 86.0 %
Track quality 100.0 %
Copy CRC 18A023A7
Accurately ripped (confidence 1) [E1657623]
Copy OK

Track 17

Filename C:\Users\apes\Desktop\The Beatles - UK EP Collection (Dr. Ebbetts)\Vol. 2\17 Magical Mystery Tour (Mono).wav

Peak level 83.3 %
Track quality 100.0 %
Copy CRC 13E9149A
Accurately ripped (confidence 1) [EE456A5F]
Copy OK

Track 18

Filename C:\Users\apes\Desktop\The Beatles - UK EP Collection (Dr. Ebbetts)\Vol. 2\18 Your Mother Should Know (Mono).wav

Peak level 73.3 %
Track quality 100.0 %
Copy CRC 552F6ADC
Accurately ripped (confidence 1) [7C5D9C17]
Copy OK

Track 19

Filename C:\Users\apes\Desktop\The Beatles - UK EP Collection (Dr. Ebbetts)\Vol. 2\19 I Am The Walrus (Mono).wav

Peak level 86.7 %
Track quality 99.9 %
Copy CRC ACFCFBF7
Accurately ripped (confidence 1) [09FD8B32]
Copy OK

Track 20

Filename C:\Users\apes\Desktop\The Beatles - UK EP Collection (Dr. Ebbetts)\Vol. 2\20 The Fool On The Hill (Mono).wav

Peak level 64.7 %
Track quality 100.0 %
Copy CRC A206DDB2
Accurately ripped (confidence 1) [650D3C16]
Copy OK

Track 21

Filename C:\Users\apes\Desktop\The Beatles - UK EP Collection (Dr. Ebbetts)\Vol. 2\21 Flying (Mono).wav

Peak level 76.8 %
Track quality 100.0 %
Copy CRC E1B385C7
Accurately ripped (confidence 1) [BE24450E]
Copy OK

Track 22

Filename C:\Users\apes\Desktop\The Beatles - UK EP Collection (Dr. Ebbetts)\Vol. 2\22 Blue Jay Way (Mono).wav

Peak level 81.5 %
Track quality 100.0 %
Copy CRC 8218550A
Accurately ripped (confidence 1) [BC789B33]
Copy OK

Track 23

Filename C:\Users\apes\Desktop\The Beatles - UK EP Collection (Dr. Ebbetts)\Vol. 2\23 Magical Mystery Tour (Stereo).wav

Peak level 98.1 %
Track quality 100.0 %
Copy CRC 4350F2F3
Accurately ripped (confidence 1) [F815612A]
Copy OK

Track 24

Filename C:\Users\apes\Desktop\The Beatles - UK EP Collection (Dr. Ebbetts)\Vol. 2\24 Your Mother Should Know (Stereo).wav

Peak level 76.4 %
Track quality 100.0 %
Copy CRC 998E68BC
Accurately ripped (confidence 1) [E347B072]
Copy OK

Track 25

Filename C:\Users\apes\Desktop\The Beatles - UK EP Collection (Dr. Ebbetts)\Vol. 2\25 I Am The Walrus (Stereo).wav

Peak level 76.5 %
Track quality 100.0 %
Copy CRC ED115694
Accurately ripped (confidence 1) [8F8EF660]
Copy OK

Track 26

Filename C:\Users\apes\Desktop\The Beatles - UK EP Collection (Dr. Ebbetts)\Vol. 2\26 The Fool On The Hill (Stereo).wav

Peak level 62.6 %
Track quality 100.0 %
Copy CRC 5348B7A6
Accurately ripped (confidence 1) [36491D5E]
Copy OK

Track 27

Filename C:\Users\apes\Desktop\The Beatles - UK EP Collection (Dr. Ebbetts)\Vol. 2\27 Flying (Stereo).wav

Peak level 96.4 %
Track quality 100.0 %
Copy CRC 2213F47F
Accurately ripped (confidence 1) [408C16A7]
Copy OK

Track 28

Filename C:\Users\apes\Desktop\The Beatles - UK EP Collection (Dr. Ebbetts)\Vol. 2\28 Blue Jay Way (Stereo).wav

Peak level 100.0 %
Track quality 100.0 %
Copy CRC F7D64633
Accurately ripped (confidence 1) [3F0F37B7]
Copy OK


All tracks accurately ripped

No errors occurred

End of status report


[CUETools log; Date: 15.02.2020 4:32:15; Version: 2.1.4]
[AccurateRip ID: 00469717-05a3e41e-9712151c] found.
Track [ CRC | V2 ] Status
01 [889fb69a|e330b4ee] (1+1/3) Accurately ripped
02 [0b55b175|221f35e2] (1+1/3) Accurately ripped
03 [53d33d6f|98cfbb49] (1+1/3) Accurately ripped
04 [b44081b4|fd4887cc] (1+1/3) Accurately ripped
05 [407dd51e|1bb24d6e] (1+0/3) Accurately ripped
06 [8b578adc|aff13ea4] (1+0/3) Accurately ripped
07 [35264a11|3522eaea] (1+1/3) Accurately ripped
08 [f8b5f80b|656edb99] (1+1/3) Accurately ripped
09 [702c5e7c|709ccb79] (1+0/3) Accurately ripped
10 [a2fed354|8b2be0d2] (1+1/3) Accurately ripped
11 [62da5270|6e2de912] (1+0/3) Accurately ripped
12 [fc7f70f2|8e874cb2] (1+0/3) Accurately ripped
13 [49461265|2686359e] (1+1/3) Accurately ripped
14 [1f1b94cd|ef72bfc8] (1+0/3) Accurately ripped
15 [b5f52c60|5303719b] (1+1/3) Accurately ripped
16 [e1657623|7991693b] (1+1/3) Accurately ripped
17 [ee456a5f|60888189] (1+0/3) Accurately ripped
18 [7c5d9c17|2ca0e2b8] (1+1/3) Accurately ripped
19 [09fd8b32|35ab6d99] (1+0/3) Accurately ripped
20 [650d3c16|c94648a4] (1+0/3) Accurately ripped
21 [be24450e|52beacaf] (1+0/3) Accurately ripped
22 [bc789b33|0044755c] (1+0/3) Accurately ripped
23 [f815612a|24a15775] (1+0/3) Accurately ripped
24 [e347b072|ec71a406] (1+0/3) Accurately ripped
25 [8f8ef660|8f346669] (1+0/3) Accurately ripped
26 [36491d5e|78f21758] (1+0/3) Accurately ripped
27 [408c16a7|c7bc52c8] (1+0/3) Accurately ripped
28 [3f0f37b7|80ea378f] (1+0/3) Accurately ripped

Track Peak [ CRC32 ] [W/O NULL] [ LOG ]
– 100,0 [EBB0DAA5] [6208BB30]
01 92,3 [A9483A34] [59902F22] CRC32
02 99,1 [0B9C14BC] [62D0EF93] CRC32
03 84,2 [C8773EFA] [BCF926B0] CRC32
04 81,4 [CEE97188] [29047E73] CRC32
05 97,9 [CCB40EF9] [DCA74818] CRC32
06 98,9 [E9808125] [29F0A717] CRC32
07 93,5 [1BC91635] [2ABF5B35] CRC32
08 100,0 [805B55E9] [C74C67C4] CRC32
09 70,7 [634DE7AB] [A2FC191B] CRC32
10 94,9 [106812DB] [2A658124] CRC32
11 93,3 [DA1E4490] [3A3BCF1B] CRC32
12 94,9 [8954ACA9] [6995F742] CRC32
13 92,0 [EF8A9009] [AA894FE8] CRC32
14 94,3 [ACAE8CB7] [F24C397D] CRC32
15 77,0 [C83DEE8A] [D9438C00] CRC32
16 86,0 [18A023A7] [516A0CD4] CRC32
17 83,3 [13E9149A] [49E77565] CRC32
18 73,3 [552F6ADC] [B5ED6BA7] CRC32
19 86,7 [ACFCFBF7] [9AEC921B] CRC32
20 64,7 [A206DDB2] [62932870] CRC32
21 76,8 [E1B385C7] [ABFE5FF7] CRC32
22 81,5 [8218550A] [D9673489] CRC32
23 98,1 [4350F2F3] [5BE1076C] CRC32
24 76,4 [998E68BC] [F92D2879] CRC32
25 76,5 [ED115694] [02A106CF] CRC32
26 62,6 [5348B7A6] [E3071625] CRC32
27 96,4 [2213F47F] [1C29070F] CRC32
28 100,0 [F7D64633] [DCFCDD71] CRC32


The Beatles - UK EP Collection Vol. 2 (2000)

All thanks go to the original releaser

Beatles in my Blog

Download The Beatles - UK EP Collection Vol. 2 (2000):