Tags
Language
Tags

The Beatles - UK Singles Collection Vol. 1 (2005)

Posted By: v3122
The Beatles - UK Singles Collection Vol. 1 (2005)

The Beatles - UK Singles Collection Vol. 1 (2005)
EAC | Flac(Image) + Cue + Log & MP3 CBR 320Kbps
Dr. Ebbetts, DBM-062 | ~ 279 or 153 Mb | Scans(jpg) -> 33 Mb
Classic Rock

Dr. Ebbett produced the two volume UK singles collection in 2005 and according to the announcement made at the time of its release:

It features the A and B sides of every regular issue British 45 rpm record the Beatles releases during their time together. This set is sourced entirely from 7 inch vinyl records – some of them being the original first-issue Parlophone 45s, some from the vinyl boxed set released in the 1970s. This set includes what I believe to be one of the very few “first generation” vinyl transfers of “Love Me Do” available. As you know, the original 45 rpm version of “Love Me Do” featuring Ringo on drums is available on the US Rarities LP as well as Past Masters. However, EMI as forced to remaster this track for those releases by transferring the audio from a 45 rpm record because the original master tape was lost or destroyed. This meant that by the time you got it, it went from master tape to vinyl back to master tape only to come back to vinyl or CD. You were, essentially, getting a version of the song twice removed from the source. The version is here is taken directly from a first-issue original Parlophone 45. This set also includes the original and much asked about “dry” versions of “Please Please Me” and “Ask Me Why” as issued on the original pressings of their second single. Approximately 20% of the set is sourced from the original issue 45 rpm records, the rest from an unplayed version of the 1970s boxed set.

This is a silver pressed edition of what originally appeared on CDR in a flawless copy. Some of the early silver Dr. Ebbett had some issues, but of late they have been perfect with no signs of blemish in the manufacturing. All of the songs on volume one are in mono and in very good sound quality. Some of the tracks, notably “Ticket To Ride” are not as good as the officially release singles collection on compact disc.

Since this is not an album but entirely the creation of Dr. Ebbett it doesn’t hold together as such. The song on the first volume date from their first single in late 1962 and go up to the end of 1966 with the “Paperback Writer” / “Rain” single and the single from Revolver. The release dates of the singles contained on the disc are:

Love Me Do / P.S. I Love You (Parlophone/October 5, 1962)
Please Please Me / Ask Me Why (Parlophone/January 11, 1963)
From Me To You / Thank You Girl (Parlophone/April 12, 1963)
She Loves You / I’ll Get You (Parlophone/August 28, 1963)
I Want To Hold Your Hand / This Boy (Parlophone/November 29, 1963)
Can’t Buy Me Love / You Can’t Do That (Parlophone/March 16, 1964)
A Hard Day’s Night / Things We Said Today (Parlophone/July 10, 1964)
I Feel Fine / She’s A Woman (Parlophone/November 23, 1964)
Ticket To Ride / Yes It Is (Parlophone/April 9, 1965)
Help / I’m Down (Parlophone/July 19, 1965)
Day Tripper / We Can Work It Out (Parlophone/December 3, 1965)
Paperback Writer / Rain (Parlophone/May 30, 1966)
Eleanor Rigby / Yellow Submarine (Parlophone/August 5, 1966)

The value in this collection is the emphasis that The Beatles, especially in the first couple years of their fame, were a singles-based band instead of album based. Greater importance and creative energy was focused upon producing the individual hits for consumption rather than the more expansive concepts of the LP. Listening to these singles in chronological order as presented on the disc reveal the artistic development of the band from the ballroom ballad to the psychedelia of “Rain” and “Eleanor Rigby.” DBM-062 is packaged in a regular jewel case with the artwork of the original Dr. Ebbetts disc superimposed on the MFSL background.

~ collectorsmusicreviews.com
The Beatles - UK Singles Collection Vol. 1 (2005)


The Beatles - UK Singles Collection Vol. 1 (2005):

The Beatles - UK Singles Collection Vol. 1 (2005)

Tracklist:

01. Love Me Do 2:30
02. P.S. I Love You 2:06
03. Please Please Me 2:05
04. Ask Me Why 2:28
05. From Me To You 2:00
06. Thank You Girl 2:06
07. She Loves You 2:24
08. I'll Get You 2:08
09. I Want To Hold Your Hand 2:29
10. This Boy 2:18
11. Can't Buy Me Love 2:16
12. You Can't Do That 2:39
13. A Hard Day's Night 2:35
14. Things We Said Today 2:40
15. I Feel Fine 2:28
16. She's A Woman 3:05
17. Ticket To Ride 3:10
18. Yes It Is 2:44
19. Help! 2:21
20. I'm Down 2:37
21. We Can Work It Out 2:18
22. Day Tripper 2:55
23. Paperback Writer 2:30
24. Rain 3:08
25. Yellow Submarine 2:40
26. Eleanor Rigby 2:11

Exact Audio Copy V1.1 from 23. June 2015

EAC extraction logfile from 20. July 2016, 15:27

The Beatles / UK Singles Collection Vol. 1 (DBM-062)

Used drive : hp DVDRAM GT80N Adapter: 1 ID: 0

Read mode : Secure
Utilize accurate stream : Yes
Defeat audio cache : Yes
Make use of C2 pointers : No

Read offset correction : 102
Overread into Lead-In and Lead-Out : No
Fill up missing offset samples with silence : Yes
Delete leading and trailing silent blocks : No
Null samples used in CRC calculations : Yes
Used interface : Native Win32 interface for Win NT & 2000

Used output format : User Defined Encoder
Selected bitrate : 1024 kBit/s
Quality : High
Add ID3 tag : No
Command line compressor : C:\Program Files (x86)\Exact Audio Copy\Flac\flac.exe
Additional command line options : -V -8 -T "Date=%year%" -T "Genre=%genre%" %source%


TOC of the extracted CD

Track | Start | Length | Start sector | End sector
––––––––––––––––––––––––––––-
1 | 0:00.00 | 2:29.44 | 0 | 11218
2 | 2:29.44 | 2:05.42 | 11219 | 20635
3 | 4:35.11 | 2:05.09 | 20636 | 30019
4 | 6:40.20 | 2:27.63 | 30020 | 41107
5 | 9:08.08 | 2:00.37 | 41108 | 50144
6 | 11:08.45 | 2:05.54 | 50145 | 59573
7 | 13:14.24 | 2:23.62 | 59574 | 70360
8 | 15:38.11 | 2:08.12 | 70361 | 79972
9 | 17:46.23 | 2:28.45 | 79973 | 91117
10 | 20:14.68 | 2:17.60 | 91118 | 101452
11 | 22:32.53 | 2:15.65 | 101453 | 111642
12 | 24:48.43 | 2:39.03 | 111643 | 123570
13 | 27:27.46 | 2:34.63 | 123571 | 135183
14 | 30:02.34 | 2:39.49 | 135184 | 147157
15 | 32:42.08 | 2:27.74 | 147158 | 158256
16 | 35:10.07 | 3:05.30 | 158257 | 172161
17 | 38:15.37 | 3:09.53 | 172162 | 186389
18 | 41:25.15 | 2:43.73 | 186390 | 198687
19 | 44:09.13 | 2:21.35 | 198688 | 209297
20 | 46:30.48 | 2:36.48 | 209298 | 221045
21 | 49:07.21 | 2:18.30 | 221046 | 231425
22 | 51:25.51 | 2:54.70 | 231426 | 244545
23 | 54:20.46 | 2:29.46 | 244546 | 255766
24 | 56:50.17 | 3:08.03 | 255767 | 269869
25 | 59:58.20 | 2:40.19 | 269870 | 281888
26 | 62:38.39 | 2:10.45 | 281889 | 291683


Range status and errors

Selected range

Filename C:\dafnaplus\Beatles - UK Singles Collection Vol. 1\The Beatles - UK Singles Collection Vol. 1 (DBM-062).wav

Peak level 100.0 %
Extraction speed 4.3 X
Range quality 100.0 %
Test CRC 949E3EBA
Copy CRC 949E3EBA
Copy OK

No errors occurred


AccurateRip summary

Track 1 not present in database
Track 2 not present in database
Track 3 not present in database
Track 4 not present in database
Track 5 not present in database
Track 6 not present in database
Track 7 not present in database
Track 8 not present in database
Track 9 not present in database
Track 10 not present in database
Track 11 not present in database
Track 12 not present in database
Track 13 not present in database
Track 14 not present in database
Track 15 not present in database
Track 16 not present in database
Track 17 not present in database
Track 18 not present in database
Track 19 not present in database
Track 20 not present in database
Track 21 not present in database
Track 22 not present in database
Track 23 not present in database
Track 24 not present in database
Track 25 not present in database
Track 26 not present in database

None of the tracks are present in the AccurateRip database

End of status report

–– CUETools DB Plugin V2.1.6

[CTDB TOCID: OUjWaQlwF6t9mdRKswrNKOPlflk-] found
Submit result: already submitted
Track | CTDB Status
1 | (4/4) Accurately ripped
2 | (4/4) Accurately ripped
3 | (4/4) Accurately ripped
4 | (4/4) Accurately ripped
5 | (4/4) Accurately ripped
6 | (4/4) Accurately ripped
7 | (4/4) Accurately ripped
8 | (4/4) Accurately ripped
9 | (4/4) Accurately ripped
10 | (4/4) Accurately ripped
11 | (4/4) Accurately ripped
12 | (4/4) Accurately ripped
13 | (4/4) Accurately ripped
14 | (4/4) Accurately ripped
15 | (4/4) Accurately ripped
16 | (4/4) Accurately ripped
17 | (4/4) Accurately ripped
18 | (4/4) Accurately ripped
19 | (4/4) Accurately ripped
20 | (4/4) Accurately ripped
21 | (4/4) Accurately ripped
22 | (4/4) Accurately ripped
23 | (4/4) Accurately ripped
24 | (4/4) Accurately ripped
25 | (3/4) Accurately ripped
26 | (4/4) Accurately ripped


==== Log checksum 42784CCCD2BE167BEDC7D23776953046845F6FA6DA62FAB1726373360C9FC4E9 ====

foobar2000 1.2.9 / Dynamic Range Meter 1.1.1
log date: 2016-07-21 21:16:18

––––––––––––––––––––––––––––––––––––––––
Analyzed: The Beatles / UK Singles Collection Vol. 1 (DBM-062)
––––––––––––––––––––––––––––––––––––––––

DR Peak RMS Duration Track
––––––––––––––––––––––––––––––––––––––––
DR11 -0.22 dB -11.77 dB 2:30 01-Love Me Do
DR10 -0.25 dB -11.52 dB 2:06 02-P.S. I Love You
DR10 0.00 dB -10.53 dB 2:05 03-Please Please Me
DR12 -0.04 dB -13.80 dB 2:28 04-Ask Me Why
DR9 -0.10 dB -10.55 dB 2:00 05-From Me To You
DR12 -0.20 dB -13.26 dB 2:06 06-Thank You Girl
DR9 -0.02 dB -10.47 dB 2:24 07-She Loves You
DR10 -0.17 dB -10.92 dB 2:08 08-I'll Get You
DR9 -0.07 dB -10.42 dB 2:29 09-I Want To Hold Your Hand
DR9 -0.04 dB -10.68 dB 2:18 10-This Boy
DR9 -0.07 dB -10.57 dB 2:16 11-Can't Buy Me Love
DR10 -0.13 dB -11.64 dB 2:39 12-You Can't Do That
DR10 -0.37 dB -11.73 dB 2:35 13-A Hard Day's Night
DR11 -0.23 dB -12.03 dB 2:40 14-Things We Said Today
DR10 -0.33 dB -12.23 dB 2:28 15-I Feel Fine
DR10 -1.05 dB -12.45 dB 3:05 16-She's A Woman
DR9 -0.19 dB -10.32 dB 3:10 17-Ticket To Ride
DR10 -0.43 dB -12.10 dB 2:44 18-Yes It Is
DR10 -0.82 dB -11.83 dB 2:21 19-Help!
DR10 -0.35 dB -11.68 dB 2:37 20-I'm Down
DR11 0.00 dB -12.10 dB 2:18 21-We Can Work It Out
DR10 -0.52 dB -12.13 dB 2:55 22-Day Tripper
DR9 -0.14 dB -10.77 dB 2:30 23-Paperback Writer
DR9 -0.35 dB -10.72 dB 3:08 24-Rain
DR11 -0.58 dB -13.63 dB 2:40 25-Yellow Submarine
DR9 -2.51 dB -12.69 dB 2:11 26-Eleanor Rigby
––––––––––––––––––––––––––––––––––––––––

Number of tracks: 26
Official DR value: DR10

Samplerate: 44100 Hz
Channels: 2
Bits per sample: 16
Bitrate: 586 kbps
Codec: FLAC

[CUETools log; Date: 21.07.2016 20:53:10; Version: 2.1.4]
[CTDB TOCID: OUjWaQlwF6t9mdRKswrNKOPlflk-] found.
Track | CTDB Status
1 | (4/4) Accurately ripped
2 | (4/4) Accurately ripped
3 | (4/4) Accurately ripped
4 | (4/4) Accurately ripped
5 | (4/4) Accurately ripped
6 | (4/4) Accurately ripped
7 | (4/4) Accurately ripped
8 | (4/4) Accurately ripped
9 | (4/4) Accurately ripped
10 | (4/4) Accurately ripped
11 | (4/4) Accurately ripped
12 | (4/4) Accurately ripped
13 | (4/4) Accurately ripped
14 | (4/4) Accurately ripped
15 | (4/4) Accurately ripped
16 | (4/4) Accurately ripped
17 | (4/4) Accurately ripped
18 | (4/4) Accurately ripped
19 | (4/4) Accurately ripped
20 | (4/4) Accurately ripped
21 | (4/4) Accurately ripped
22 | (4/4) Accurately ripped
23 | (4/4) Accurately ripped
24 | (4/4) Accurately ripped
25 | (3/4) Accurately ripped
26 | (4/4) Accurately ripped
[AccurateRip ID: 0039e50a-044626be-6e0f311a] disk not present in database.

Track Peak [ CRC32 ] [W/O NULL] [ LOG ]
– 100,0 [949E3EBA] [A3E8D47B] CRC32
01 97,5 [CF9A49F1] [CFDF8DF1]
02 97,1 [808BC681] [E53424E0]
03 100,0 [B8FB39CA] [285215AE]
04 99,5 [13D828A2] [E96E2B6B]
05 98,8 [C9C9BD10] [904A0CDA]
06 97,7 [0B4A92E2] [312E06C6]
07 99,7 [75CD1AE2] [28D3E268]
08 98,0 [7790F8E5] [1FFCE2BD]
09 99,1 [2855B6AA] [8C016B12]
10 99,5 [431FEB25] [23A7A7E2]
11 99,1 [75B73867] [FD9D794F]
12 98,5 [925605A8] [388C9D5F]
13 95,7 [A2199174] [82DBA3F9]
14 97,4 [F012822D] [BCCFDCE5]
15 96,2 [F44C4759] [9DDE0F68]
16 88,5 [1D5C8EAC] [D18781A9]
17 97,7 [190C9F9C] [A1B9D676]
18 95,1 [3328A592] [D4713F1B]
19 90,9 [9CB3A240] [3B12B6B3]
20 96,0 [478AF20C] [96DF7C29]
21 100,0 [4A8FDFC4] [9E88AC5B]
22 94,1 [8C2E430B] [8D23CF96]
23 98,4 [8F9BAEED] [F3224CF6]
24 96,0 [D779F167] [4EA12E13]
25 93,5 [0690D890] [36BAAF70]
26 74,9 [B7BED26D] [7D4A610A]

The Beatles - UK Singles Collection Vol. 1 (2005)

All thanks go to dafnaplus

The Beatles in my Blog

Download The Beatles - UK Singles Collection Vol. 1 (2005):