Subcategories
Tags
Language
Tags

VA - The Best Of Lounge Music (2011)[6xCD, Compilation]

Posted By: v3122
VA - The Best Of Lounge Music (2011)[6xCD, Compilation]

VA - The Best Of Lounge Music (2011)
EAC | Flac(Image) + Cue + Log & MP3 CBR 320Kbps
Wagram Music, 3217582 | ~ 3063 or 1330 Mb | Scans -> 133 Mb
Lounge, Chillout, Jazzy, Acid Jazz, Cool Jazz

Lounge music is a type of easy listening music popular in the 1950s and 1960s. It may be meant to evoke in the listeners the feeling of being in a place, usually with a tranquil theme, such as a jungle, an island paradise or outer space. The range of lounge music encompasses beautiful music–influenced instrumentals, modern electronica (with chillout, and downtempo influences), while remaining thematically focused on its retro-space-age cultural elements. The earliest type of lounge music appeared during the 1920s and 1930s, and was known as light music. In the 21st century, the term lounge music may also be used to describe the types of music played in hotels (the lounge, the bar), casinos, supermarkets, several restaurants, and piano bars…

~ wiki
VA - The Best Of Lounge Music (2011):

VA - The Best Of Lounge Music (2011)[6xCD, Compilation]

Tracklist CD1 - Trendy Afterwork:

01. Lily Wood & The Prick - This Is A Love Song (2:43)
02. The Do - Too Insistent (3:29)
03. Emilie Simon - Desert (3:03)
04. Cocoon - Cornets (2:55)
05. Brisa Roche - Breathe In Speak Out (3:39)
06. General Elektriks - Summer Is Here (3:56)
07. Applause - Black Sand (4:11)
08. The Herbaliser Feat. Seaming To - Something Wicked (5:11)
09. Beat Assailant - Hard Twelwe - The Ante (4:01)
10. Raashan Ahmad Feat. Aloe Blacc & Gift Of Gab - Falling (4:16)
11. Bibio - Bones & Scull (4:02)
12. Julien Dyne Feat. Mara TK. - Layer (3:53)
13. Bonobo Feat. Andreya Triana - The Keeper (4:50)
14. Dj Vadim Feat. Sena - Talk To Me (3:52)
15. Dj Food - Turtle Soup (Wagon Christ Mix) (5:44)
16. Flying Lotus - Tea Leaf Dancers (3:10)
17. Roots Manuva - Witness Dub (3:53)
18. Speech Debelle - Spinnin' (3:36)
19. Rapfael Saadiq - Grown Folks (4:15)
20. Robag Whrume - K.T.B. (3:39)

Converted to Image (CUETools 2.1.4)

Exact Audio Copy V1.0 beta 1 from 15. November 2010

EAC extraction logfile from 4. April 2012, 11:05

Various / CD1 - Trendy Afterwork

Used drive : ASUS DRW-24B3ST Adapter: 3 ID: 0

Read mode : Secure
Utilize accurate stream : Yes
Defeat audio cache : Yes
Make use of C2 pointers : No

Read offset correction : 6
Overread into Lead-In and Lead-Out : No
Fill up missing offset samples with silence : Yes
Delete leading and trailing silent blocks : No
Null samples used in CRC calculations : Yes
Used interface : Native Win32 interface for Win NT & 2000
Gap handling : Appended to previous track

Used output format : User Defined Encoder
Selected bitrate : 1024 kBit/s
Quality : High
Add ID3 tag : No
Command line compressor : C:\Program Files\Exact Audio Copy\Flac\flac.exe
Additional command line options : -8 -V -T "ARTIST=%a" -T "TITLE=%t" -T "ALBUM=%g" -T "DATE=%y" -T "TRACKNUMBER=%n" -T "GENRE=%m" -T "COMMENT=ripped by Oleandris" %s


TOC of the extracted CD

Track | Start | Length | Start sector | End sector
––––––––––––––––––––––––––––-
1 | 0:00.00 | 2:43.23 | 0 | 12247
2 | 2:43.23 | 3:28.74 | 12248 | 27921
3 | 6:12.22 | 3:02.44 | 27922 | 41615
4 | 9:14.66 | 2:54.55 | 41616 | 54720
5 | 12:09.46 | 3:38.53 | 54721 | 71123
6 | 15:48.24 | 3:56.36 | 71124 | 88859
7 | 19:44.60 | 4:11.01 | 88860 | 107685
8 | 23:55.61 | 5:11.03 | 107686 | 131013
9 | 29:06.64 | 4:00.64 | 131014 | 149077
10 | 33:07.53 | 4:15.53 | 149078 | 168255
11 | 37:23.31 | 4:01.38 | 168256 | 186368
12 | 41:24.69 | 3:52.68 | 186369 | 203836
13 | 45:17.62 | 4:49.74 | 203837 | 225585
14 | 50:07.61 | 3:52.33 | 225586 | 243018
15 | 54:00.19 | 5:43.68 | 243019 | 268811
16 | 59:44.12 | 3:09.41 | 268812 | 283027
17 | 62:53.53 | 3:52.52 | 283028 | 300479
18 | 66:46.30 | 3:36.07 | 300480 | 316686
19 | 70:22.37 | 4:15.08 | 316687 | 335819
20 | 74:37.45 | 3:39.01 | 335820 | 352245


Track 1

Filename F:\ЗАГРУЗКИ\ The Best Of Lounge Music 6CD (2011)\CD1 - Trendy Afterwork\01. Lily Wood & The Prick - This Is A Love Song.wav

Pre-gap length 0:00:02.00

Peak level 97.7 %
Extraction speed 5.2 X
Track quality 100.0 %
Test CRC 6C85BAA1
Copy CRC 6C85BAA1
Track not present in AccurateRip database
Copy OK

Track 2

Filename F:\ЗАГРУЗКИ\ The Best Of Lounge Music 6CD (2011)\CD1 - Trendy Afterwork\02. The Do - Too Insistent.wav

Peak level 87.4 %
Extraction speed 5.8 X
Track quality 100.0 %
Test CRC 43E9241B
Copy CRC 43E9241B
Track not present in AccurateRip database
Copy OK

Track 3

Filename F:\ЗАГРУЗКИ\ The Best Of Lounge Music 6CD (2011)\CD1 - Trendy Afterwork\03. Emilie Simon - Desert.wav

Peak level 97.7 %
Extraction speed 6.0 X
Track quality 100.0 %
Test CRC C97F63BC
Copy CRC C97F63BC
Track not present in AccurateRip database
Copy OK

Track 4

Filename F:\ЗАГРУЗКИ\ The Best Of Lounge Music 6CD (2011)\CD1 - Trendy Afterwork\04. Cocoon - Cornets.wav

Peak level 97.7 %
Extraction speed 6.3 X
Track quality 100.0 %
Test CRC 37E4F290
Copy CRC 37E4F290
Track not present in AccurateRip database
Copy OK

Track 5

Filename F:\ЗАГРУЗКИ\ The Best Of Lounge Music 6CD (2011)\CD1 - Trendy Afterwork\05. Brisa Roche - Breathe In Speak Out.wav

Peak level 97.7 %
Extraction speed 6.9 X
Track quality 100.0 %
Test CRC DBDB2B41
Copy CRC DBDB2B41
Track not present in AccurateRip database
Copy OK

Track 6

Filename F:\ЗАГРУЗКИ\ The Best Of Lounge Music 6CD (2011)\CD1 - Trendy Afterwork\06. General Elektriks - Summer Is Here.wav

Peak level 97.7 %
Extraction speed 7.3 X
Track quality 100.0 %
Test CRC E67CF3C1
Copy CRC E67CF3C1
Track not present in AccurateRip database
Copy OK

Track 7

Filename F:\ЗАГРУЗКИ\ The Best Of Lounge Music 6CD (2011)\CD1 - Trendy Afterwork\07. Applause - Black Sand.wav

Peak level 93.5 %
Extraction speed 7.9 X
Track quality 100.0 %
Test CRC 1B437853
Copy CRC 1B437853
Track not present in AccurateRip database
Copy OK

Track 8

Filename F:\ЗАГРУЗКИ\ The Best Of Lounge Music 6CD (2011)\CD1 - Trendy Afterwork\08. The Herbaliser Feat. Seaming To - Something Wicked.wav

Peak level 97.7 %
Extraction speed 8.6 X
Track quality 100.0 %
Test CRC F0DE3161
Copy CRC F0DE3161
Track not present in AccurateRip database
Copy OK

Track 9

Filename F:\ЗАГРУЗКИ\ The Best Of Lounge Music 6CD (2011)\CD1 - Trendy Afterwork\09. Beat Assailant - Hard Twelwe - The Ante.wav

Peak level 90.1 %
Extraction speed 8.7 X
Track quality 100.0 %
Test CRC 2D674299
Copy CRC 2D674299
Track not present in AccurateRip database
Copy OK

Track 10

Filename F:\ЗАГРУЗКИ\ The Best Of Lounge Music 6CD (2011)\CD1 - Trendy Afterwork\10. Raashan Ahmad Feat. Aloe Blacc & Gift Of Gab - Falling.wav

Peak level 87.2 %
Extraction speed 7.4 X
Track quality 99.9 %
Test CRC DA88A822
Copy CRC DA88A822
Track not present in AccurateRip database
Copy OK

Track 11

Filename F:\ЗАГРУЗКИ\ The Best Of Lounge Music 6CD (2011)\CD1 - Trendy Afterwork\11. Bibio - Bones & Scull.wav

Peak level 96.1 %
Extraction speed 9.4 X
Track quality 100.0 %
Test CRC 54CA09A0
Copy CRC 54CA09A0
Track not present in AccurateRip database
Copy OK

Track 12

Filename F:\ЗАГРУЗКИ\ The Best Of Lounge Music 6CD (2011)\CD1 - Trendy Afterwork\12. Julien Dyne Feat. Mara TK. - Layer.wav

Peak level 97.7 %
Extraction speed 9.6 X
Track quality 100.0 %
Test CRC 8B5B0CF5
Copy CRC 8B5B0CF5
Track not present in AccurateRip database
Copy OK

Track 13

Filename F:\ЗАГРУЗКИ\ The Best Of Lounge Music 6CD (2011)\CD1 - Trendy Afterwork\13. Bonobo Feat. Andreya Triana - The Keeper.wav

Peak level 85.4 %
Extraction speed 10.2 X
Track quality 100.0 %
Test CRC E65F663C
Copy CRC E65F663C
Track not present in AccurateRip database
Copy OK

Track 14

Filename F:\ЗАГРУЗКИ\ The Best Of Lounge Music 6CD (2011)\CD1 - Trendy Afterwork\14. Dj Vadim Feat. Sena - Talk To Me.wav

Peak level 83.6 %
Extraction speed 8.0 X
Track quality 99.9 %
Test CRC EB5AE4CA
Copy CRC EB5AE4CA
Track not present in AccurateRip database
Copy OK

Track 15

Filename F:\ЗАГРУЗКИ\ The Best Of Lounge Music 6CD (2011)\CD1 - Trendy Afterwork\15. Dj Food - Turtle Soup (Wagon Christ Mix).wav

Peak level 97.7 %
Extraction speed 11.0 X
Track quality 100.0 %
Test CRC DDB734BB
Copy CRC DDB734BB
Track not present in AccurateRip database
Copy OK

Track 16

Filename F:\ЗАГРУЗКИ\ The Best Of Lounge Music 6CD (2011)\CD1 - Trendy Afterwork\16. Flying Lotus - Tea Leaf Dancers.wav

Peak level 90.9 %
Extraction speed 10.4 X
Track quality 100.0 %
Test CRC ABFFB4A6
Copy CRC ABFFB4A6
Track not present in AccurateRip database
Copy OK

Track 17

Filename F:\ЗАГРУЗКИ\ The Best Of Lounge Music 6CD (2011)\CD1 - Trendy Afterwork\17. Roots Manuva - Witness Dub.wav

Peak level 97.7 %
Extraction speed 10.8 X
Track quality 100.0 %
Test CRC FABF22D7
Copy CRC FABF22D7
Track not present in AccurateRip database
Copy OK

Track 18

Filename F:\ЗАГРУЗКИ\ The Best Of Lounge Music 6CD (2011)\CD1 - Trendy Afterwork\18. Speech Debelle - Spinnin'.wav

Peak level 97.7 %
Extraction speed 10.9 X
Track quality 100.0 %
Test CRC 8509EBC8
Copy CRC 8509EBC8
Track not present in AccurateRip database
Copy OK

Track 19

Filename F:\ЗАГРУЗКИ\ The Best Of Lounge Music 6CD (2011)\CD1 - Trendy Afterwork\19. Rapfael Saadiq - Grown Folks.wav

Peak level 95.2 %
Extraction speed 10.7 X
Track quality 100.0 %
Test CRC 3280F908
Copy CRC 3280F908
Track not present in AccurateRip database
Copy OK

Track 20

Filename F:\ЗАГРУЗКИ\ The Best Of Lounge Music 6CD (2011)\CD1 - Trendy Afterwork\20. Robag Whrume - K.T.B..wav

Peak level 82.9 %
Extraction speed 11.6 X
Track quality 100.0 %
Test CRC C9BD4133
Copy CRC C9BD4133
Track not present in AccurateRip database
Copy OK


None of the tracks are present in the AccurateRip database

No errors occurred

End of status report

==== Log checksum 408E5493DD5F5D8DF5B918135FC57CE8F1CA7275BFF49E48CE98C23D881753CE ====


[CUETools log; Date: 18.07.2018 11:16:56; Version: 2.1.5]
[AccurateRip ID: 00367319-032d9c7f-3b125814] found.
Track [ CRC | V2 ] Status
01 [7aff02cb|936eef14] (0+2/2) Accurately ripped
02 [0dca4d7b|a7a9bfe4] (0+2/2) Accurately ripped
03 [9c118e2c|cb720ef2] (0+2/2) Accurately ripped
04 [fc77acab|3c0b7c44] (0+2/2) Accurately ripped
05 [7ad1a9a0|9608180b] (0+2/2) Accurately ripped
06 [a03555d4|ea436728] (0+2/2) Accurately ripped
07 [49cbcd83|6a06a70a] (0+2/2) Accurately ripped
08 [ff202e11|311288b1] (0+2/2) Accurately ripped
09 [91c3d33e|e2c58528] (0+2/2) Accurately ripped
10 [ce23de04|d6f64bec] (0+2/2) Accurately ripped
11 [c0d43443|2bb61372] (0+2/2) Accurately ripped
12 [c9fdfc24|96ca17ba] (0+2/2) Accurately ripped
13 [62c8e778|13cbdfa6] (0+2/2) Accurately ripped
14 [83bd21f5|5ef3c120] (0+2/2) Accurately ripped
15 [bf1423ec|09f02ae7] (0+2/2) Accurately ripped
16 [696449f3|09b73175] (0+2/2) Accurately ripped
17 [02eb6d51|da84df23] (0+2/2) Accurately ripped
18 [1796ec91|e33f809f] (0+2/2) Accurately ripped
19 [3e3d36ee|73cea325] (0+2/2) Accurately ripped
20 [01ab8f9e|de769196] (0+2/2) Accurately ripped

Track Peak [ CRC32 ] [W/O NULL] [ LOG ]
– 97,7 [915359C5] [EE21BD8B]
01 97,7 [6C85BAA1] [2DA769F8] CRC32
02 87,4 [43E9241B] [DC97915A] CRC32
03 97,7 [C97F63BC] [BCEFD5AE] CRC32
04 97,7 [37E4F290] [60A525BA] CRC32
05 97,7 [DBDB2B41] [9053C7CC] CRC32
06 97,7 [E67CF3C1] [0D7F0384] CRC32
07 93,5 [1B437853] [A2810E7D] CRC32
08 97,7 [F0DE3161] [7A6059B0] CRC32
09 90,1 [2D674299] [DC0B2BCC] CRC32
10 87,2 [DA88A822] [05F7D863] CRC32
11 96,1 [54CA09A0] [FD57D0DF] CRC32
12 97,7 [8B5B0CF5] [CC285D7B] CRC32
13 85,4 [E65F663C] [02F99D19] CRC32
14 83,6 [EB5AE4CA] [C3CC22A7] CRC32
15 97,7 [DDB734BB] [6CAADA86] CRC32
16 90,9 [ABFFB4A6] [D091CBCD] CRC32
17 97,7 [FABF22D7] [B2A2B797] CRC32
18 97,7 [8509EBC8] [085F2529] CRC32
19 95,2 [3280F908] [C57A5769] CRC32
20 82,9 [C9BD4133] [9BD69B1C] CRC32


VA - The Best Of Lounge Music (2011)[6xCD, Compilation]

Tracklist CD2 - Chic & Glamour:

01. Wax Tailor Feat. Charlotte Savary - Our Dance (4:26)
02. Peder Feat. Ane Trolle - White Lities (3:29)
03. DJ Vadim Feat. Katherin Deboer - Black Is The Night (4:18)
04. Plantlife - What A World (Baby Girl) (3:44)
05. General Elektriks - Little Lady (5:00)
06. Beat Assailant Feat. Ben L'oncle Soul - Spy (2:30)
07. Breakestra - Gotta Let Me Now (3:28)
08. Quantic Feat. Alice Rassell - Sound Of Everything (4:01)
09. Greyboy Feat. Bart Davenport - Genevieve (4:01)
10. Jamie Lidell - Another Day (3:44)
11. Outlines Feat. Beat Assailant - Waiting In Line (3:36)
12. The Bamboos Feat. Lyrics Born - Turn It Up (4:01)
13. Slow Train - In The Black Of Night (3:17)
14. Mocky - Bird Of Feather (4:30)
15. The Rebirth - Evil Vibrations (3:36)
16. Marschmellows - Soulpower (Jazzanova Reworked) (3:34)
17. TM Juke Feat. Alice Russel - Playground Games (5:37)
18. The Mighty Bop - Infrarouge (5:08)
19. Kraak & Smaak Feat. Ben Westbeech - Squeeze Me (3:16)
20. Soopasoul Feat. Dionne Charles - Hot & Cold (3:43)

Converted to Image (CUETools 2.1.4)

Exact Audio Copy V1.0 beta 1 from 15. November 2010

EAC extraction logfile from 4. April 2012, 22:04

Various / CD2 - Chic & Glamour

Used drive : ASUS DRW-24B3ST Adapter: 3 ID: 0

Read mode : Secure
Utilize accurate stream : Yes
Defeat audio cache : Yes
Make use of C2 pointers : No

Read offset correction : 6
Overread into Lead-In and Lead-Out : No
Fill up missing offset samples with silence : Yes
Delete leading and trailing silent blocks : No
Null samples used in CRC calculations : Yes
Used interface : Native Win32 interface for Win NT & 2000
Gap handling : Appended to previous track

Used output format : User Defined Encoder
Selected bitrate : 1024 kBit/s
Quality : High
Add ID3 tag : No
Command line compressor : C:\Program Files\Exact Audio Copy\Flac\flac.exe
Additional command line options : -8 -V -T "ARTIST=%a" -T "TITLE=%t" -T "ALBUM=%g" -T "DATE=%y" -T "TRACKNUMBER=%n" -T "GENRE=%m" -T "COMMENT=ripped by Oleandris" %s


TOC of the extracted CD

Track | Start | Length | Start sector | End sector
––––––––––––––––––––––––––––-
1 | 0:00.00 | 4:26.26 | 0 | 19975
2 | 4:26.26 | 3:29.32 | 19976 | 35682
3 | 7:55.58 | 4:17.50 | 35683 | 55007
4 | 12:13.33 | 3:44.36 | 55008 | 71843
5 | 15:57.69 | 4:59.42 | 71844 | 94310
6 | 20:57.36 | 2:30.37 | 94311 | 105597
7 | 23:27.73 | 3:28.18 | 105598 | 121215
8 | 26:56.16 | 4:00.69 | 121216 | 139284
9 | 30:57.10 | 4:01.21 | 139285 | 157380
10 | 34:58.31 | 3:44.30 | 157381 | 174210
11 | 38:42.61 | 3:35.49 | 174211 | 190384
12 | 42:18.35 | 4:01.05 | 190385 | 208464
13 | 46:19.40 | 3:16.38 | 208465 | 223202
14 | 49:36.03 | 4:30.12 | 223203 | 243464
15 | 54:06.15 | 3:36.33 | 243465 | 259697
16 | 57:42.48 | 3:33.70 | 259698 | 275742
17 | 61:16.43 | 5:36.65 | 275743 | 301007
18 | 66:53.33 | 5:07.49 | 301008 | 324081
19 | 72:01.07 | 3:16.03 | 324082 | 338784
20 | 75:17.10 | 3:43.09 | 338785 | 355518


Track 1

Filename F:\ЗАГРУЗКИ\ The Best Of Lounge Music 6CD (2011)\CD2 - Chic & Glamour\01. Wax Tailor Feat. Charlotte Savary - Our Dance.wav

Pre-gap length 0:00:02.00

Peak level 79.8 %
Extraction speed 3.9 X
Track quality 100.0 %
Test CRC 84A577C7
Copy CRC 84A577C7
Track not present in AccurateRip database
Copy OK

Track 2

Filename F:\ЗАГРУЗКИ\ The Best Of Lounge Music 6CD (2011)\CD2 - Chic & Glamour\02. Peder Feat. Ane Trolle - White Lities.wav

Peak level 97.7 %
Extraction speed 4.2 X
Track quality 100.0 %
Test CRC 835755F6
Copy CRC 835755F6
Track not present in AccurateRip database
Copy OK

Track 3

Filename F:\ЗАГРУЗКИ\ The Best Of Lounge Music 6CD (2011)\CD2 - Chic & Glamour\03. DJ Vadim Feat. Katherin Deboer - Black Is The Night.wav

Peak level 86.6 %
Extraction speed 3.7 X
Track quality 99.9 %
Test CRC 0427E523
Copy CRC 0427E523
Track not present in AccurateRip database
Copy OK

Track 4

Filename F:\ЗАГРУЗКИ\ The Best Of Lounge Music 6CD (2011)\CD2 - Chic & Glamour\04. Plantlife - What A World (Baby Girl).wav

Peak level 85.8 %
Extraction speed 3.8 X
Track quality 99.9 %
Test CRC 361E80A0
Copy CRC 361E80A0
Track not present in AccurateRip database
Copy OK

Track 5

Filename F:\ЗАГРУЗКИ\ The Best Of Lounge Music 6CD (2011)\CD2 - Chic & Glamour\05. General Elektriks - Little Lady.wav

Peak level 97.7 %
Extraction speed 5.3 X
Track quality 100.0 %
Test CRC DD81C65E
Copy CRC DD81C65E
Track not present in AccurateRip database
Copy OK

Track 6

Filename F:\ЗАГРУЗКИ\ The Best Of Lounge Music 6CD (2011)\CD2 - Chic & Glamour\06. Beat Assailant Feat. Ben L'oncle Soul - Spy.wav

Peak level 82.1 %
Extraction speed 5.0 X
Track quality 100.0 %
Test CRC 9359CA21
Copy CRC 9359CA21
Track not present in AccurateRip database
Copy OK

Track 7

Filename F:\ЗАГРУЗКИ\ The Best Of Lounge Music 6CD (2011)\CD2 - Chic & Glamour\07. Breakestra - Gotta Let Me Now.wav

Peak level 97.7 %
Extraction speed 5.5 X
Track quality 100.0 %
Test CRC 31C28681
Copy CRC 31C28681
Track not present in AccurateRip database
Copy OK

Track 8

Filename F:\ЗАГРУЗКИ\ The Best Of Lounge Music 6CD (2011)\CD2 - Chic & Glamour\08. Quantic Feat. Alice Rassell - Sound Of Everything.wav

Peak level 94.4 %
Extraction speed 5.8 X
Track quality 100.0 %
Test CRC 762EBEA7
Copy CRC 762EBEA7
Track not present in AccurateRip database
Copy OK

Track 9

Filename F:\ЗАГРУЗКИ\ The Best Of Lounge Music 6CD (2011)\CD2 - Chic & Glamour\09. Greyboy Feat. Bart Davenport - Genevieve.wav

Peak level 97.7 %
Extraction speed 6.2 X
Track quality 100.0 %
Test CRC 61EC5946
Copy CRC 61EC5946
Track not present in AccurateRip database
Copy OK

Track 10

Filename F:\ЗАГРУЗКИ\ The Best Of Lounge Music 6CD (2011)\CD2 - Chic & Glamour\10. Jamie Lidell - Another Day.wav

Peak level 91.2 %
Extraction speed 6.3 X
Track quality 100.0 %
Test CRC E9A55E3D
Copy CRC E9A55E3D
Track not present in AccurateRip database
Copy OK

Track 11

Filename F:\ЗАГРУЗКИ\ The Best Of Lounge Music 6CD (2011)\CD2 - Chic & Glamour\11. Outlines Feat. Beat Assailant - Waiting In Line.wav

Peak level 90.7 %
Extraction speed 6.5 X
Track quality 100.0 %
Test CRC 815DAF7E
Copy CRC 815DAF7E
Track not present in AccurateRip database
Copy OK

Track 12

Filename F:\ЗАГРУЗКИ\ The Best Of Lounge Music 6CD (2011)\CD2 - Chic & Glamour\12. The Bamboos Feat. Lyrics Born - Turn It Up.wav

Peak level 97.7 %
Extraction speed 5.3 X
Track quality 99.9 %
Test CRC 5E4EA960
Copy CRC 5E4EA960
Track not present in AccurateRip database
Copy OK

Track 13

Filename F:\ЗАГРУЗКИ\ The Best Of Lounge Music 6CD (2011)\CD2 - Chic & Glamour\13. Slow Train - In The Black Of Night.wav

Peak level 97.7 %
Extraction speed 6.6 X
Track quality 100.0 %
Test CRC FF82D63B
Copy CRC FF82D63B
Track not present in AccurateRip database
Copy OK

Track 14

Filename F:\ЗАГРУЗКИ\ The Best Of Lounge Music 6CD (2011)\CD2 - Chic & Glamour\14. Mocky - Bird Of Feather.wav

Peak level 97.7 %
Extraction speed 7.2 X
Track quality 100.0 %
Test CRC 55FBD5BA
Copy CRC 55FBD5BA
Track not present in AccurateRip database
Copy OK

Track 15

Filename F:\ЗАГРУЗКИ\ The Best Of Lounge Music 6CD (2011)\CD2 - Chic & Glamour\15. The Rebirth - Evil Vibrations.wav

Peak level 87.1 %
Extraction speed 7.2 X
Track quality 100.0 %
Test CRC DD0BE5C1
Copy CRC DD0BE5C1
Track not present in AccurateRip database
Copy OK

Track 16

Filename F:\ЗАГРУЗКИ\ The Best Of Lounge Music 6CD (2011)\CD2 - Chic & Glamour\16. Marschmellows - Soulpower (Jazzanova Reworked).wav

Peak level 86.6 %
Extraction speed 7.3 X
Track quality 100.0 %
Test CRC 148332C5
Copy CRC 148332C5
Track not present in AccurateRip database
Copy OK

Track 17

Filename F:\ЗАГРУЗКИ\ The Best Of Lounge Music 6CD (2011)\CD2 - Chic & Glamour\17. TM Juke Feat. Alice Russel - Playground Games.wav

Peak level 91.0 %
Extraction speed 7.9 X
Track quality 100.0 %
Test CRC 9A00D452
Copy CRC 9A00D452
Track not present in AccurateRip database
Copy OK

Track 18

Filename F:\ЗАГРУЗКИ\ The Best Of Lounge Music 6CD (2011)\CD2 - Chic & Glamour\18. The Mighty Bop - Infrarouge.wav

Peak level 97.7 %
Extraction speed 8.1 X
Track quality 100.0 %
Test CRC 91738E4A
Copy CRC 91738E4A
Track not present in AccurateRip database
Copy OK

Track 19

Filename F:\ЗАГРУЗКИ\ The Best Of Lounge Music 6CD (2011)\CD2 - Chic & Glamour\19. Kraak & Smaak Feat. Ben Westbeech - Squeeze Me.wav

Peak level 85.6 %
Extraction speed 7.8 X
Track quality 100.0 %
Test CRC 1BF9906B
Copy CRC 1BF9906B
Track not present in AccurateRip database
Copy OK

Track 20

Filename F:\ЗАГРУЗКИ\ The Best Of Lounge Music 6CD (2011)\CD2 - Chic & Glamour\20. Soopasoul Feat. Dionne Charles - Hot & Cold.wav

Peak level 80.0 %
Extraction speed 8.1 X
Track quality 100.0 %
Test CRC 50730247
Copy CRC 50730247
Track not present in AccurateRip database
Copy OK


None of the tracks are present in the AccurateRip database

No errors occurred

End of status report

==== Log checksum 938C33CF71AAADBBE67D424351102D7FA50674E2E830533E32C53722F580F16B ====


[CUETools log; Date: 18.07.2018 11:21:37; Version: 2.1.5]
[AccurateRip ID: 00386112-033aaa38-39128414] found.
Track [ CRC | V2 ] Status
01 [cb0b1430|8f31e49e] (0+2/2) Accurately ripped
02 [94fa4576|1f5e1e5a] (0+2/2) Accurately ripped
03 [c040d65a|fd4fde65] (0+2/2) Accurately ripped
04 [f162c2fb|c5846c62] (0+2/2) Accurately ripped
05 [fb94484f|800ec722] (0+2/2) Accurately ripped
06 [18363960|58883844] (0+2/2) Accurately ripped
07 [c789b4c9|0378fb71] (0+2/2) Accurately ripped
08 [087f9e0d|2504ee49] (0+2/2) Accurately ripped
09 [f370d890|1a07766c] (0+2/2) Accurately ripped
10 [70edf97d|cbcaa929] (0+2/2) Accurately ripped
11 [537b96b7|f2e3e8e8] (0+2/2) Accurately ripped
12 [75c7eeb9|f4fdf76c] (0+2/2) Accurately ripped
13 [d6370e53|c0603840] (0+2/2) Accurately ripped
14 [e213ecb1|dcbc38ea] (0+2/2) Accurately ripped
15 [5e0e41e0|f60214ca] (0+2/2) Accurately ripped
16 [cc9db4dd|4a102fa4] (0+2/2) Accurately ripped
17 [f7163832|98d9d694] (0+2/2) Accurately ripped
18 [c313583a|67921480] (0+2/2) Accurately ripped
19 [8e1e2c63|57ba17fd] (0+2/2) Accurately ripped
20 [4de3b9f1|4e093235] (0+2/2) Accurately ripped

Track Peak [ CRC32 ] [W/O NULL] [ LOG ]
– 97,7 [3D7B471A] [E30A679B]
01 79,8 [84A577C7] [E4F2CB6F] CRC32
02 97,7 [835755F6] [C0C00462] CRC32
03 86,6 [0427E523] [6BD987B0] CRC32
04 85,8 [361E80A0] [359D5967] CRC32
05 97,7 [DD81C65E] [E8701F10] CRC32
06 82,1 [9359CA21] [71598F21] CRC32
07 97,7 [31C28681] [6B889692] CRC32
08 94,4 [762EBEA7] [9AFE48EC] CRC32
09 97,7 [61EC5946] [3632774F] CRC32
10 91,2 [E9A55E3D] [BA57B678] CRC32
11 90,7 [815DAF7E] [C55103E8] CRC32
12 97,7 [5E4EA960] [8CB49D12] CRC32
13 97,7 [FF82D63B] [012D5C52] CRC32
14 97,7 [55FBD5BA] [F8751355] CRC32
15 87,1 [DD0BE5C1] [3E074D1C] CRC32
16 86,6 [148332C5] [C5831B3F] CRC32
17 91,0 [9A00D452] [64AD9E67] CRC32
18 97,7 [91738E4A] [5DFD495F] CRC32
19 85,6 [1BF9906B] [A50B3FF2] CRC32
20 80,0 [50730247] [112DF713] CRC32


VA - The Best Of Lounge Music (2011)[6xCD, Compilation]

Tracklist CD3 - Sweet Rendez-Vous:

01. Tom Fire Feat. Matthew MC Anuff - Brainwash (3:03)
02. Irma - I Know (3:01)
03. Radio Citizen Feat. Bajka - Summer Days (4:33)
04. Kinny & Horne - Forgetting To Remember (Nostalgia 77 Mix) (3:32)
05. Brenda Boykin - Ride Rich Rhythm (5:03)
06. Jojo Effect - The Beat Goes On (5:14)
07. Ella Fitzerald - Air Mail Spesial (Club Des Belugas Remix) (4:41)
08. Dublex Inc. Feat. Tuomo - Hell In A Handback (3:59)
09. [Re:Jazz] - People Hold On (Alternat A Capella Take) (2:56)
10. Nekta - Here's Us (2:48)
11. Waldeck - Make My Day (2:48)
12. Parov Stelar - Silent Show (4:24)
13. Alif Tree - Forgotten Places (3:43)
14. Bart&Baker Feat. Kitten On The Keys - Peek A Boo (2:50)
15. Caravan Palace - Ended With The Night (5:01)
16. Boozoo Bajou Feat. Ben Weaver - Way Down (4:09)
17. Nightmares On Wax - You Wish (3:30)
18. Kruder & Dorfmeister - High Noon (4:24)
19. Tosca - Chocolate Elvis (3:53)
20. Bonobo - Kota (5:21)

Converted to Image (CUETools 2.1.4)

Exact Audio Copy V1.0 beta 1 from 15. November 2010

EAC extraction logfile from 4. April 2012, 12:31

Various / CD3 - Sweet Rendez-Vous

Used drive : PLEXTOR DVDR PX-L890SA Adapter: 5 ID: 0

Read mode : Secure
Utilize accurate stream : Yes
Defeat audio cache : Yes
Make use of C2 pointers : No

Read offset correction : 6
Overread into Lead-In and Lead-Out : No
Fill up missing offset samples with silence : Yes
Delete leading and trailing silent blocks : No
Null samples used in CRC calculations : Yes
Used interface : Native Win32 interface for Win NT & 2000
Gap handling : Appended to previous track

Used output format : User Defined Encoder
Selected bitrate : 1024 kBit/s
Quality : High
Add ID3 tag : No
Command line compressor : C:\Program Files\Exact Audio Copy\Flac\flac.exe
Additional command line options : -8 -V -T "ARTIST=%a" -T "TITLE=%t" -T "ALBUM=%g" -T "DATE=%y" -T "TRACKNUMBER=%n" -T "GENRE=%m" -T "COMMENT=ripped by Oleandris" %s


TOC of the extracted CD

Track | Start | Length | Start sector | End sector
––––––––––––––––––––––––––––-
1 | 0:00.00 | 3:03.23 | 0 | 13747
2 | 3:03.23 | 3:00.61 | 13748 | 27308
3 | 6:04.09 | 4:32.69 | 27309 | 47777
4 | 10:37.03 | 3:31.73 | 47778 | 63675
5 | 14:09.01 | 5:03.37 | 63676 | 86437
6 | 19:12.38 | 5:13.66 | 86438 | 109978
7 | 24:26.29 | 4:40.44 | 109979 | 131022
8 | 29:06.73 | 3:58.43 | 131023 | 148915
9 | 33:05.41 | 2:56.15 | 148916 | 162130
10 | 36:01.56 | 2:48.16 | 162131 | 174746
11 | 38:49.72 | 2:48.14 | 174747 | 187360
12 | 41:38.11 | 4:24.07 | 187361 | 207167
13 | 46:02.18 | 3:42.57 | 207168 | 223874
14 | 49:45.00 | 2:50.13 | 223875 | 236637
15 | 52:35.13 | 5:01.25 | 236638 | 259237
16 | 57:36.38 | 4:08.68 | 259238 | 277905
17 | 61:45.31 | 3:29.59 | 277906 | 293639
18 | 65:15.15 | 4:23.63 | 293640 | 313427
19 | 69:39.03 | 3:53.36 | 313428 | 330938
20 | 73:32.39 | 5:21.32 | 330939 | 355045


Track 1

Filename F:\ЗАГРУЗКИ\ The Best Of Lounge Music 6CD (2011)\CD3 - Sweet Rendez-Vous\01. Tom Fire Feat. Matthew MC Anuff - Brainwash.wav

Pre-gap length 0:00:02.00

Peak level 88.7 %
Extraction speed 1.3 X
Track quality 99.9 %
Test CRC 2A27F9B7
Copy CRC 2A27F9B7
Track not present in AccurateRip database
Copy OK

Track 2

Filename F:\ЗАГРУЗКИ\ The Best Of Lounge Music 6CD (2011)\CD3 - Sweet Rendez-Vous\02. Irma - I Know.wav

Peak level 80.7 %
Extraction speed 2.1 X
Track quality 100.0 %
Test CRC 6CB8FAA9
Copy CRC 6CB8FAA9
Track not present in AccurateRip database
Copy OK

Track 3

Filename F:\ЗАГРУЗКИ\ The Best Of Lounge Music 6CD (2011)\CD3 - Sweet Rendez-Vous\03. Radio Citizen Feat. Bajka - Summer Days.wav

Peak level 93.7 %
Extraction speed 1.8 X
Track quality 99.9 %
Test CRC B9A85A42
Copy CRC B9A85A42
Track not present in AccurateRip database
Copy OK

Track 4

Filename F:\ЗАГРУЗКИ\ The Best Of Lounge Music 6CD (2011)\CD3 - Sweet Rendez-Vous\04. Kinny & Horne - Forgetting To Remember (Nostalgia 77 Mix).wav

Peak level 97.7 %
Extraction speed 2.5 X
Track quality 100.0 %
Test CRC 7A120696
Copy CRC 7A120696
Track not present in AccurateRip database
Copy OK

Track 5

Filename F:\ЗАГРУЗКИ\ The Best Of Lounge Music 6CD (2011)\CD3 - Sweet Rendez-Vous\05. Brenda Boykin - Ride Rich Rhythm.wav

Peak level 79.4 %
Extraction speed 2.1 X
Track quality 99.9 %
Test CRC B87628AF
Copy CRC B87628AF
Track not present in AccurateRip database
Copy OK

Track 6

Filename F:\ЗАГРУЗКИ\ The Best Of Lounge Music 6CD (2011)\CD3 - Sweet Rendez-Vous\06. Jojo Effect - The Beat Goes On.wav

Peak level 87.9 %
Extraction speed 3.0 X
Track quality 100.0 %
Test CRC 20A53710
Copy CRC 20A53710
Track not present in AccurateRip database
Copy OK

Track 7

Filename F:\ЗАГРУЗКИ\ The Best Of Lounge Music 6CD (2011)\CD3 - Sweet Rendez-Vous\07. Ella Fitzerald - Air Mail Spesial (Club Des Belugas Remix).wav

Peak level 97.7 %
Extraction speed 2.3 X
Track quality 99.9 %
Test CRC F4D2BB93
Copy CRC F4D2BB93
Track not present in AccurateRip database
Copy OK

Track 8

Filename F:\ЗАГРУЗКИ\ The Best Of Lounge Music 6CD (2011)\CD3 - Sweet Rendez-Vous\08. Dublex Inc. Feat. Tuomo - Hell In A Handback.wav

Peak level 97.7 %
Extraction speed 3.2 X
Track quality 100.0 %
Test CRC 748CCE44
Copy CRC 748CCE44
Track not present in AccurateRip database
Copy OK

Track 9

Filename F:\ЗАГРУЗКИ\ The Best Of Lounge Music 6CD (2011)\CD3 - Sweet Rendez-Vous\09. [Re-Jazz] - People Hold On (Alternat A Capella Take).wav

Peak level 97.7 %
Extraction speed 3.1 X
Track quality 100.0 %
Test CRC F8F8707E
Copy CRC F8F8707E
Track not present in AccurateRip database
Copy OK

Track 10

Filename F:\ЗАГРУЗКИ\ The Best Of Lounge Music 6CD (2011)\CD3 - Sweet Rendez-Vous\10. Nekta - Here's Us.wav

Peak level 97.7 %
Extraction speed 3.2 X
Track quality 100.0 %
Test CRC 55BEED74
Copy CRC 55BEED74
Track not present in AccurateRip database
Copy OK

Track 11

Filename F:\ЗАГРУЗКИ\ The Best Of Lounge Music 6CD (2011)\CD3 - Sweet Rendez-Vous\11. Waldeck - Make My Day.wav

Peak level 97.7 %
Extraction speed 3.3 X
Track quality 100.0 %
Test CRC 4737E6C7
Copy CRC 4737E6C7
Track not present in AccurateRip database
Copy OK

Track 12

Filename F:\ЗАГРУЗКИ\ The Best Of Lounge Music 6CD (2011)\CD3 - Sweet Rendez-Vous\12. Parov Stelar - Silent Show.wav

Peak level 90.4 %
Extraction speed 3.7 X
Track quality 100.0 %
Test CRC FAF0205B
Copy CRC FAF0205B
Track not present in AccurateRip database
Copy OK

Track 13

Filename F:\ЗАГРУЗКИ\ The Best Of Lounge Music 6CD (2011)\CD3 - Sweet Rendez-Vous\13. Alif Tree - Forgotten Places.wav

Peak level 97.7 %
Extraction speed 3.7 X
Track quality 100.0 %
Test CRC 1BC6535E
Copy CRC 1BC6535E
Track not present in AccurateRip database
Copy OK

Track 14

Filename F:\ЗАГРУЗКИ\ The Best Of Lounge Music 6CD (2011)\CD3 - Sweet Rendez-Vous\14. Bart&Baker Feat. Kitten On The Keys - Peek A Boo.wav

Peak level 91.4 %
Extraction speed 3.5 X
Track quality 100.0 %
Test CRC 9D99781B
Copy CRC 9D99781B
Track not present in AccurateRip database
Copy OK

Track 15

Filename F:\ЗАГРУЗКИ\ The Best Of Lounge Music 6CD (2011)\CD3 - Sweet Rendez-Vous\15. Caravan Palace - Ended With The Night.wav

Peak level 75.8 %
Extraction speed 4.0 X
Track quality 100.0 %
Test CRC 33EA0103
Copy CRC 33EA0103
Track not present in AccurateRip database
Copy OK

Track 16

Filename F:\ЗАГРУЗКИ\ The Best Of Lounge Music 6CD (2011)\CD3 - Sweet Rendez-Vous\16. Boozoo Bajou Feat. Ben Weaver - Way Down.wav

Peak level 82.4 %
Extraction speed 4.0 X
Track quality 100.0 %
Test CRC E4312F76
Copy CRC E4312F76
Track not present in AccurateRip database
Copy OK

Track 17

Filename F:\ЗАГРУЗКИ\ The Best Of Lounge Music 6CD (2011)\CD3 - Sweet Rendez-Vous\17. Nightmares On Wax - You Wish.wav

Peak level 97.7 %
Extraction speed 4.0 X
Track quality 100.0 %
Test CRC 4EF41C32
Copy CRC 4EF41C32
Track not present in AccurateRip database
Copy OK

Track 18

Filename F:\ЗАГРУЗКИ\ The Best Of Lounge Music 6CD (2011)\CD3 - Sweet Rendez-Vous\18. Kruder & Dorfmeister - High Noon.wav

Peak level 97.7 %
Extraction speed 4.3 X
Track quality 100.0 %
Test CRC DC4CDD6F
Copy CRC DC4CDD6F
Track not present in AccurateRip database
Copy OK

Track 19

Filename F:\ЗАГРУЗКИ\ The Best Of Lounge Music 6CD (2011)\CD3 - Sweet Rendez-Vous\19. Tosca - Chocolate Elvis.wav

Peak level 95.9 %
Extraction speed 4.3 X
Track quality 100.0 %
Test CRC 5F18DE95
Copy CRC 5F18DE95
Track not present in AccurateRip database
Copy OK

Track 20

Filename F:\ЗАГРУЗКИ\ The Best Of Lounge Music 6CD (2011)\CD3 - Sweet Rendez-Vous\20. Bonobo - Kota.wav

Peak level 97.7 %
Extraction speed 3.6 X
Track quality 99.9 %
Test CRC 155845E5
Copy CRC 155845E5
Track not present in AccurateRip database
Copy OK


None of the tracks are present in the AccurateRip database

No errors occurred

End of status report

==== Log checksum 23EC6B1A5AF1C1ADF8FECC48491F89F749FE6CA1879AC4EA6D8134EDDCF24D7D ====


[CUETools log; Date: 18.07.2018 11:26:24; Version: 2.1.5]
[AccurateRip ID: 0037b5a8-0332ab48-38127d14] found.
Track [ CRC | V2 ] Status
01 [e3a502c0|77710299] (0+2/2) Accurately ripped
02 [a67c3807|e2140903] (0+2/2) Accurately ripped
03 [7949dcd8|d69ebed9] (0+2/2) Accurately ripped
04 [1d92c59b|01afb66f] (0+2/2) Accurately ripped
05 [93efe2c6|39692107] (0+2/2) Accurately ripped
06 [916bda9d|b0fb92de] (0+2/2) Accurately ripped
07 [ada53889|0f17849a] (0+2/2) Accurately ripped
08 [31e5b497|b441b56e] (0+2/2) Accurately ripped
09 [dab4bcb9|4b226c7d] (0+2/2) Accurately ripped
10 [c2a3fd9f|0757357f] (0+2/2) Accurately ripped
11 [970d7ead|9d7a76d5] (0+2/2) Accurately ripped
12 [ff2153e1|1a076d0d] (0+2/2) Accurately ripped
13 [cffce1ee|b3b8e686] (0+2/2) Accurately ripped
14 [652d05da|cf74ff59] (0+2/2) Accurately ripped
15 [eae7e3df|84f9f550] (0+2/2) Accurately ripped
16 [213d11a0|f2463760] (0+2/2) Accurately ripped
17 [02a67488|b8220f03] (0+2/2) Accurately ripped
18 [f7ece0ef|e5d128d1] (0+2/2) Accurately ripped
19 [425f34ed|d1072c56] (0+2/2) Accurately ripped
20 [b085898b|8dc70b87] (0+2/2) Accurately ripped

Track Peak [ CRC32 ] [W/O NULL] [ LOG ]
– 97,7 [AF178DD6] [4A4D7DDE]
01 88,7 [2A27F9B7] [E1CD0EA7] CRC32
02 80,7 [6CB8FAA9] [8DFD2FDF] CRC32
03 93,7 [B9A85A42] [0F9ED5EE] CRC32
04 97,7 [7A120696] [3D3EEEA2] CRC32
05 79,4 [B87628AF] [F4A26DBD] CRC32
06 87,9 [20A53710] [6B30792F] CRC32
07 97,7 [F4D2BB93] [23C43BAF] CRC32
08 97,7 [748CCE44] [3C04B1A7] CRC32
09 97,7 [F8F8707E] [903E59DB] CRC32
10 97,7 [55BEED74] [5562A8EE] CRC32
11 97,7 [4737E6C7] [962BCB17] CRC32
12 90,4 [FAF0205B] [9C6C3B7E] CRC32
13 97,7 [1BC6535E] [5834D92F] CRC32
14 91,4 [9D99781B] [89541200] CRC32
15 75,8 [33EA0103] [A38608A9] CRC32
16 82,4 [E4312F76] [4AE121C0] CRC32
17 97,7 [4EF41C32] [1C2774D0] CRC32
18 97,7 [DC4CDD6F] [B2FAADE1] CRC32
19 95,9 [5F18DE95] [AFED6163] CRC32
20 97,7 [155845E5] [62DE1D5C] CRC32


VA - The Best Of Lounge Music (2011)[6xCD, Compilation]

Tracklist CD4 - A Touch A Beauty:

01. St Germain - Alabama Blues (3:50)
02. Stephane Pompougnac - Pour Faire La Portrait D'UnOiseau (4:24)
03. Charles Schillings - No Communication, No Love (Devastating) (3:50)
04. Dimitri From Paris Feat. Omar - Strong Man (For Real) (4:03)
05. The Mighty Bop - Feeling Good (4:13)
06. Shazz - Sit Down (3:48)
07. Matthew Herbert - Suddenly (4:42)
08. Llorca - Indigo Blues (3:44)
09. Rouge Rouge - L'Amour (4:08)
10. Bob Sinclar - Kiss My Eyes (Reggae Version) (4:00)
11. Reminiscene Quartet - Jazz Thing (4:10)
12. Saloma De Bahia - MAs Que Nada (3:53)
13. Cibelle - Dia De Yemanja (4:34)
14. Rebel Gilberto - All Around (Telephon Tel Aviv Mix) (3:59)
15. Zuco 103 - Q Bajano (2:48)
16. Quantic & Nickodemus - Mi Swing Es Tropical (3:43)
17. Truby Trio - A Go Go (3:33)
18. Salvador Group - Moksa (3:40)
19. Snooze - The Chase (Fila Brasilia Remix) (3:50)
20. Alif Tree - Without Her(Th) (4:25)

Converted to Image (CUETools 2.1.4)

Exact Audio Copy V1.0 beta 1 from 15. November 2010

EAC extraction logfile from 4. April 2012, 23:47

Various / CD4 - A Touch A Beauty

Used drive : PLEXTOR DVDR PX-L890SA Adapter: 5 ID: 0

Read mode : Secure
Utilize accurate stream : Yes
Defeat audio cache : Yes
Make use of C2 pointers : No

Read offset correction : 6
Overread into Lead-In and Lead-Out : No
Fill up missing offset samples with silence : Yes
Delete leading and trailing silent blocks : No
Null samples used in CRC calculations : Yes
Used interface : Native Win32 interface for Win NT & 2000
Gap handling : Appended to previous track

Used output format : User Defined Encoder
Selected bitrate : 1024 kBit/s
Quality : High
Add ID3 tag : No
Command line compressor : C:\Program Files\Exact Audio Copy\Flac\flac.exe
Additional command line options : -8 -V -T "ARTIST=%a" -T "TITLE=%t" -T "ALBUM=%g" -T "DATE=%y" -T "TRACKNUMBER=%n" -T "GENRE=%m" -T "COMMENT=ripped by Oleandris" %s


TOC of the extracted CD

Track | Start | Length | Start sector | End sector
––––––––––––––––––––––––––––-
1 | 0:00.00 | 3:50.25 | 0 | 17274
2 | 3:50.25 | 4:23.49 | 17275 | 37048
3 | 8:13.74 | 3:50.18 | 37049 | 54316
4 | 12:04.17 | 4:02.64 | 54317 | 72530
5 | 16:07.06 | 4:13.28 | 72531 | 91533
6 | 20:20.34 | 3:48.29 | 91534 | 108662
7 | 24:08.63 | 4:42.28 | 108663 | 129840
8 | 28:51.16 | 3:43.61 | 129841 | 146626
9 | 32:35.02 | 4:08.00 | 146627 | 165226
10 | 36:43.02 | 3:59.46 | 165227 | 183197
11 | 40:42.48 | 4:10.36 | 183198 | 201983
12 | 44:53.09 | 3:52.63 | 201984 | 219446
13 | 48:45.72 | 4:34.34 | 219447 | 240030
14 | 53:20.31 | 3:58.66 | 240031 | 257946
15 | 57:19.22 | 2:47.70 | 257947 | 270541
16 | 60:07.17 | 3:43.09 | 270542 | 287275
17 | 63:50.26 | 3:33.30 | 287276 | 303280
18 | 67:23.56 | 3:40.17 | 303281 | 319797
19 | 71:03.73 | 3:49.54 | 319798 | 337026
20 | 74:53.52 | 4:25.15 | 337027 | 356916


Track 1

Filename F:\ЗАГРУЗКИ\ The Best Of Lounge Music 6CD (2011)\CD4 - A Touch A Beauty\01. St Germain - Alabama Blues.wav

Pre-gap length 0:00:02.00

Peak level 97.7 %
Extraction speed 3.8 X
Track quality 100.0 %
Test CRC DAD3503C
Copy CRC DAD3503C
Track not present in AccurateRip database
Copy OK

Track 2

Filename F:\ЗАГРУЗКИ\ The Best Of Lounge Music 6CD (2011)\CD4 - A Touch A Beauty\02. Stephane Pompougnac - Pour Faire La Portrait D'UnOiseau.wav

Peak level 93.4 %
Extraction speed 3.5 X
Track quality 99.9 %
Test CRC E6C7232A
Copy CRC E6C7232A
Track not present in AccurateRip database
Copy OK

Track 3

Filename F:\ЗАГРУЗКИ\ The Best Of Lounge Music 6CD (2011)\CD4 - A Touch A Beauty\03. Charles Schillings - No Communication, No Love (Devastating).wav

Peak level 88.8 %
Extraction speed 4.6 X
Track quality 100.0 %
Test CRC 49726397
Copy CRC 49726397
Track not present in AccurateRip database
Copy OK

Track 4

Filename F:\ЗАГРУЗКИ\ The Best Of Lounge Music 6CD (2011)\CD4 - A Touch A Beauty\04. Dimitri From Paris Feat. Omar - Strong Man (For Real).wav

Peak level 74.5 %
Extraction speed 4.9 X
Track quality 100.0 %
Test CRC 6C790B62
Copy CRC 6C790B62
Track not present in AccurateRip database
Copy OK

Track 5

Filename F:\ЗАГРУЗКИ\ The Best Of Lounge Music 6CD (2011)\CD4 - A Touch A Beauty\05. The Mighty Bop - Feeling Good.wav

Peak level 91.1 %
Extraction speed 4.2 X
Track quality 99.9 %
Test CRC DAB85D89
Copy CRC DAB85D89
Track not present in AccurateRip database
Copy OK

Track 6

Filename F:\ЗАГРУЗКИ\ The Best Of Lounge Music 6CD (2011)\CD4 - A Touch A Beauty\06. Shazz - Sit Down.wav

Peak level 79.6 %
Extraction speed 5.4 X
Track quality 100.0 %
Test CRC 74805241
Copy CRC 74805241
Track not present in AccurateRip database
Copy OK

Track 7

Filename F:\ЗАГРУЗКИ\ The Best Of Lounge Music 6CD (2011)\CD4 - A Touch A Beauty\07. Matthew Herbert - Suddenly.wav

Peak level 96.8 %
Extraction speed 5.7 X
Track quality 100.0 %
Test CRC 76FEF71D
Copy CRC 76FEF71D
Track not present in AccurateRip database
Copy OK

Track 8

Filename F:\ЗАГРУЗКИ\ The Best Of Lounge Music 6CD (2011)\CD4 - A Touch A Beauty\08. Llorca - Indigo Blues.wav

Peak level 83.2 %
Extraction speed 4.6 X
Track quality 99.9 %
Test CRC 83302588
Copy CRC 83302588
Track not present in AccurateRip database
Copy OK

Track 9

Filename F:\ЗАГРУЗКИ\ The Best Of Lounge Music 6CD (2011)\CD4 - A Touch A Beauty\09. Rouge Rouge - L'Amour.wav

Peak level 97.6 %
Extraction speed 6.2 X
Track quality 100.0 %
Test CRC 9C608538
Copy CRC 9C608538
Track not present in AccurateRip database
Copy OK

Track 10

Filename F:\ЗАГРУЗКИ\ The Best Of Lounge Music 6CD (2011)\CD4 - A Touch A Beauty\10. Bob Sinclar - Kiss My Eyes (Reggae Version).wav

Peak level 97.7 %
Extraction speed 6.4 X
Track quality 100.0 %
Test CRC 1E48E8CF
Copy CRC 1E48E8CF
Track not present in AccurateRip database
Copy OK

Track 11

Filename F:\ЗАГРУЗКИ\ The Best Of Lounge Music 6CD (2011)\CD4 - A Touch A Beauty\11. Reminiscene Quartet - Jazz Thing.wav

Peak level 97.7 %
Extraction speed 6.7 X
Track quality 100.0 %
Test CRC CD4786AD
Copy CRC CD4786AD
Track not present in AccurateRip database
Copy OK

Track 12

Filename F:\ЗАГРУЗКИ\ The Best Of Lounge Music 6CD (2011)\CD4 - A Touch A Beauty\12. Saloma De Bahia - MAs Que Nada.wav

Peak level 82.1 %
Extraction speed 6.8 X
Track quality 100.0 %
Test CRC BE8CF6FF
Copy CRC BE8CF6FF
Track not present in AccurateRip database
Copy OK

Track 13

Filename F:\ЗАГРУЗКИ\ The Best Of Lounge Music 6CD (2011)\CD4 - A Touch A Beauty\13. Cibelle - Dia De Yemanja.wav

Peak level 93.4 %
Extraction speed 7.2 X
Track quality 100.0 %
Test CRC 6166E841
Copy CRC 6166E841
Track not present in AccurateRip database
Copy OK

Track 14

Filename F:\ЗАГРУЗКИ\ The Best Of Lounge Music 6CD (2011)\CD4 - A Touch A Beauty\14. Rebel Gilberto - All Around (Telephon Tel Aviv Mix).wav

Peak level 85.1 %
Extraction speed 7.2 X
Track quality 100.0 %
Test CRC CB0F5A2D
Copy CRC CB0F5A2D
Track not present in AccurateRip database
Copy OK

Track 15

Filename F:\ЗАГРУЗКИ\ The Best Of Lounge Music 6CD (2011)\CD4 - A Touch A Beauty\15. Zuco 103 - Q Bajano.wav

Peak level 84.3 %
Extraction speed 6.8 X
Track quality 100.0 %
Test CRC A298CBB1
Copy CRC A298CBB1
Track not present in AccurateRip database
Copy OK

Track 16

Filename F:\ЗАГРУЗКИ\ The Best Of Lounge Music 6CD (2011)\CD4 - A Touch A Beauty\16. Quantic & Nickodemus - Mi Swing Es Tropical.wav

Peak level 97.7 %
Extraction speed 7.5 X
Track quality 100.0 %
Test CRC 09B20EDF
Copy CRC 09B20EDF
Track not present in AccurateRip database
Copy OK

Track 17

Filename F:\ЗАГРУЗКИ\ The Best Of Lounge Music 6CD (2011)\CD4 - A Touch A Beauty\17. Truby Trio - A Go Go.wav

Peak level 79.0 %
Extraction speed 7.4 X
Track quality 100.0 %
Test CRC EF43A86F
Copy CRC EF43A86F
Track not present in AccurateRip database
Copy OK

Track 18

Filename F:\ЗАГРУЗКИ\ The Best Of Lounge Music 6CD (2011)\CD4 - A Touch A Beauty\18. Salvador Group - Moksa.wav

Peak level 92.4 %
Extraction speed 7.8 X
Track quality 100.0 %
Test CRC 7B8E08A0
Copy CRC 7B8E08A0
Track not present in AccurateRip database
Copy OK

Track 19

Filename F:\ЗАГРУЗКИ\ The Best Of Lounge Music 6CD (2011)\CD4 - A Touch A Beauty\19. Snooze - The Chase (Fila Brasilia Remix).wav

Peak level 97.7 %
Extraction speed 7.8 X
Track quality 100.0 %
Test CRC 31742D13
Copy CRC 31742D13
Track not present in AccurateRip database
Copy OK

Track 20

Filename F:\ЗАГРУЗКИ\ The Best Of Lounge Music 6CD (2011)\CD4 - A Touch A Beauty\20. Alif Tree - Without Her(Th).wav

Peak level 79.3 %
Extraction speed 8.3 X
Track quality 100.0 %
Test CRC F938A0A7
Copy CRC F938A0A7
Track not present in AccurateRip database
Copy OK


None of the tracks are present in the AccurateRip database

No errors occurred

End of status report

==== Log checksum 5F93CAA16D13E0E79DC9DB3D1544015E38E753B298AFC20147E40D6EBF9D5C55 ====


[CUETools log; Date: 18.07.2018 11:32:23; Version: 2.1.5]
[AccurateRip ID: 0039fdc0-034fa3cc-22129614] found.
Track [ CRC | V2 ] Status
01 [68e1d056|9cc24a48] (2+2/4) Accurately ripped
02 [46c376bb|2501db08] (2+2/4) Accurately ripped
03 [9ce5d26e|2df61e44] (2+2/4) Accurately ripped
04 [177cc36a|c4bf21fd] (2+2/4) Accurately ripped
05 [b4b847db|48f2306b] (2+2/4) Accurately ripped
06 [da5e3e53|d290d666] (2+2/4) Accurately ripped
07 [6a8ee262|dd2f8750] (2+2/4) Accurately ripped
08 [2c5ce7a8|7f231122] (2+2/4) Accurately ripped
09 [e8250ef7|c9af2013] (2+2/4) Accurately ripped
10 [988d7be2|54d20558] (2+2/4) Accurately ripped
11 [e4e8906d|0e22d154] (2+2/4) Accurately ripped
12 [c970e14d|de9a19b3] (2+2/4) Accurately ripped
13 [97d86e03|dc9fdbe0] (2+2/4) Accurately ripped
14 [58df0675|48186606] (2+2/4) Accurately ripped
15 [ae11a436|1a584867] (2+2/4) Accurately ripped
16 [fc34eb90|3ef62359] (2+2/4) Accurately ripped
17 [9d29f731|d7b2e5a2] (2+2/4) Accurately ripped
18 [a3b9cf13|811b4735] (2+2/4) Accurately ripped
19 [cd74aa92|8cc52cfe] (2+2/4) Accurately ripped
20 [97814dec|d7b29e67] (2+2/4) Accurately ripped

Track Peak [ CRC32 ] [W/O NULL] [ LOG ]
– 97,7 [32FF1C87] [E7C65C66]
01 97,7 [DAD3503C] [72E68077] CRC32
02 93,4 [E6C7232A] [C5C41E3C] CRC32
03 88,8 [49726397] [7A198999] CRC32
04 74,5 [6C790B62] [5EF977B6] CRC32
05 91,1 [DAB85D89] [13795D33] CRC32
06 79,6 [74805241] [407B76F3] CRC32
07 96,8 [76FEF71D] [3F8F0F8A] CRC32
08 83,2 [83302588] [4D4E14A0] CRC32
09 97,6 [9C608538] [E52A0D11] CRC32
10 97,7 [1E48E8CF] [55756CD2] CRC32
11 97,7 [CD4786AD] [2FE0F234] CRC32
12 82,1 [BE8CF6FF] [11DC98C2] CRC32
13 93,4 [6166E841] [6EA98165] CRC32
14 85,1 [CB0F5A2D] [64D4DE01] CRC32
15 84,3 [A298CBB1] [5D36C8C2] CRC32
16 97,7 [09B20EDF] [6C3F3317] CRC32
17 79,0 [EF43A86F] [20CC58B9] CRC32
18 92,4 [7B8E08A0] [0D615D52] CRC32
19 97,7 [31742D13] [A8A0C6E6] CRC32
20 79,3 [F938A0A7] [E1BF6D4C] CRC32


VA - The Best Of Lounge Music (2011)[6xCD, Compilation]

Tracklist CD5 - Chill Out Sensation:

01. Cassius - The Sound Of Violence (Franco Cinelli Remix) (4:10)
02. Paul Kalkbrenner - Platscher (4:12)
03. Shantel - Elle Est Immortelle (3:38)
04. Kid Loco - She's My Lover (Song For R.) (3:56)
05. Thievery Corporation - It Takes A Thief (3:58)
06. Darondo - Didn't I (3:27)
07. Kylie Audist - Ship Inside A Bottle (4:16)
08. Greyboy Feat. Sharon Jones - Go To Be A Love (Paul Nice Remix) (3:49)
09. Belleruche - Northern Girls (DJ Vadim Mix) (3:58)
10. Elsa Hedberg - Open The Door (3:37)
11. Lizzy Parks - All That (Natural Self Remix) (3:46)
12. Tek 9 - We're Getting Down (4:06)
13. Kid Loco - Relaxin' With Cherry (4:06)
14. The Quantic Soul Orchestra Feat. Alice Russell - Take Your Time, Change You Mind (4:04)
15. Suba Feat. Cibelle - Felicidade (4:20)
16. Jazzanova - Bohemian Sunset (4:00)
17. Metropolitan Jazz Affair - Escapism (4:02)
18. Mr Scruff - Kalimba (3:43)
19. Vikter Duplaix - Sensuality (3:32)
20. Better Daze - Golden Brown (4:31)

Converted to Image (CUETools 2.1.4)

Exact Audio Copy V1.0 beta 1 from 15. November 2010

EAC extraction logfile from 5. April 2012, 10:06

Various / CD5 - Chill Out Sensation

Used drive : ASUS DRW-24B3ST Adapter: 3 ID: 0

Read mode : Secure
Utilize accurate stream : Yes
Defeat audio cache : Yes
Make use of C2 pointers : No

Read offset correction : 6
Overread into Lead-In and Lead-Out : No
Fill up missing offset samples with silence : Yes
Delete leading and trailing silent blocks : No
Null samples used in CRC calculations : Yes
Used interface : Native Win32 interface for Win NT & 2000
Gap handling : Appended to previous track

Used output format : User Defined Encoder
Selected bitrate : 1024 kBit/s
Quality : High
Add ID3 tag : No
Command line compressor : C:\Program Files\Exact Audio Copy\Flac\flac.exe
Additional command line options : -8 -V -T "ARTIST=%a" -T "TITLE=%t" -T "ALBUM=%g" -T "DATE=%y" -T "TRACKNUMBER=%n" -T "GENRE=%m" -T "COMMENT=ripped by Oleandris" %s


TOC of the extracted CD

Track | Start | Length | Start sector | End sector
––––––––––––––––––––––––––––-
1 | 0:00.00 | 4:09.40 | 0 | 18714
2 | 4:09.40 | 4:11.38 | 18715 | 37577
3 | 8:21.03 | 3:38.29 | 37578 | 53956
4 | 11:59.32 | 3:55.64 | 53957 | 71645
5 | 15:55.21 | 3:58.00 | 71646 | 89495
6 | 19:53.21 | 3:27.27 | 89496 | 105047
7 | 23:20.48 | 4:16.21 | 105048 | 124268
8 | 27:36.69 | 3:48.66 | 124269 | 141434
9 | 31:25.60 | 3:57.72 | 141435 | 159281
10 | 35:23.57 | 3:36.67 | 159282 | 175548
11 | 39:00.49 | 3:45.50 | 175549 | 192473
12 | 42:46.24 | 4:06.18 | 192474 | 210941
13 | 46:52.42 | 4:05.49 | 210942 | 229365
14 | 50:58.16 | 4:04.23 | 229366 | 247688
15 | 55:02.39 | 4:20.36 | 247689 | 267224
16 | 59:23.00 | 3:59.38 | 267225 | 285187
17 | 63:22.38 | 4:01.65 | 285188 | 303327
18 | 67:24.28 | 3:42.51 | 303328 | 320028
19 | 71:07.04 | 3:32.32 | 320029 | 335960
20 | 74:39.36 | 4:31.25 | 335961 | 356310


Track 1

Filename F:\ЗАГРУЗКИ\ The Best Of Lounge Music 6CD (2011)\CD5 - Chill Out Sensation\01. Cassius - The Sound Of Violence (Franco Cinelli Remix).wav

Pre-gap length 0:00:02.00

Peak level 83.1 %
Extraction speed 3.9 X
Track quality 100.0 %
Test CRC 931E3CB5
Copy CRC 931E3CB5
Track not present in AccurateRip database
Copy OK

Track 2

Filename F:\ЗАГРУЗКИ\ The Best Of Lounge Music 6CD (2011)\CD5 - Chill Out Sensation\02. Paul Kalkbrenner - Platscher.wav

Peak level 95.7 %
Extraction speed 4.3 X
Track quality 100.0 %
Test CRC 87822C0F
Copy CRC 87822C0F
Track not present in AccurateRip database
Copy OK

Track 3

Filename F:\ЗАГРУЗКИ\ The Best Of Lounge Music 6CD (2011)\CD5 - Chill Out Sensation\03. Shantel - Elle Est Immortelle.wav

Peak level 83.5 %
Extraction speed 4.5 X
Track quality 100.0 %
Test CRC 3DB79D2B
Copy CRC 3DB79D2B
Track not present in AccurateRip database
Copy OK

Track 4

Filename F:\ЗАГРУЗКИ\ The Best Of Lounge Music 6CD (2011)\CD5 - Chill Out Sensation\04. Kid Loco - She's My Lover (Song For R.).wav

Peak level 80.3 %
Extraction speed 4.9 X
Track quality 100.0 %
Test CRC 22B6B2BD
Copy CRC 22B6B2BD
Track not present in AccurateRip database
Copy OK

Track 5

Filename F:\ЗАГРУЗКИ\ The Best Of Lounge Music 6CD (2011)\CD5 - Chill Out Sensation\05. Thievery Corporation - It Takes A Thief.wav

Peak level 86.9 %
Extraction speed 5.1 X
Track quality 100.0 %
Test CRC 4941119B
Copy CRC 4941119B
Track not present in AccurateRip database
Copy OK

Track 6

Filename F:\ЗАГРУЗКИ\ The Best Of Lounge Music 6CD (2011)\CD5 - Chill Out Sensation\06. Darondo - Didn't I.wav

Peak level 97.7 %
Extraction speed 5.3 X
Track quality 100.0 %
Test CRC 72606FEB
Copy CRC 72606FEB
Track not present in AccurateRip database
Copy OK

Track 7

Filename F:\ЗАГРУЗКИ\ The Best Of Lounge Music 6CD (2011)\CD5 - Chill Out Sensation\07. Kylie Audist - Ship Inside A Bottle.wav

Peak level 97.7 %
Extraction speed 5.7 X
Track quality 100.0 %
Test CRC 328B83D7
Copy CRC 328B83D7
Track not present in AccurateRip database
Copy OK

Track 8

Filename F:\ЗАГРУЗКИ\ The Best Of Lounge Music 6CD (2011)\CD5 - Chill Out Sensation\08. Greyboy Feat. Sharon Jones - Go To Be A Love (Paul Nice Remix).wav

Peak level 97.7 %
Extraction speed 5.9 X
Track quality 100.0 %
Test CRC CDDA89AF
Copy CRC CDDA89AF
Track not present in AccurateRip database
Copy OK

Track 9

Filename F:\ЗАГРУЗКИ\ The Best Of Lounge Music 6CD (2011)\CD5 - Chill Out Sensation\09. Belleruche - Northern Girls (DJ Vadim Mix).wav

Peak level 97.7 %
Extraction speed 6.1 X
Track quality 100.0 %
Test CRC 629210E8
Copy CRC 629210E8
Track not present in AccurateRip database
Copy OK

Track 10

Filename F:\ЗАГРУЗКИ\ The Best Of Lounge Music 6CD (2011)\CD5 - Chill Out Sensation\10. Elsa Hedberg - Open The Door.wav

Peak level 67.7 %
Extraction speed 6.2 X
Track quality 100.0 %
Test CRC 487C7BBB
Copy CRC 487C7BBB
Track not present in AccurateRip database
Copy OK

Track 11

Filename F:\ЗАГРУЗКИ\ The Best Of Lounge Music 6CD (2011)\CD5 - Chill Out Sensation\11. Lizzy Parks - All That (Natural Self Remix).wav

Peak level 97.7 %
Extraction speed 6.5 X
Track quality 100.0 %
Test CRC 4DD9F394
Copy CRC 4DD9F394
Track not present in AccurateRip database
Copy OK

Track 12

Filename F:\ЗАГРУЗКИ\ The Best Of Lounge Music 6CD (2011)\CD5 - Chill Out Sensation\12. Tek 9 - We're Getting Down.wav

Peak level 87.4 %
Extraction speed 6.8 X
Track quality 100.0 %
Test CRC 5ECAE217
Copy CRC 5ECAE217
Track not present in AccurateRip database
Copy OK

Track 13

Filename F:\ЗАГРУЗКИ\ The Best Of Lounge Music 6CD (2011)\CD5 - Chill Out Sensation\13. Kid Loco - Relaxin' With Cherry.wav

Peak level 86.0 %
Extraction speed 7.0 X
Track quality 100.0 %
Test CRC 640F9C41
Copy CRC 640F9C41
Track not present in AccurateRip database
Copy OK

Track 14

Filename F:\ЗАГРУЗКИ\ The Best Of Lounge Music 6CD (2011)\CD5 - Chill Out Sensation\14. The Quantic Soul Orchestra Feat. Alice Russell - Take Your Time, Change You Mind.wav

Peak level 97.7 %
Extraction speed 7.2 X
Track quality 100.0 %
Test CRC 7A7C7740
Copy CRC 7A7C7740
Track not present in AccurateRip database
Copy OK

Track 15

Filename F:\ЗАГРУЗКИ\ The Best Of Lounge Music 6CD (2011)\CD5 - Chill Out Sensation\15. Suba Feat. Cibelle - Felicidade.wav

Peak level 77.6 %
Extraction speed 7.4 X
Track quality 100.0 %
Test CRC 6A1A8B75
Copy CRC 6A1A8B75
Track not present in AccurateRip database
Copy OK

Track 16

Filename F:\ЗАГРУЗКИ\ The Best Of Lounge Music 6CD (2011)\CD5 - Chill Out Sensation\16. Jazzanova - Bohemian Sunset.wav

Peak level 89.8 %
Extraction speed 7.6 X
Track quality 100.0 %
Test CRC B7C1C976
Copy CRC B7C1C976
Track not present in AccurateRip database
Copy OK

Track 17

Filename F:\ЗАГРУЗКИ\ The Best Of Lounge Music 6CD (2011)\CD5 - Chill Out Sensation\17. Metropolitan Jazz Affair - Escapism.wav

Peak level 97.7 %
Extraction speed 7.7 X
Track quality 100.0 %
Test CRC 2C0B8AC7
Copy CRC 2C0B8AC7
Track not present in AccurateRip database
Copy OK

Track 18

Filename F:\ЗАГРУЗКИ\ The Best Of Lounge Music 6CD (2011)\CD5 - Chill Out Sensation\18. Mr Scruff - Kalimba.wav

Peak level 97.7 %
Extraction speed 7.8 X
Track quality 100.0 %
Test CRC C9B353DD
Copy CRC C9B353DD
Track not present in AccurateRip database
Copy OK

Track 19

Filename F:\ЗАГРУЗКИ\ The Best Of Lounge Music 6CD (2011)\CD5 - Chill Out Sensation\19. Vikter Duplaix - Sensuality.wav

Peak level 89.9 %
Extraction speed 7.8 X
Track quality 100.0 %
Test CRC 9D0A926A
Copy CRC 9D0A926A
Track not present in AccurateRip database
Copy OK

Track 20

Filename F:\ЗАГРУЗКИ\ The Best Of Lounge Music 6CD (2011)\CD5 - Chill Out Sensation\20. Better Daze - Golden Brown.wav

Peak level 97.7 %
Extraction speed 6.7 X
Track quality 99.9 %
Test CRC 6652B1BD
Copy CRC 6652B1BD
Track not present in AccurateRip database
Copy OK


None of the tracks are present in the AccurateRip database

No errors occurred

End of status report

==== Log checksum C6A59C68397FBBC07E05F05DA8FFC9377C2A454799F0283785EA24CB58F87115 ====


[CUETools log; Date: 18.07.2018 11:40:58; Version: 2.1.5]
[AccurateRip ID: 0038d8b0-03419db0-17128e14] found.
Track [ CRC | V2 ] Status
01 [d7a785ee|75a18c2e] (2+0/2) Accurately ripped
02 [dc410765|5db8cf8d] (2+0/2) Accurately ripped
03 [4479790c|a788a27c] (2+0/2) Accurately ripped
04 [79c4f507|ab2738e2] (2+0/2) Accurately ripped
05 [b2129d73|d6b8fd62] (2+0/2) Accurately ripped
06 [e7a6a9fd|258bee1d] (2+0/2) Accurately ripped
07 [5e3cddf5|ff882713] (2+0/2) Accurately ripped
08 [ea09a838|7c1e0713] (2+0/2) Accurately ripped
09 [24b6aecf|8746f955] (2+0/2) Accurately ripped
10 [516c4649|5eadc5d7] (2+0/2) Accurately ripped
11 [540e9dbe|ae6745e6] (2+0/2) Accurately ripped
12 [e48c2e33|72b22e83] (2+0/2) Accurately ripped
13 [400d48ae|134cb18f] (2+0/2) Accurately ripped
14 [32ce0056|9a8c2124] (2+0/2) Accurately ripped
15 [07f5a23e|7708da9d] (2+0/2) Accurately ripped
16 [1d731ee4|68d94979] (2+0/2) Accurately ripped
17 [a91f5ede|e8e7cdce] (2+0/2) Accurately ripped
18 [8bab71c3|56c024e3] (2+0/2) Accurately ripped
19 [8f3f91c3|74808cf4] (2+0/2) Accurately ripped
20 [0723de45|04cf8e4b] (2+0/2) Accurately ripped

Track Peak [ CRC32 ] [W/O NULL] [ LOG ]
– 97,7 [8C8B1606] [CC6AAC38]
01 83,1 [931E3CB5] [C21BA1C6] CRC32
02 95,7 [87822C0F] [1E557771] CRC32
03 83,5 [3DB79D2B] [B8400BF9] CRC32
04 80,3 [22B6B2BD] [EF984520] CRC32
05 86,9 [4941119B] [AAC7C2FD] CRC32
06 97,7 [72606FEB] [9204C1B4] CRC32
07 97,7 [328B83D7] [7BFD72D2] CRC32
08 97,7 [CDDA89AF] [F650460F] CRC32
09 97,7 [629210E8] [D79A2182] CRC32
10 67,7 [487C7BBB] [5D785A18] CRC32
11 97,7 [4DD9F394] [15E9CB80] CRC32
12 87,4 [5ECAE217] [65EC3F36] CRC32
13 86,0 [640F9C41] [A2C7AF77] CRC32
14 97,7 [7A7C7740] [3AD04C80] CRC32
15 77,6 [6A1A8B75] [7199FDB7] CRC32
16 89,8 [B7C1C976] [BB7060F5] CRC32
17 97,7 [2C0B8AC7] [45238244] CRC32
18 97,7 [C9B353DD] [4F727A1A] CRC32
19 89,9 [9D0A926A] [85E0B054] CRC32
20 97,7 [6652B1BD] [E2CBE7F3] CRC32


VA - The Best Of Lounge Music (2011)[6xCD, Compilation]

Tracklist CD6 - Selected By Afterlife:

01. Afterlife - Dub In Ya Mind (Blue Water Mix) (4:11)
02. Bob Marley - Try Me (Chill Mix) (3:32)
03. Chris Coco - Summer Sun (3:51)
04. The Normalites - Pink Skyscraper (3:39)
05. Afterlife Feat. Calladine - Clear Blue Sky (3:46)
06. Therese - Shed My Skin (Out Of Sight Chill Mix) (4:41)
07. Frontera - Walking In The Rain (4:04)
08. Bliss - Long Life (Christopher Goze Remix) (3:31)
09. 100 Billion Stars - Lux (4:02)
10. Afro Medusa - Pasilda (Afterlife Mix) (3:43)
11. Chris Coco - Elton Dub (4:03)
12. Out Of Sight - Comfort (Afterlife Mix) (4:06)
13. Hampton Island Feat. Airi L - When Love Takes Over (3:14)
14. Billy Holiday - My Man (Remix) (3:53)
15. The Normalites - Rest (4:00)
16. City Reverb - Roll On (4:01)
17. The Normalites - Street Croner Classics ( Boozoo Bajou) (3:34)
18. Fish Tank - The Eighty Eight (3:43)
19. Chris Coco - Acoustic Holiday (4:16)
20. Afterlife Feat. Neue - Miracle (5:38)[/pre]

Converted to Image (CUETools 2.1.4)

Exact Audio Copy V1.0 beta 1 from 15. November 2010

EAC extraction logfile from 5. April 2012, 14:06

Various / CD6 - Selected By Afterlife

Used drive : PLEXTOR DVDR PX-L890SA Adapter: 5 ID: 0

Read mode : Secure
Utilize accurate stream : Yes
Defeat audio cache : Yes
Make use of C2 pointers : No

Read offset correction : 6
Overread into Lead-In and Lead-Out : No
Fill up missing offset samples with silence : Yes
Delete leading and trailing silent blocks : No
Null samples used in CRC calculations : Yes
Used interface : Native Win32 interface for Win NT & 2000
Gap handling : Appended to previous track

Used output format : User Defined Encoder
Selected bitrate : 1024 kBit/s
Quality : High
Add ID3 tag : No
Command line compressor : C:\Program Files\Exact Audio Copy\Flac\flac.exe
Additional command line options : -8 -V -T "ARTIST=%a" -T "TITLE=%t" -T "ALBUM=%g" -T "DATE=%y" -T "TRACKNUMBER=%n" -T "GENRE=%m" -T "COMMENT=ripped by Oleandris" %s


TOC of the extracted CD

Track | Start | Length | Start sector | End sector
––––––––––––––––––––––––––––-
1 | 0:00.00 | 4:11.18 | 0 | 18842
2 | 4:11.18 | 3:32.01 | 18843 | 34743
3 | 7:43.19 | 3:50.39 | 34744 | 52032
4 | 11:33.58 | 3:38.43 | 52033 | 68425
5 | 15:12.26 | 3:46.15 | 68426 | 85390
6 | 18:58.41 | 4:41.23 | 85391 | 106488
7 | 23:39.64 | 4:03.39 | 106489 | 124752
8 | 27:43.28 | 3:30.66 | 124753 | 140568
9 | 31:14.19 | 4:01.74 | 140569 | 158717
10 | 35:16.18 | 3:42.50 | 158718 | 175417
11 | 38:58.68 | 4:03.33 | 175418 | 193675
12 | 43:02.26 | 4:06.29 | 193676 | 212154
13 | 47:08.55 | 3:14.19 | 212155 | 226723
14 | 50:22.74 | 3:52.42 | 226724 | 244165
15 | 54:15.41 | 4:00.24 | 244166 | 262189
16 | 58:15.65 | 4:01.34 | 262190 | 280298
17 | 62:17.24 | 3:34.22 | 280299 | 296370
18 | 65:51.46 | 3:43.31 | 296371 | 313126
19 | 69:35.02 | 4:16.00 | 313127 | 332326
20 | 73:51.02 | 5:38.05 | 332327 | 357681


Track 1

Filename F:\ЗАГРУЗКИ\ The Best Of Lounge Music 6CD (2011)\CD6 - Selected By Afterlife\01. Afterlife - Dub In Ya Mind (Blue Water Mix).wav

Pre-gap length 0:00:02.00

Peak level 94.6 %
Extraction speed 3.9 X
Track quality 100.0 %
Test CRC 78A6D38F
Copy CRC 78A6D38F
Track not present in AccurateRip database
Copy OK

Track 2

Filename F:\ЗАГРУЗКИ\ The Best Of Lounge Music 6CD (2011)\CD6 - Selected By Afterlife\02. Bob Marley - Try Me (Chill Mix).wav

Peak level 72.0 %
Extraction speed 4.2 X
Track quality 100.0 %
Test CRC 40DE2A68
Copy CRC 40DE2A68
Track not present in AccurateRip database
Copy OK

Track 3

Filename F:\ЗАГРУЗКИ\ The Best Of Lounge Music 6CD (2011)\CD6 - Selected By Afterlife\03. Chris Coco - Summer Sun.wav

Peak level 79.5 %
Extraction speed 4.6 X
Track quality 100.0 %
Test CRC 4540B131
Copy CRC 4540B131
Track not present in AccurateRip database
Copy OK

Track 4

Filename F:\ЗАГРУЗКИ\ The Best Of Lounge Music 6CD (2011)\CD6 - Selected By Afterlife\04. The Normalites - Pink Skyscraper.wav

Peak level 60.8 %
Extraction speed 4.8 X
Track quality 100.0 %
Test CRC 8CF74554
Copy CRC 8CF74554
Track not present in AccurateRip database
Copy OK

Track 5

Filename F:\ЗАГРУЗКИ\ The Best Of Lounge Music 6CD (2011)\CD6 - Selected By Afterlife\05. Afterlife Feat. Calladine - Clear Blue Sky.wav

Peak level 97.7 %
Extraction speed 5.1 X
Track quality 100.0 %
Test CRC BD4EE498
Copy CRC BD4EE498
Track not present in AccurateRip database
Copy OK

Track 6

Filename F:\ЗАГРУЗКИ\ The Best Of Lounge Music 6CD (2011)\CD6 - Selected By Afterlife\06. Therese - Shed My Skin (Out Of Sight Chill Mix).wav

Peak level 68.4 %
Extraction speed 5.5 X
Track quality 100.0 %
Test CRC 4494ED82
Copy CRC 4494ED82
Track not present in AccurateRip database
Copy OK

Track 7

Filename F:\ЗАГРУЗКИ\ The Best Of Lounge Music 6CD (2011)\CD6 - Selected By Afterlife\07. Frontera - Walking In The Rain.wav

Peak level 90.7 %
Extraction speed 5.7 X
Track quality 100.0 %
Test CRC 750CD6C9
Copy CRC 750CD6C9
Track not present in AccurateRip database
Copy OK

Track 8

Filename F:\ЗАГРУЗКИ\ The Best Of Lounge Music 6CD (2011)\CD6 - Selected By Afterlife\08. Bliss - Long Life (Christopher Goze Remix).wav

Peak level 86.8 %
Extraction speed 5.8 X
Track quality 100.0 %
Test CRC 4DDEB815
Copy CRC 4DDEB815
Track not present in AccurateRip database
Copy OK

Track 9

Filename F:\ЗАГРУЗКИ\ The Best Of Lounge Music 6CD (2011)\CD6 - Selected By Afterlife\09. 100 Billion Stars - Lux.wav

Peak level 79.5 %
Extraction speed 6.2 X
Track quality 100.0 %
Test CRC 4B991618
Copy CRC 4B991618
Track not present in AccurateRip database
Copy OK

Track 10

Filename F:\ЗАГРУЗКИ\ The Best Of Lounge Music 6CD (2011)\CD6 - Selected By Afterlife\10. Afro Medusa - Pasilda (Afterlife Mix).wav

Peak level 97.7 %
Extraction speed 6.3 X
Track quality 100.0 %
Test CRC B3DCDD99
Copy CRC B3DCDD99
Track not present in AccurateRip database
Copy OK

Track 11

Filename F:\ЗАГРУЗКИ\ The Best Of Lounge Music 6CD (2011)\CD6 - Selected By Afterlife\11. Chris Coco - Elton Dub.wav

Peak level 97.7 %
Extraction speed 6.6 X
Track quality 100.0 %
Test CRC D8F3ED6D
Copy CRC D8F3ED6D
Track not present in AccurateRip database
Copy OK

Track 12

Filename F:\ЗАГРУЗКИ\ The Best Of Lounge Music 6CD (2011)\CD6 - Selected By Afterlife\12. Out Of Sight - Comfort (Afterlife Mix).wav

Peak level 94.2 %
Extraction speed 5.4 X
Track quality 99.9 %
Test CRC 67114389
Copy CRC 67114389
Track not present in AccurateRip database
Copy OK

Track 13

Filename F:\ЗАГРУЗКИ\ The Best Of Lounge Music 6CD (2011)\CD6 - Selected By Afterlife\13. Hampton Island Feat. Airi L - When Love Takes Over.wav

Peak level 97.5 %
Extraction speed 5.2 X
Track quality 99.9 %
Test CRC 46BEAA9C
Copy CRC 46BEAA9C
Track not present in AccurateRip database
Copy OK

Track 14

Filename F:\ЗАГРУЗКИ\ The Best Of Lounge Music 6CD (2011)\CD6 - Selected By Afterlife\14. Billy Holiday - My Man (Remix).wav

Peak level 83.4 %
Extraction speed 7.1 X
Track quality 100.0 %
Test CRC 76A3D4D1
Copy CRC 76A3D4D1
Track not present in AccurateRip database
Copy OK

Track 15

Filename F:\ЗАГРУЗКИ\ The Best Of Lounge Music 6CD (2011)\CD6 - Selected By Afterlife\15. The Normalites - Rest.wav

Peak level 88.6 %
Extraction speed 7.3 X
Track quality 100.0 %
Test CRC ED42EAE7
Copy CRC ED42EAE7
Track not present in AccurateRip database
Copy OK

Track 16

Filename F:\ЗАГРУЗКИ\ The Best Of Lounge Music 6CD (2011)\CD6 - Selected By Afterlife\16. City Reverb - Roll On.wav

Peak level 97.7 %
Extraction speed 7.6 X
Track quality 100.0 %
Test CRC C985E7CE
Copy CRC C985E7CE
Track not present in AccurateRip database
Copy OK

Track 17

Filename F:\ЗАГРУЗКИ\ The Best Of Lounge Music 6CD (2011)\CD6 - Selected By Afterlife\17. The Normalites - Street Croner Classics ( Boozoo Bajou).wav

Peak level 90.6 %
Extraction speed 7.5 X
Track quality 100.0 %
Test CRC 17386C8F
Copy CRC 17386C8F
Track not present in AccurateRip database
Copy OK

Track 18

Filename F:\ЗАГРУЗКИ\ The Best Of Lounge Music 6CD (2011)\CD6 - Selected By Afterlife\18. Fish Tank - The Eighty Eight.wav

Peak level 84.6 %
Extraction speed 7.9 X
Track quality 100.0 %
Test CRC 3E3C9D30
Copy CRC 3E3C9D30
Track not present in AccurateRip database
Copy OK

Track 19

Filename F:\ЗАГРУЗКИ\ The Best Of Lounge Music 6CD (2011)\CD6 - Selected By Afterlife\19. Chris Coco - Acoustic Holiday.wav

Peak level 91.7 %
Extraction speed 6.4 X
Track quality 99.9 %
Test CRC CED8B739
Copy CRC CED8B739
Track not present in AccurateRip database
Copy OK

Track 20

Filename F:\ЗАГРУЗКИ\ The Best Of Lounge Music 6CD (2011)\CD6 - Selected By Afterlife\20. Afterlife Feat. Neue - Miracle.wav

Peak level 95.1 %
Extraction speed 7.1 X
Track quality 99.9 %
Test CRC 44323810
Copy CRC 44323810
Track not present in AccurateRip database
Copy OK


None of the tracks are present in the AccurateRip database

No errors occurred

End of status report

==== Log checksum C0D567549B3AFADBB0ECE1CFFAB21E8D4B543F6674BE7D340E5A64FCE167A62E ====


[CUETools log; Date: 18.07.2018 11:51:16; Version: 2.1.5]
[AccurateRip ID: 00383705-0338bf8e-2512a114] found.
Track [ CRC | V2 ] Status
01 [f509ae52|e832fa95] (1+1/2) Accurately ripped
02 [be05cc6b|53cc78a6] (1+1/2) Accurately ripped
03 [e4d72f06|54bb0136] (1+1/2) Accurately ripped
04 [4745f30e|faae2379] (1+1/2) Accurately ripped
05 [ed30cdb9|9ebc77c0] (1+1/2) Accurately ripped
06 [774c866a|98648f81] (1+1/2) Accurately ripped
07 [8d84d81b|ee71b505] (1+1/2) Accurately ripped
08 [d8ea46de|0196d46e] (1+1/2) Accurately ripped
09 [5279d422|9eaa4794] (1+1/2) Accurately ripped
10 [b344d223|14a284c6] (1+1/2) Accurately ripped
11 [ec805cd7|4846ef02] (1+1/2) Accurately ripped
12 [a5ed8ea8|739c6c23] (1+1/2) Accurately ripped
13 [3682727a|ba740108] (1+1/2) Accurately ripped
14 [af4f2678|45beb30f] (1+1/2) Accurately ripped
15 [c57e91dd|8b10277e] (1+1/2) Accurately ripped
16 [19cd143a|5a649bd2] (1+1/2) Accurately ripped
17 [cd510ee7|89a164fd] (1+1/2) Accurately ripped
18 [dc14ea84|89c6f71f] (1+1/2) Accurately ripped
19 [a78cc212|af859fc1] (1+1/2) Accurately ripped
20 [1eb60b57|f2a8a4ad] (1+1/2) Accurately ripped

Track Peak [ CRC32 ] [W/O NULL] [ LOG ]
– 97,7 [3ABF594C] [77F4B97D]
01 94,6 [78A6D38F] [810574C1] CRC32
02 72,0 [40DE2A68] [64055720] CRC32
03 79,5 [4540B131] [FBD41B24] CRC32
04 60,8 [8CF74554] [F4B554C8] CRC32
05 97,7 [BD4EE498] [7D06EA2E] CRC32
06 68,4 [4494ED82] [10CE762A] CRC32
07 90,7 [750CD6C9] [D8AB8FE9] CRC32
08 86,8 [4DDEB815] [DC2372B1] CRC32
09 79,5 [4B991618] [FEAF5047] CRC32
10 97,7 [B3DCDD99] [196BB576] CRC32
11 97,7 [D8F3ED6D] [31F3AA8C] CRC32
12 94,2 [67114389] [178362E8] CRC32
13 97,5 [46BEAA9C] [E52970AA] CRC32
14 83,4 [76A3D4D1] [B542570B] CRC32
15 88,6 [ED42EAE7] [069573F1] CRC32
16 97,7 [C985E7CE] [7052ECFE] CRC32
17 90,6 [17386C8F] [7385A300] CRC32
18 84,6 [3E3C9D30] [5B884E9B] CRC32
19 91,7 [CED8B739] [CD3B6114] CRC32
20 95,1 [44323810] [EFF9C190] CRC32


VA - The Best Of Lounge Music (2011)[6xCD, Compilation]

All thanks go to the original releaser

Lounge or Lounge in my Blog

Download VA - The Best Of Lounge Music (2011):