The Blues Band - Rock Goes To College (1980) [2015, Repertoire Records, REPUK 1238]

Posted By: v3122
The Blues Band - Rock Goes To College (1980) [2015, Repertoire Records, REPUK 1238]

The Blues Band - Rock Goes To College (1980)
EAC | Flac(Image) + Cue + Log & MP3 CBR 320Kbps
Repertoire Records, REPUK 1238 | ~ 319 or 122 Mb | Scans Included
Modern Electric Blues / Blues Rock

~ Keele University Staffordshire, United Kingdom 22nd May, 1980 ~

The Blues Band - Rock Goes To College (1980) [2015, Repertoire Records, REPUK 1238]


The Blues Band - Rock Goes To College (1980):

The Blues Band - Rock Goes To College (1980) [2015, Repertoire Records, REPUK 1238]

Tracklist:

01. Come On In 02:35
02. Talk to Me Baby 04:33
03. Death Letter 03:39
04. Going Home 04:34
05. I Can't Hold On Much Longer 05:31
06. Someday Baby 04:56
07. Boom Boom (Out Go the Lights) 04:16
08. Nadine 03:48
09. I Don't Know 04:55
10. Diddy Wah Diddy 04:01

Musicians:

Paul Jones - Vocals & Harmonica
Dave Kelly - Guitar & Vocals
Tom McGuiness - Guitar & Backing Vocals
Gary Fletcher - Bass & Backing Vocals
Hughie Flint - Drums


Exact Audio Copy V1.0 beta 4 from 7. December 2014

EAC extraction logfile from 11. April 2015, 18:21

The Blues Band / Rock Goes To College

Used drive : SONY CD-RW CRX210E1 Adapter: 1 ID: 1

Read mode : Secure
Utilize accurate stream : Yes
Defeat audio cache : Yes
Make use of C2 pointers : No

Read offset correction : 6
Overread into Lead-In and Lead-Out : No
Fill up missing offset samples with silence : Yes
Delete leading and trailing silent blocks : No
Null samples used in CRC calculations : Yes
Used interface : Native Win32 interface for Win NT & 2000
Gap handling : Appended to previous track

Used output format : User Defined Encoder
Selected bitrate : 896 kBit/s
Quality : High
Add ID3 tag : No
Command line compressor : C:\Program Files\Exact Audio Copy\Flac\flac.exe
Additional command line options : -8 -V -T "ARTIST=%artist%" -T "TITLE=%title%" -T "ALBUM=%albumtitle%" -T "DATE=%year%" -T "TRACKNUMBER=%tracknr%" -T "TOTALTRACKS=%numtracks%" -T "GENRE=%genre%" -T "ALBUMARTIST=%albumartist%" -T "ALBUM ARTIST=%albumartist%" -T "COMMENT=EAC Secure Mode, Test & Copy, AccurateRip, FLAC -8" %source%


TOC of the extracted CD

Track | Start | Length | Start sector | End sector
––––––––––––––––––––––––––––-
1 | 0:00.00 | 2:34.65 | 0 | 11614
2 | 2:34.65 | 4:32.65 | 11615 | 32079
3 | 7:07.55 | 3:39.30 | 32080 | 48534
4 | 10:47.10 | 4:33.63 | 48535 | 69072
5 | 15:20.73 | 5:31.06 | 69073 | 93903
6 | 20:52.04 | 4:56.31 | 93904 | 116134
7 | 25:48.35 | 4:15.54 | 116135 | 135313
8 | 30:04.14 | 3:48.22 | 135314 | 152435
9 | 33:52.36 | 4:55.09 | 152436 | 174569
10 | 38:47.45 | 4:00.64 | 174570 | 192633


Track 1

Filename E:\The Blues Band - Rock Goes to College (1980) [FLAC] {BBC - 2015 release}\01 - Come On In.wav

Pre-gap length 0:00:02.00

Peak level 99.8 %
Extraction speed 3.2 X
Track quality 100.0 %
Test CRC 4C265A07
Copy CRC 4C265A07
Track not present in AccurateRip database
Copy OK

Track 2

Filename E:\The Blues Band - Rock Goes to College (1980) [FLAC] {BBC - 2015 release}\02 - Talk To Me Baby.wav

Peak level 99.8 %
Extraction speed 3.4 X
Track quality 99.9 %
Test CRC 3AABC44E
Copy CRC 3AABC44E
Track not present in AccurateRip database
Copy OK

Track 3

Filename E:\The Blues Band - Rock Goes to College (1980) [FLAC] {BBC - 2015 release}\03 - Death Letter.wav

Peak level 99.8 %
Extraction speed 3.5 X
Track quality 100.0 %
Test CRC 51E94D79
Copy CRC 51E94D79
Track not present in AccurateRip database
Copy OK

Track 4

Filename E:\The Blues Band - Rock Goes to College (1980) [FLAC] {BBC - 2015 release}\04 - Going Home.wav

Peak level 99.8 %
Extraction speed 3.5 X
Track quality 100.0 %
Test CRC C033F62F
Copy CRC C033F62F
Track not present in AccurateRip database
Copy OK

Track 5

Filename E:\The Blues Band - Rock Goes to College (1980) [FLAC] {BBC - 2015 release}\05 - I Can't Hold On Much Longer.wav

Peak level 99.8 %
Extraction speed 3.5 X
Track quality 100.0 %
Test CRC E8527260
Copy CRC E8527260
Track not present in AccurateRip database
Copy OK

Track 6

Filename E:\The Blues Band - Rock Goes to College (1980) [FLAC] {BBC - 2015 release}\06 - Someday Baby.wav

Peak level 99.8 %
Extraction speed 3.6 X
Track quality 100.0 %
Test CRC AFF18C1C
Copy CRC AFF18C1C
Track not present in AccurateRip database
Copy OK

Track 7

Filename E:\The Blues Band - Rock Goes to College (1980) [FLAC] {BBC - 2015 release}\07 - Boom Boom (Out Go The Lights).wav

Peak level 99.8 %
Extraction speed 3.5 X
Track quality 100.0 %
Test CRC B2DA49DE
Copy CRC B2DA49DE
Track not present in AccurateRip database
Copy OK

Track 8

Filename E:\The Blues Band - Rock Goes to College (1980) [FLAC] {BBC - 2015 release}\08 - Nadine.wav

Peak level 99.8 %
Extraction speed 3.5 X
Track quality 100.0 %
Test CRC FE7D70CD
Copy CRC FE7D70CD
Track not present in AccurateRip database
Copy OK

Track 9

Filename E:\The Blues Band - Rock Goes to College (1980) [FLAC] {BBC - 2015 release}\09 - I Don't Know.wav

Peak level 99.8 %
Extraction speed 3.7 X
Track quality 99.9 %
Test CRC BD056CE7
Copy CRC BD056CE7
Track not present in AccurateRip database
Copy OK

Track 10

Filename E:\The Blues Band - Rock Goes to College (1980) [FLAC] {BBC - 2015 release}\10 - Diddy Wah Diddy.wav

Peak level 99.8 %
Extraction speed 4.0 X
Track quality 100.0 %
Test CRC 0F20E2DD
Copy CRC 0F20E2DD
Track not present in AccurateRip database
Copy OK


None of the tracks are present in the AccurateRip database

No errors occurred

End of status report

–– CUETools DB Plugin V2.1.4

[CTDB TOCID: XLi7H5_wCB0BDrYDNZspcJQKv6U-] disk not present in database
Submit result: XLi7H5_wCB0BDrYDNZspcJQKv6U- has been uploaded


==== Log checksum B04B6796D1B5168D7A77CC1C551A526E244A2546590200056E86919FF8947DE1 ====

foobar2000 1.2.9 / Dynamic Range Meter 1.1.1
log date: 2015-08-20 11:43:26

––––––––––––––––––––––––––––––––––––––––
Analyzed: The Blues Band / Rock Goes To College
––––––––––––––––––––––––––––––––––––––––

DR Peak RMS Duration Track
––––––––––––––––––––––––––––––––––––––––
DR8 -0.01 dB -10.00 dB 2:35 01-Come On In
DR8 -0.01 dB -9.23 dB 4:33 02-Talk To Me Baby
DR8 -0.01 dB -9.47 dB 3:39 03-Death Letter
DR8 -0.01 dB -9.57 dB 4:34 04-Going Home
DR9 -0.01 dB -10.63 dB 5:31 05-I Can't Hold On Much Longer
DR8 -0.01 dB -10.40 dB 4:56 06-Someday Baby
DR9 -0.01 dB -10.64 dB 4:16 07-Boom Boom (Out Go The Lights)
DR9 -0.01 dB -10.69 dB 3:48 08-Nadine
DR9 -0.01 dB -11.87 dB 4:55 09-I Don't Know
DR9 -0.01 dB -9.92 dB 4:01 10-Diddy Wah Diddy
––––––––––––––––––––––––––––––––––––––––

Number of tracks: 10
Official DR value: DR9

Samplerate: 44100 Hz
Channels: 2
Bits per sample: 16
Bitrate: 946 kbps
Codec: FLAC

[CUETools log; Date: 21.08.2015 21:37:43; Version: 2.1.4]
[CTDB TOCID: XLi7H5_wCB0BDrYDNZspcJQKv6U-] found.
Track | CTDB Status
1 | (2/2) Accurately ripped
2 | (2/2) Accurately ripped
3 | (2/2) Accurately ripped
4 | (2/2) Accurately ripped
5 | (2/2) Accurately ripped
6 | (2/2) Accurately ripped
7 | (2/2) Accurately ripped
8 | (2/2) Accurately ripped
9 | (2/2) Accurately ripped
10 | (2/2) Accurately ripped
[AccurateRip ID: 000fa8f8-007f7a97-7c0a080a] disk not present in database.

Track Peak [ CRC32 ] [W/O NULL] [ LOG ]
– 99,8 [76BA7C82] [E6EB4C6C]
01 99,8 [4C265A07] [A3C10B8C] CRC32
02 99,8 [3AABC44E] [29BDE5F5] CRC32
03 99,8 [51E94D79] [ECA6FADC] CRC32
04 99,8 [C033F62F] [0F9C202A] CRC32
05 99,8 [E8527260] [AE99E568] CRC32
06 99,8 [AFF18C1C] [910766D9] CRC32
07 99,8 [B2DA49DE] [017108A7] CRC32
08 99,8 [FE7D70CD] [41D8F44D] CRC32
09 99,8 [BD056CE7] [A288FEE6] CRC32
10 99,8 [0F20E2DD] [72A5B8D5] CRC32

The Blues Band - Rock Goes To College (1980) [2015, Repertoire Records, REPUK 1238]

All thanks go to xkm

The Blues Band in my Blog

Download The Blues Band - Rock Goes To College (1980):