The Cal Tjader Quintet - Latin + Jazz = Cal Tjader (2002) {Hybrid SACD, Audio Fidelity AFZ 004}

Posted By: popsakov
The Cal Tjader Quintet - Latin + Jazz = Cal Tjader (2002) {Hybrid SACD, Audio Fidelity AFZ 004}

The Cal Tjader Quintet - Latin + Jazz = Cal Tjader (2002) {Hybrid SACD, Audio Fidelity AFZ 004}
EAC Rip | WV (Img) + Cue + Log ~ 311 Mb | MP3 CBR320 ~ 132 Mb
Scans Included (JPG, 600 dpi) | RAR 5% Recovery
Bossa Nova, Latin Jazz | © 2002 Audio Fidelity #AFZ 004
Mastered for this CD by Steve Hoffman

Vibraphonist Cal Tjader is in typically fine form on this live set from 1968. His quintet at the time featured Armand Perazza on congas and pianist Joe Kloess and his repertoire ranged from Afro-Cuban jazz to occasional straightahead tunes. Six of the eight selections on this date are originals by band members or Gary McFarland. Although Tjader had been playing this style of music for 15 years by this time, he still was quite creative and enthusiastic, and is heard throughout in excellent form.
~ Scott Yanow, All Music

***************

The Cal Tjader Quintet - Latin + Jazz = Cal Tjader (2002) {Hybrid SACD, Audio Fidelity AFZ 004}

Track List:

01. Armando's Quajira [7:36]
02. Armando's Bossa [5:53]
03. Why Did I Choose You [3:14]
04. Milo's Other Samba [5:43]
05. Song for Pat [5:19]
06. The Touch [6:01]
07. Colorado Waltz [6:13]
08. Nica's Dream [5:03]

Personnel:
Bass – Paul Warburton
Congas – Armando Perazza
Drums – Mike Buono
Piano – Joe Kloess
Vibraphone [Vibes] – Cal Tjader

EAC extraction logfile from 1. March 2009, 12:06 for CD
Cal Tjader Quintet, Armando Perazza / Latin + Jazz = Cal Tjader (Sacd)

Used drive : ASUS DRW-1814BL Adapter: 4 ID: 0
Read mode : Secure with NO C2, accurate stream, disable cache
Read offset correction : 6
Overread into Lead-In and Lead-Out : No

Used output format : Internal WAV Routines
44.100 Hz; 16 Bit; Stereo

Other options :
Fill up missing offset samples with silence : Yes
Delete leading and trailing silent blocks : No
Installed external ASPI interface


Range status and errors
Selected range
Filename C:\Documents and Settings\Master\Desktop\Для работы с музыкой\Новая папка\Cal Tjader Quintet, Armando Perazza - Latin + Jazz = Cal Tjader (Sacd).wav

Peak level 98.7 %
Range quality 100.0 %
CRC 7E67F48E
Copy OK

No errors occured

End of status report

foobar2000 1.2.6 / Dynamic Range Meter 1.1.1
log date: 2017-01-10 22:25:34

––––––––––––––––––––––––––––––––––––––––
Analyzed: Cal Tjader Quintet, Armando Perazza / Latin + Jazz = Cal Tjader (Sacd)
––––––––––––––––––––––––––––––––––––––––

DR Peak RMS Duration Track
––––––––––––––––––––––––––––––––––––––––
DR14 -0.11 dB -16.66 dB 7:36 01-Armando's Quajira
DR14 -1.60 dB -19.34 dB 5:53 02-Armando's Bossa
DR12 -4.99 dB -22.98 dB 3:14 03-Why Did I Choose You
DR12 -0.19 dB -15.99 dB 5:43 04-Milo's Other Samba
DR15 -1.80 dB -19.85 dB 5:19 05-Song for Pat
DR15 -1.34 dB -21.62 dB 6:01 06-The Touch
DR13 -1.69 dB -18.30 dB 6:13 07-Colorado Waltz
DR12 -1.93 dB -17.53 dB 5:03 08-Nica's Dream
––––––––––––––––––––––––––––––––––––––––

Number of tracks: 8
Official DR value: DR13

Samplerate: 44100 Hz
Channels: 2
Bits per sample: 16
Bitrate: 850 kbps
Codec: WavPack
================================================================================

[CUETools log; Date: 10.01.2017 22:25:28; Version: 2.1.5]
[CTDB TOCID: wF_dHtaZgONYOQgSu6JEo2ckzvE-] found.
Track | CTDB Status
1 | (7/7) Accurately ripped
2 | (7/7) Accurately ripped
3 | (7/7) Accurately ripped
4 | (7/7) Accurately ripped
5 | (7/7) Accurately ripped
6 | (7/7) Accurately ripped
7 | (7/7) Accurately ripped
8 | (7/7) Accurately ripped
[AccurateRip ID: 000e32ac-005d9261-580a8d08] found.
Track [ CRC | V2 ] Status
01 [f2a05055|d05925c6] (09+12/21) Accurately ripped
02 [22539d50|a7513fa3] (09+12/21) Accurately ripped
03 [fd95af11|6ef98f3d] (09+12/21) Accurately ripped
04 [31fcd24d|d959be95] (09+12/21) Accurately ripped
05 [b2c4fb46|83e03e3d] (09+12/21) Accurately ripped
06 [88582113|e4c0bfba] (09+12/21) Accurately ripped
07 [3a3e09d3|0e28c461] (09+12/21) Accurately ripped
08 [55ba4c9e|83e5a576] (09+12/21) Accurately ripped

Track Peak [ CRC32 ] [W/O NULL] [ LOG ]
– 98,7 [7E67F48E] [8F28D6AE] CRC32
01 98,7 [C1EA2A1A] [E5C6BA48]
02 83,1 [9BB40630] [0676989F]
03 56,3 [AAD33394] [DB442010]
04 97,7 [C9FFE00C] [4680CFEA]
05 81,2 [53B71191] [E93F0186]
06 85,7 [CCCCCBAB] [DB995EE4]
07 82,3 [6B68DDAB] [B0FD73DC]
08 80,1 [586118F5] [B80826B3]

The Cal Tjader Quintet - Latin + Jazz = Cal Tjader (2002) {Hybrid SACD, Audio Fidelity AFZ 004}

The Cal Tjader Quintet - Latin + Jazz = Cal Tjader (2002) {Hybrid SACD, Audio Fidelity AFZ 004}

All thanks go to the original ripper(s) …

> Visit my blog <