Subcategories

The Choir of Westminster Cathedral, Martin Baker - Palestrina: Missa Dum complerentur, Veni Sancte Spiritus (2003) (Repost)

Posted By: tirexiss
The Choir of Westminster Cathedral, Martin Baker - Palestrina: Missa Dum complerentur, Veni Sancte Spiritus (2003) (Repost)

The Choir of Westminster Cathedral, Martin Baker - Palestrina: Missa Dum complerentur, Veni Sancte Spiritus (2003)
EAC | FLAC (image+.cue, log) | Covers Included | 71:07 | 304 MB
Genre: Classical, Choral | Label: Hyperion | Catalog: CDA67353

The music of the sixteenth-century composer Palestrina is still today at the heart of many of the Roman Catholic services sung all around the world. The congregation at Westminster Cathedral is particularly fortunate to hear on a regular basis this inspirational music sung by one of the finest choirs in the world, and this album focuses on music for Whitsuntide. (Whit Sunday commemorates the coming of the Holy Spirit in the form of flames to the Apostles, as recorded in the New Testament.)
This is glorious music and for it Martin Baker has drawn the best from his glorious choir.

The Choir of Westminster Cathedral, Martin Baker - Palestrina: Missa Dum complerentur, Veni Sancte Spiritus (2003) (Repost)

Track List:

Giovanni Pierluigi da Palestrina (c1525–1594)

[1] Dum complerentur
[2]-[7] Missa Dum complerentur
[8] Alleluia: Veni Sancte Spiritus plainchant
[9] Sequence: Veni Sancte Spiritus plainchant
[10] Veni Sancte Spiritus
[11] Veni Creator Spiritus
[12] Magnificat sexti toni
[13] Spiritus Sanctus replevit totam domum

Performers:
The Choir of Westminster Cathedral
Martin Baker Master of Music

Exact Audio Copy V1.0 beta 3 from 29. August 2011

EAC extraction logfile from 5. February 2012, 20:30

The Choir of Westminster Cathedral, Martin Baker / Palestrina - Missa Dum complerentur

Used drive : HL-DT-STDVDRAM GSA-4083N Adapter: 1 ID: 0

Read mode : Secure
Utilize accurate stream : Yes
Defeat audio cache : Yes
Make use of C2 pointers : No

Read offset correction : 667
Overread into Lead-In and Lead-Out : No
Fill up missing offset samples with silence : Yes
Delete leading and trailing silent blocks : No
Null samples used in CRC calculations : Yes
Used interface : Native Win32 interface for Win NT & 2000

Used output format : User Defined Encoder
Selected bitrate : 896 kBit/s
Quality : High
Add ID3 tag : No
Command line compressor : C:\Program Files\Exact Audio Copy\Flac\flac.exe
Additional command line options : -V -8 %source%


TOC of the extracted CD

Track | Start | Length | Start sector | End sector
––––––––––––––––––––––––––––-
1 | 0:00.00 | 6:11.43 | 0 | 27867
2 | 6:11.43 | 4:42.18 | 27868 | 49035
3 | 10:53.61 | 5:52.52 | 49036 | 75487
4 | 16:46.38 | 8:49.41 | 75488 | 115203
5 | 25:36.04 | 3:17.51 | 115204 | 130029
6 | 28:53.55 | 2:24.30 | 130030 | 140859
7 | 31:18.10 | 4:36.14 | 140860 | 161573
8 | 35:54.24 | 2:20.68 | 161574 | 172141
9 | 38:15.17 | 2:23.09 | 172142 | 182875
10 | 40:38.26 | 4:14.38 | 182876 | 201963
11 | 44:52.64 | 8:53.48 | 201964 | 241986
12 | 53:46.37 | 13:41.06 | 241987 | 303567
13 | 67:27.43 | 3:39.66 | 303568 | 320058


Range status and errors

Selected range

Filename F:\Music\Palestrina - Missa Dum complerentur\Palestrina - Missa Dum complerentur.wav

Peak level 89.0 %
Extraction speed 2.2 X
Range quality 100.0 %
Test CRC C5625220
Copy CRC C5625220
Copy OK

No errors occurred

End of status report

==== Log checksum 78C5A6C2B467860AFEE8E02656D91FABF0B0BE2919B44323DA58BD9CF6557467 ====

[CUETools log; Date: 23.11.2017 16:35:45; Version: 2.1.5]
[CTDB TOCID: 5QJidNgHh2HRPz9BTP6fVLKfDwA-] found.
Track | CTDB Status
1 | (12/12) Accurately ripped
2 | (12/12) Accurately ripped
3 | (12/12) Accurately ripped
4 | (12/12) Accurately ripped
5 | (12/12) Accurately ripped
6 | (12/12) Accurately ripped
7 | (12/12) Accurately ripped
8 | (12/12) Accurately ripped
9 | (12/12) Accurately ripped
10 | (12/12) Accurately ripped
11 | (12/12) Accurately ripped
12 | (12/12) Accurately ripped
13 | (12/12) Accurately ripped
[AccurateRip ID: 002063a0-014181e1-bb10ab0d] found.
Track [ CRC | V2 ] Status
01 [936d71c8|d9f124c0] (04+04/12) Accurately ripped
02 [88bc666e|0601067d] (04+04/12) Accurately ripped
03 [6f7640f9|91bc3ae0] (04+04/12) Accurately ripped
04 [dff40ba3|1a99c50d] (04+04/12) Accurately ripped
05 [ef6ceff2|0c68bb0c] (04+04/12) Accurately ripped
06 [bc539e7a|2a113c54] (04+04/12) Accurately ripped
07 [43515ca9|e7d0530f] (04+04/12) Accurately ripped
08 [49b995b4|a86167ce] (04+04/12) Accurately ripped
09 [f9b4dcf6|2ef9cb5c] (04+04/12) Accurately ripped
10 [af9b2c05|444baec3] (04+04/12) Accurately ripped
11 [4f19d017|87bc8c31] (04+04/12) Accurately ripped
12 [7b7032f4|a9283acf] (03+04/11) Accurately ripped
13 [36463cfe|537d1e96] (04+04/12) Accurately ripped
Offsetted by -700:
01 [b2cb6084] (00/12) No match (V2 was not tested)
02 [1b4133b3] (00/12) No match (V2 was not tested)
03 [9295918f] (00/12) No match (V2 was not tested)
04 [36cfa762] (00/12) No match (V2 was not tested)
05 [938d8eb8] (00/12) No match (V2 was not tested)
06 [7dea41e3] (00/12) No match (V2 was not tested)
07 [ae1adbdf] (00/12) No match (V2 was not tested)
08 [ce48883e] (00/12) No match (V2 was not tested)
09 [ac3cf72a] (00/12) No match (V2 was not tested)
10 [3ff04175] (00/12) No match (V2 was not tested)
11 [0da2b3f7] (00/12) No match (V2 was not tested)
12 [67a1ad96] (00/11) No match (V2 was not tested)
13 [fcd728cb] (00/12) No match (V2 was not tested)

Track Peak [ CRC32 ] [W/O NULL] [ LOG ]
– 89,0 [C5625220] [DDAA0981] CRC32
01 89,0 [73FE21FB] [D68DC6E7]
02 52,4 [7ADDB0D9] [ECB27D0F]
03 57,7 [A5F0D634] [AA6E5DB5]
04 56,4 [04307504] [0CEFF09E]
05 64,2 [E83E7CB8] [DCB5D9CA]
06 71,3 [4159C94E] [DB550F3D]
07 78,6 [053A81FF] [CFEC53EF]
08 63,8 [79A1E26D] [A7E5562A]
09 47,8 [5D3C77DC] [619994E5]
10 62,7 [5EEA0820] [57E3AD94]
11 34,9 [2F1F0E01] [BA875466]
12 67,8 [052DE73A] [672D4060]
13 62,2 [376ED7B1] [B8F1E7BC]

Thanks to the Original ripper A-Z!

Download: