Tags
Language
Tags

VA - The Definitive Salsoul Mixes (2011)

Posted By: Rtax
VA - The Definitive Salsoul Mixes (2011)

VA - The Definitive Salsoul Mixes (2011)
EAC Rip | FLAC (tracks, cue, log) - 1.4 GB | MP3 CBR 320 kbps - 503 MB
3:40:06 | Disco, Boogie, Funk, Soul | Label: Harmless

This is the ONLY Salsoul anthology on the worldwide market so no competition at present! · Salsoul have never had a comprehensive release which contains ALL of the key original mixes on one neat 3CD package · Album has been compiled and sleeve notes written by former Salsoul UK founder and expert Ian Dewhirst · There will be considerable interest in this release since Salsoul has recently been sold and this release could be the last opportunity to get all these key recordings on a physical format · This will be a ‘must-stock’ item for all accounts which carry Harmless titles or carry a good range of Dance/Soul back catalogue · An essential purchase which should really be in every serious collection · Presented in a 3 CD deluxe digipack with 12 page booklet including archive scans and photos.

Tracklist
Disc 1 (01:09:37)
1. Bataan – The Bottle (La Botella) (Original Album Mix) (03:29)
2. The Salsoul Orchestra – You're Just The Right Size (Original Album Mix) (04:40)
3. Moment Of Truth – Helplessly (Moulton's 12" Mix) (06:24)
4. Double Exposure – Everyman (Original Album Mix) (07:19)
5. The Salsoul Orchestra – Nice N' Nasty (Original Walter Gibbons 12" Mix) (05:21)
6. Double Exposure – Ten Percent (Original Walter Gibbons 12" Mix) (09:41)
7. Silvetti – Spring Rain (Original Tom Moulton 12" Mix) (05:52)
8. Double Exposure – My Love Is Free (Original Tom Moulton 12" Mix) (09:40)
9. Loleatta Holloway – Dreamin' (Original Album Mix) (06:18)
10. Eddie Holman – This Will Be A Night To Remember (Original Tom Moulton 12" Mix) (05:47)
11. Carol Williams – Love Is You (Original 12" Mix) (05:06)

Disc 2 (01:15:45)
1. First Choice – Doctor Love (Original Tom Moulton 12" Mix) (07:35)
2. The Salsoul Orchestra – Getaway (Original 12" Mix) (04:17)
3. Loleatta Holloway – Hit & Run (Original Walter Gibbons 12" Mix) (10:59)
4. The Salsoul Orchestra & Loleatta Holloway – Runaway (Original Album Mix) (feat. Loleatta Holloway) (04:44)
5. Ripple – The Beat Goes On & On (Original Jim Burgess 12" Mix) (06:55)
6. Love Committee – Just As Long As I Got You (Original Walter Gibbons 12" Mix) (08:35)
7. Gaz – Sing Sing (Original Richie Rivera 12" Mix) (07:16)
8. Instant Funk – I Got My Mind Made Up (Original Larry Levan 12" Mix) (09:46)
9. Skyy – First Time Around (Original Randy Muller / Solomon Roberts Jr 12" Mix) (06:40)
10. Instant Funk – Crying (Original Larry Levan 12" Mix) (08:58)

Disc 3 (01:13:49)
1. Candido – Jingo (Original David Rodriguez 12" Mix) (09:51)
2. Candido – Dancin' & Prancin' (Original David Rodriguez 12" Mix) (06:53)
3. Loleatta Holloway – All About The Paper (Original Bobby DJ Guttadero Album Mix) (06:13)
4. Skip Mahoney – Janice (Don't Be So Blind To Love) (Original Bobby DJ Guttadero Album Mix) (06:59)
5. Loleatta Holloway – Love Sensation (Original Tom Moulton 12" Mix) (06:34)
6. Inner Life – Ain't No Mountain High Enough (Original Larry Levan 12" Mix) (10:26)
7. Logg – I Know You Will (Original Larry Levan 12" Mix) (06:44)
8. The Salsoul Orchestra – Take Some Time Out For Love (Original 12" Mix) (06:22)
9. First Choice – Let No Man Put Asunder (Original Frankie Knuckles 12" Mix) (07:35)
10. Leroy Burgess – Heartbreaker (Original Shep Pettibone 12" Mix) (06:12)
Exact Audio Copy V1.6 from 23. October 2020

EAC extraction logfile from 2. April 2021, 18:20

Various / The Definitive Salsoul Mixes

Used drive : TSSTcorpCDW/DVD TS-L462A Adapter: 1 ID: 0

Read mode : Secure
Utilize accurate stream : Yes
Defeat audio cache : Yes
Make use of C2 pointers : No

Read offset correction : 6
Overread into Lead-In and Lead-Out : No
Fill up missing offset samples with silence : Yes
Delete leading and trailing silent blocks : No
Null samples used in CRC calculations : Yes
Used interface : Native Win32 interface for Win NT & 2000
Gap handling : Appended to previous track

Used output format : User Defined Encoder
Selected bitrate : 1024 kBit/s
Quality : High
Add ID3 tag : No
Command line compressor : C:\Program Files (x86)\Exact Audio Copy\Flac\flac.exe
Additional command line options : -8 -V -T "ARTIST=%artist%" -T "TITLE=%title%" -T "ALBUM=%albumtitle%" -T "DATE=%year%" -T "TRACKNUMBER=%tracknr%" -T "GENRE=%genre%" -T "PERFORMER=%albuminterpret%" -T "COMPOSER=%composer%" -T "ALBUMARTIST=%albumartist%" -T "DISCNUMBER=%cdnumber%" -T "TOTALDISCS=%totalcds%" -T "TOTALTRACKS=%numtracks%" -T "COMMENT=%comment%" %source% -o %dest%


TOC of the extracted CD

Track | Start | Length | Start sector | End sector
––––––––––––––––––––––––––––-
1 | 0:00.00 | 3:31.60 | 0 | 15884
2 | 3:31.60 | 4:41.25 | 15885 | 36984
3 | 8:13.10 | 6:26.15 | 36985 | 65949
4 | 14:39.25 | 7:20.57 | 65950 | 99006
5 | 22:00.07 | 5:23.02 | 99007 | 123233
6 | 27:23.09 | 9:43.49 | 123234 | 167007
7 | 37:06.58 | 5:53.56 | 167008 | 193538
8 | 43:00.39 | 9:41.53 | 193539 | 237166
9 | 52:42.17 | 6:19.58 | 237167 | 265649
10 | 59:02.00 | 5:48.61 | 265650 | 291810
11 | 64:50.61 | 5:08.40 | 291811 | 314950


Track 1

Filename D:\EAC Rips\Various Artists - The Definitive Salsoul Mixes (2011) [FLAC]\CD1\01 - Bataan - The Bottle (La Botella) (Original Album Mix).wav

Pre-gap length 0:00:02.00

Peak level 99.4 %
Extraction speed 1.8 X
Track quality 99.9 %
Test CRC 159CA483
Copy CRC 159CA483
Accurately ripped (confidence 24) [86AAFDAC] (AR v2)
Copy OK

Track 2

Filename D:\EAC Rips\Various Artists - The Definitive Salsoul Mixes (2011) [FLAC]\CD1\02 - The Salsoul Orchestra - You're Just The Right Size (Original Album Mix).wav

Pre-gap length 0:00:01.29

Peak level 91.4 %
Extraction speed 3.4 X
Track quality 100.0 %
Test CRC FECCC27A
Copy CRC FECCC27A
Accurately ripped (confidence 24) [4E0D863D] (AR v2)
Copy OK

Track 3

Filename D:\EAC Rips\Various Artists - The Definitive Salsoul Mixes (2011) [FLAC]\CD1\03 - Moment Of Truth - Helplessly (Moulton's 12'' Mix).wav

Pre-gap length 0:00:01.29

Peak level 99.4 %
Extraction speed 3.8 X
Track quality 100.0 %
Test CRC B0C8C0FC
Copy CRC B0C8C0FC
Accurately ripped (confidence 24) [8EC354C5] (AR v2)
Copy OK

Track 4

Filename D:\EAC Rips\Various Artists - The Definitive Salsoul Mixes (2011) [FLAC]\CD1\04 - Double Exposure - Everyman (Original Album Mix).wav

Pre-gap length 0:00:01.30

Peak level 99.4 %
Extraction speed 4.4 X
Track quality 100.0 %
Test CRC 77E1315B
Copy CRC 77E1315B
Accurately ripped (confidence 24) [80016CA2] (AR v2)
Copy OK

Track 5

Filename D:\EAC Rips\Various Artists - The Definitive Salsoul Mixes (2011) [FLAC]\CD1\05 - The Salsoul Orchestra - Nice N' Nasty (Original Walter Gibbons 12'' Mix).wav

Pre-gap length 0:00:01.30

Peak level 99.4 %
Extraction speed 3.2 X
Track quality 99.9 %
Test CRC 5C5EEA09
Copy CRC 5C5EEA09
Accurately ripped (confidence 24) [FFA97A0E] (AR v2)
Copy OK

Track 6

Filename D:\EAC Rips\Various Artists - The Definitive Salsoul Mixes (2011) [FLAC]\CD1\06 - Double Exposure - Ten Percent (Original Walter Gibbons 12'' Mix).wav

Pre-gap length 0:00:01.29

Peak level 99.4 %
Extraction speed 4.2 X
Track quality 99.9 %
Test CRC DB879875
Copy CRC DB879875
Accurately ripped (confidence 24) [05379BC3] (AR v2)
Copy OK

Track 7

Filename D:\EAC Rips\Various Artists - The Definitive Salsoul Mixes (2011) [FLAC]\CD1\07 - Silvetti - Spring Rain (Original Tom Moulton 12'' Mix).wav

Pre-gap length 0:00:01.29

Peak level 99.4 %
Extraction speed 5.4 X
Track quality 100.0 %
Test CRC 28381C80
Copy CRC 28381C80
Accurately ripped (confidence 24) [7B04BB20] (AR v2)
Copy OK

Track 8

Filename D:\EAC Rips\Various Artists - The Definitive Salsoul Mixes (2011) [FLAC]\CD1\08 - Double Exposure - My Love Is Free (Original Tom Moulton 12'' Mix).wav

Pre-gap length 0:00:01.30

Peak level 99.4 %
Extraction speed 6.0 X
Track quality 100.0 %
Test CRC 34B4E5C2
Copy CRC 34B4E5C2
Accurately ripped (confidence 24) [E23FCB3F] (AR v2)
Copy OK

Track 9

Filename D:\EAC Rips\Various Artists - The Definitive Salsoul Mixes (2011) [FLAC]\CD1\09 - Loleatta Holloway - Dreamin' (Original Album Mix).wav

Pre-gap length 0:00:01.30

Peak level 99.4 %
Extraction speed 4.4 X
Track quality 99.9 %
Test CRC 6731AE5A
Copy CRC 6731AE5A
Accurately ripped (confidence 24) [57CAB954] (AR v2)
Copy OK

Track 10

Filename D:\EAC Rips\Various Artists - The Definitive Salsoul Mixes (2011) [FLAC]\CD1\10 - Eddie Holman - This Will Be A Night To Remember (Original Tom Moulton 12'' Mix).wav

Pre-gap length 0:00:01.29

Peak level 99.4 %
Extraction speed 6.3 X
Track quality 100.0 %
Test CRC B706CC3D
Copy CRC B706CC3D
Accurately ripped (confidence 24) [B2964F20] (AR v2)
Copy OK

Track 11

Filename D:\EAC Rips\Various Artists - The Definitive Salsoul Mixes (2011) [FLAC]\CD1\11 - Carol Williams - Love Is You (Original 12'' Mix).wav

Pre-gap length 0:00:01.30

Peak level 99.4 %
Extraction speed 6.5 X
Track quality 100.0 %
Test CRC 844336E1
Copy CRC 844336E1
Accurately ripped (confidence 24) [3D7C8261] (AR v2)
Copy OK


All tracks accurately ripped

No errors occurred

End of status report

–– CUETools DB Plugin V2.1.6

[CTDB TOCID: eEwRVcVQ9ZfdMmvp68xyXPOmGgs-] found
Submit result: eEwRVcVQ9ZfdMmvp68xyXPOmGgs- has been confirmed
Track | CTDB Status
1 | (20/20) Accurately ripped
2 | (20/20) Accurately ripped
3 | (20/20) Accurately ripped
4 | (20/20) Accurately ripped
5 | (20/20) Accurately ripped
6 | (20/20) Accurately ripped
7 | (20/20) Accurately ripped
8 | (20/20) Accurately ripped
9 | (20/20) Accurately ripped
10 | (20/20) Accurately ripped
11 | (20/20) Accurately ripped


==== Log checksum EA03703AC1C5DA7F71321E9F3B156FBF558299484D88F96BB85FB8E0AB18A1A6 ====


Exact Audio Copy V1.6 from 23. October 2020

EAC extraction logfile from 2. April 2021, 20:09

Various / The Definitive Salsoul Mixes

Used drive : TSSTcorpCDW/DVD TS-L462A Adapter: 1 ID: 0

Read mode : Secure
Utilize accurate stream : Yes
Defeat audio cache : Yes
Make use of C2 pointers : No

Read offset correction : 6
Overread into Lead-In and Lead-Out : No
Fill up missing offset samples with silence : Yes
Delete leading and trailing silent blocks : No
Null samples used in CRC calculations : Yes
Used interface : Native Win32 interface for Win NT & 2000
Gap handling : Appended to previous track

Used output format : User Defined Encoder
Selected bitrate : 1024 kBit/s
Quality : High
Add ID3 tag : No
Command line compressor : C:\Program Files (x86)\Exact Audio Copy\Flac\flac.exe
Additional command line options : -8 -V -T "ARTIST=%artist%" -T "TITLE=%title%" -T "ALBUM=%albumtitle%" -T "DATE=%year%" -T "TRACKNUMBER=%tracknr%" -T "GENRE=%genre%" -T "PERFORMER=%albuminterpret%" -T "COMPOSER=%composer%" -T "ALBUMARTIST=%albumartist%" -T "DISCNUMBER=%cdnumber%" -T "TOTALDISCS=%totalcds%" -T "TOTALTRACKS=%numtracks%" -T "COMMENT=%comment%" %source% -o %dest%


TOC of the extracted CD

Track | Start | Length | Start sector | End sector
––––––––––––––––––––––––––––-
1 | 0:00.00 | 7:37.17 | 0 | 34291
2 | 7:37.17 | 4:18.33 | 34292 | 53674
3 | 11:55.50 | 10:59.51 | 53675 | 103150
4 | 22:55.26 | 4:45.74 | 103151 | 124599
5 | 27:41.25 | 6:56.68 | 124600 | 155867
6 | 34:38.18 | 8:37.15 | 155868 | 194657
7 | 43:15.33 | 7:17.23 | 194658 | 227455
8 | 50:32.56 | 9:47.63 | 227456 | 271543
9 | 60:20.44 | 6:41.49 | 271544 | 301667
10 | 67:02.18 | 9:00.57 | 301668 | 342224


Track 1

Filename D:\EAC Rips\Various Artists - The Definitive Salsoul Mixes (2011) [FLAC]\CD2\01 - First Choice - Doctor Love (Original Tom Moulton 12'' Mix).wav

Pre-gap length 0:00:02.00

Peak level 99.4 %
Extraction speed 1.4 X
Track quality 100.0 %
Test CRC F9BAA2AD
Copy CRC F9BAA2AD
Accurately ripped (confidence 23) [7FA1310F] (AR v2)
Copy OK

Track 2

Filename D:\EAC Rips\Various Artists - The Definitive Salsoul Mixes (2011) [FLAC]\CD2\02 - The Salsoul Orchestra - Getaway (Original 12'' Mix).wav

Pre-gap length 0:00:01.29

Peak level 99.4 %
Extraction speed 1.5 X
Track quality 100.0 %
Test CRC B38526F3
Copy CRC B38526F3
Accurately ripped (confidence 24) [05C1D1A5] (AR v2)
Copy OK

Track 3

Filename D:\EAC Rips\Various Artists - The Definitive Salsoul Mixes (2011) [FLAC]\CD2\03 - Loleatta Holloway - Hit & Run (Original Walter Gibbons 12'' Mix).wav

Pre-gap length 0:00:01.29

Peak level 98.5 %
Extraction speed 1.8 X
Track quality 99.9 %
Test CRC 940852F5
Copy CRC 940852F5
Accurately ripped (confidence 23) [10DFE58A] (AR v2)
Copy OK

Track 4

Filename D:\EAC Rips\Various Artists - The Definitive Salsoul Mixes (2011) [FLAC]\CD2\04 - The Salsoul Orchestra Ft Loleatta Holloway - Runaway (Original Album Mix).wav

Pre-gap length 0:00:01.29

Peak level 99.4 %
Extraction speed 1.9 X
Track quality 100.0 %
Test CRC D7A3BFE4
Copy CRC D7A3BFE4
Accurately ripped (confidence 23) [68EAA9E0] (AR v2)
Copy OK

Track 5

Filename D:\EAC Rips\Various Artists - The Definitive Salsoul Mixes (2011) [FLAC]\CD2\05 - Ripple - The Beat Goes On & On (Original Jim Burgess 12'' Mix).wav

Pre-gap length 0:00:01.30

Peak level 99.4 %
Extraction speed 2.1 X
Track quality 100.0 %
Test CRC EC7690D1
Copy CRC EC7690D1
Accurately ripped (confidence 23) [82F414C6] (AR v2)
Copy OK

Track 6

Filename D:\EAC Rips\Various Artists - The Definitive Salsoul Mixes (2011) [FLAC]\CD2\06 - Love Committee - Just As Long As I Got You (Original Walter Gibbons 12'' Mix).wav

Pre-gap length 0:00:01.30

Peak level 99.4 %
Extraction speed 2.3 X
Track quality 100.0 %
Test CRC 7B759E22
Copy CRC 7B759E22
Accurately ripped (confidence 24) [6C0E6AE0] (AR v2)
Copy OK

Track 7

Filename D:\EAC Rips\Various Artists - The Definitive Salsoul Mixes (2011) [FLAC]\CD2\07 - Gaz - Sing Sing (Original Richie Rivera 12'' Mix).wav

Pre-gap length 0:00:01.29

Peak level 99.4 %
Extraction speed 2.5 X
Track quality 100.0 %
Test CRC 483D0EE3
Copy CRC 483D0EE3
Accurately ripped (confidence 24) [E3E53D72] (AR v2)
Copy OK

Track 8

Filename D:\EAC Rips\Various Artists - The Definitive Salsoul Mixes (2011) [FLAC]\CD2\08 - Instant Funk - I Got My Mind Made Up (Original Larry Levan 12'' Mix).wav

Pre-gap length 0:00:01.30

Peak level 99.4 %
Extraction speed 2.7 X
Track quality 100.0 %
Test CRC F7F65E8F
Copy CRC F7F65E8F
Accurately ripped (confidence 23) [6A149CDE] (AR v2)
Copy OK

Track 9

Filename D:\EAC Rips\Various Artists - The Definitive Salsoul Mixes (2011) [FLAC]\CD2\09 - Skyy - First Time Around (Original Randy Muller , Solomon Roberts Jr 12'' Mix).wav

Pre-gap length 0:00:01.30

Peak level 99.4 %
Extraction speed 2.7 X
Track quality 100.0 %
Test CRC 38FE0B5F
Copy CRC 38FE0B5F
Accurately ripped (confidence 24) [BBD13A68] (AR v2)
Copy OK

Track 10

Filename D:\EAC Rips\Various Artists - The Definitive Salsoul Mixes (2011) [FLAC]\CD2\10 - Instant Funk - Crying (Original Larry Levan 12'' Mix).wav

Pre-gap length 0:00:01.29

Peak level 99.4 %
Extraction speed 2.9 X
Track quality 100.0 %
Test CRC 4FB9B57E
Copy CRC 4FB9B57E
Accurately ripped (confidence 24) [B090CA58] (AR v2)
Copy OK


All tracks accurately ripped

No errors occurred

End of status report

–– CUETools DB Plugin V2.1.6

[CTDB TOCID: tyr7JYC03meQJ0pIo2SF4oLBbX8-] found
Submit result: tyr7JYC03meQJ0pIo2SF4oLBbX8- has been confirmed
Track | CTDB Status
1 | (19/19) Accurately ripped
2 | (19/19) Accurately ripped
3 | (19/19) Accurately ripped
4 | (19/19) Accurately ripped
5 | (19/19) Accurately ripped
6 | (19/19) Accurately ripped
7 | (19/19) Accurately ripped
8 | (19/19) Accurately ripped
9 | (19/19) Accurately ripped
10 | (19/19) Accurately ripped


==== Log checksum 55FDB326EB34255C1506AB9C667D060B40AEE670096DD56CE1A2D5853008FA1B ====


Exact Audio Copy V1.6 from 23. October 2020

EAC extraction logfile from 2. April 2021, 21:42

Various / The Definitive Salsoul Mixes

Used drive : TSSTcorpCDW/DVD TS-L462A Adapter: 1 ID: 0

Read mode : Secure
Utilize accurate stream : Yes
Defeat audio cache : Yes
Make use of C2 pointers : No

Read offset correction : 6
Overread into Lead-In and Lead-Out : No
Fill up missing offset samples with silence : Yes
Delete leading and trailing silent blocks : No
Null samples used in CRC calculations : Yes
Used interface : Native Win32 interface for Win NT & 2000
Gap handling : Appended to previous track

Used output format : User Defined Encoder
Selected bitrate : 1024 kBit/s
Quality : High
Add ID3 tag : No
Command line compressor : C:\Program Files (x86)\Exact Audio Copy\Flac\flac.exe
Additional command line options : -8 -V -T "ARTIST=%artist%" -T "TITLE=%title%" -T "ALBUM=%albumtitle%" -T "DATE=%year%" -T "TRACKNUMBER=%tracknr%" -T "GENRE=%genre%" -T "PERFORMER=%albuminterpret%" -T "COMPOSER=%composer%" -T "ALBUMARTIST=%albumartist%" -T "DISCNUMBER=%cdnumber%" -T "TOTALDISCS=%totalcds%" -T "TOTALTRACKS=%numtracks%" -T "COMMENT=%comment%" %source% -o %dest%


TOC of the extracted CD

Track | Start | Length | Start sector | End sector
––––––––––––––––––––––––––––-
1 | 0:00.00 | 9:53.07 | 0 | 44481
2 | 9:53.07 | 6:51.71 | 44482 | 75377
3 | 16:45.03 | 6:13.56 | 75378 | 103408
4 | 22:58.59 | 7:00.39 | 103409 | 134947
5 | 29:59.23 | 6:34.04 | 134948 | 164501
6 | 36:33.27 | 10:27.57 | 164502 | 211583
7 | 47:01.09 | 6:45.44 | 211584 | 242002
8 | 53:46.53 | 6:24.04 | 242003 | 270806
9 | 60:10.57 | 7:36.29 | 270807 | 305035
10 | 67:47.11 | 6:13.58 | 305036 | 333068


Track 1

Filename D:\EAC Rips\Various Artists - The Definitive Salsoul Mixes (2011) [FLAC]\CD3\01 - Candido - Jingo (Original David Rodriguez 12'' Mix).wav

Pre-gap length 0:00:02.00

Peak level 99.4 %
Extraction speed 1.4 X
Track quality 100.0 %
Test CRC 5A9A8D3B
Copy CRC 5A9A8D3B
Accurately ripped (confidence 11) [F36F9838] (AR v2)
Copy OK

Track 2

Filename D:\EAC Rips\Various Artists - The Definitive Salsoul Mixes (2011) [FLAC]\CD3\02 - Candido - Dancin' & Prancin' (Original David Rodriguez 12'' Mix).wav

Pre-gap length 0:00:01.30

Peak level 99.4 %
Extraction speed 1.7 X
Track quality 100.0 %
Test CRC 16AE5F2D
Copy CRC 16AE5F2D
Accurately ripped (confidence 12) [4844ECCB] (AR v2)
Copy OK

Track 3

Filename D:\EAC Rips\Various Artists - The Definitive Salsoul Mixes (2011) [FLAC]\CD3\03 - Loleatta Holloway - All About The Paper (Original Bobby DJ Guttadero Album Mix).wav

Pre-gap length 0:00:01.29

Peak level 95.5 %
Extraction speed 1.8 X
Track quality 100.0 %
Test CRC A1C3014F
Copy CRC A1C3014F
Accurately ripped (confidence 12) [E7433D9B] (AR v2)
Copy OK

Track 4

Filename D:\EAC Rips\Various Artists - The Definitive Salsoul Mixes (2011) [FLAC]\CD3\04 - Skip Mahoney - Janice (Don't Be So Blind To Love) (Original Bobby DJ Guttadero Album Mix).wav

Pre-gap length 0:00:01.29

Peak level 99.4 %
Extraction speed 2.0 X
Track quality 100.0 %
Test CRC E079792B
Copy CRC E079792B
Accurately ripped (confidence 12) [EE863FE4] (AR v2)
Copy OK

Track 5

Filename D:\EAC Rips\Various Artists - The Definitive Salsoul Mixes (2011) [FLAC]\CD3\05 - Loleatta Holloway - Love Sensation (Original Tom Moulton 12'' Mix).wav

Pre-gap length 0:00:01.30

Peak level 93.3 %
Extraction speed 2.0 X
Track quality 99.9 %
Test CRC 52B156E2
Copy CRC 52B156E2
Accurately ripped (confidence 12) [9C274340] (AR v2)
Copy OK

Track 6

Filename D:\EAC Rips\Various Artists - The Definitive Salsoul Mixes (2011) [FLAC]\CD3\06 - Inner Life - Ain't No Mountain High Enough (Original Larry Levan 12'' Mix).wav

Pre-gap length 0:00:01.28

Peak level 99.4 %
Extraction speed 2.4 X
Track quality 100.0 %
Test CRC 014E6918
Copy CRC 014E6918
Accurately ripped (confidence 12) [9C5585E1] (AR v2)
Copy OK

Track 7

Filename D:\EAC Rips\Various Artists - The Definitive Salsoul Mixes (2011) [FLAC]\CD3\07 - Logg - I Know You Will (Original Larry Levan 12'' Mix).wav

Pre-gap length 0:00:01.30

Peak level 99.4 %
Extraction speed 2.5 X
Track quality 100.0 %
Test CRC 92DEE8EA
Copy CRC 92DEE8EA
Accurately ripped (confidence 12) [1F24B151] (AR v2)
Copy OK

Track 8

Filename D:\EAC Rips\Various Artists - The Definitive Salsoul Mixes (2011) [FLAC]\CD3\08 - The Salsoul Orchestra - Take Some Time Out For Love (Original 12'' Mix).wav

Pre-gap length 0:00:01.29

Peak level 90.1 %
Extraction speed 2.6 X
Track quality 100.0 %
Test CRC 708B67F2
Copy CRC 708B67F2
Accurately ripped (confidence 12) [4DF095F8] (AR v2)
Copy OK

Track 9

Filename D:\EAC Rips\Various Artists - The Definitive Salsoul Mixes (2011) [FLAC]\CD3\09 - First Choice - Let No Man Put Asunder (Original Frankie Knuckles 12'' Mix).wav

Pre-gap length 0:00:01.30

Peak level 99.4 %
Extraction speed 2.7 X
Track quality 100.0 %
Test CRC 52467BAB
Copy CRC 52467BAB
Accurately ripped (confidence 12) [3DCD9B08] (AR v2)
Copy OK

Track 10

Filename D:\EAC Rips\Various Artists - The Definitive Salsoul Mixes (2011) [FLAC]\CD3\10 - Leroy Burgess - Heartbreaker (Original Shep Pettibone 12'' Mix).wav

Pre-gap length 0:00:01.29

Peak level 89.1 %
Extraction speed 2.8 X
Track quality 100.0 %
Test CRC 429D1E90
Copy CRC 429D1E90
Accurately ripped (confidence 11) [EA7EEF5C] (AR v2)
Copy OK


All tracks accurately ripped

No errors occurred

End of status report

–– CUETools DB Plugin V2.1.6

[CTDB TOCID: 9V.8.4A3wNcMyUoNr151gr76jKE-] found
Submit result: 9V.8.4A3wNcMyUoNr151gr76jKE- has been confirmed
Track | CTDB Status
1 | (18/19) Accurately ripped
2 | (19/19) Accurately ripped
3 | (19/19) Accurately ripped
4 | (19/19) Accurately ripped
5 | (19/19) Accurately ripped
6 | (19/19) Accurately ripped
7 | (18/19) Accurately ripped
8 | (19/19) Accurately ripped
9 | (19/19) Accurately ripped
10 | (19/19) Accurately ripped


==== Log checksum B402271D0CF8AC85D5A2298F0E13FDE2B3ABDFF03234F184DC0E7AFE80A76B66 ====