Subcategories

The Doobie Brothers - Farewell Tour (1983) {2017, Hybrid SACD, Remastered, Japan}

Posted By: popsakov
The Doobie Brothers - Farewell Tour (1983) {2017, Hybrid SACD, Remastered, Japan}

The Doobie Brothers - Farewell Tour (1983) {2017, Hybrid SACD, Remastered, Japan}
EAC Rip | FLAC (Tracks) + Cue + m3u + Log ~ 471 Mb | MP3 CBR320 ~ 157 Mb
Full Scans ~ 80 Mb | RAR 5% Recovery
Pop Rock, Classic Rock | Warner Bros. Records #WPCR-17688

Farewell Tour is the first live album by American rock band The Doobie Brothers, released in 1983. It documents the group's 1982 Farewell Tour and is a double album set. By the early 1980s, the Doobie Brothers had evolved from the guitar-boogie sound under original band frontman Tom Johnston to a soulful keyboard-driven AOR sound under Michael McDonald. Despite the many personnel changes in the group, Patrick Simmons remained from the original incarnation of the group.

In 1982, Simmons decided to retire from the group after years of constant touring and recording. When the band decided to break up in light of his impending departure, Simmons encouraged the group to make one last tour during the summer of 1982 as a way of thanking the group's loyal fanbase. This tour became known as the "Farewell Tour." The front cover shows Keith Knudsen cutting the strings on John McFee's guitar as a symbolic gesture. The last two songs on the album were recorded at the final concert of the tour in Berkeley, California, on September 11, 1982 with vocals by original lead vocalist and guitarist Tom Johnston. For a long time the album was available on CD only in Japan, but ultimately it was re-released on CD by Rhino/WEA on August 26, 2008. The reissue deleted approximately 1½ minutes of onstage banter from the band between 'Streets' and 'Jesus', including mentioning they were going to "light up a 'doobie'" during intermission, suggesting the audience do the same.

~ Wiki

***************

The Doobie Brothers - Farewell Tour (1983) {2017, Hybrid SACD, Remastered, Japan}

The Doobie Brothers - Farewell Tour (1983) {2017, Hybrid SACD, Remastered, Japan}

Track List:

01. Slippery St. Paul [0:53]
02. Takin' It to the Streets [4:48]
03. Jesus Is Just Alright [4:41]
04. Minute by Minute [4:42]
05. Can't Let It Get Away [4:00]
06. Listen to the Music [3:40]
07. Echoes of Love [2:54]
08. What a Fool Believes [4:05]
09. Black Water [4:26]
10. You Belong to Me [3:30]
11. Slat Key Soquel Rag [2:02]
12. Streamer Lane Breakdown [3:57]
13. South City Midnight Lady [5:56]
14. Olana [2:59]
15. Don't Start Me Talkin' [2:47]
16. Long Train Runnin' [6:15]
17. China Grove [3:43]

Personnel:
Patrick Simmons - guitars, lead vocals
John McFee - guitars, pedal steel guitar, violin, vocals
Michael McDonald - keyboards, synthesizers, lead vocals
Cornelius Bumpus - saxophone, synthesizer, organ, vocals, lead vocal on "Jesus Is Just Alright"
Willie Weeks - bass, vocals
Keith Knudsen - drums, vocals, lead vocal on "Don't Start Me To Talkin'"
Chet McCracken - drums, vibraphone, marimbas
Bobby LaKind - congas, percussion, vocals
with Tom Johnston - guitar and lead vocals on "China Grove" and "Long Train Runnin'" (and "Slippery St. Paul")

Exact Audio Copy V1.3 from 2. September 2016

EAC extraction logfile from 29. March 2018, 21:04

The Doobie Brothers / Farewell Tour (2017 Japan Hybrid SACD)

Used drive : PLEXTOR CD-R PREMIUM Adapter: 1 ID: 1

Read mode : Secure
Utilize accurate stream : Yes
Defeat audio cache : Yes
Make use of C2 pointers : No

Read offset correction : 30
Overread into Lead-In and Lead-Out : Yes
Fill up missing offset samples with silence : Yes
Delete leading and trailing silent blocks : No
Null samples used in CRC calculations : Yes
Used interface : Native Win32 interface for Win NT & 2000
Gap handling : Appended to previous track

Used output format : User Defined Encoder
Selected bitrate : 768 kBit/s
Quality : High
Add ID3 tag : No
Command line compressor : C:\Program Files (x86)\Exact Audio Copy\FLAC\FLAC.EXE
Additional command line options : -6 -e -p -V -T "ARTIST=%artist%" -T "TITLE=%title%" -T "ALBUM=%albumtitle%" -T "DATE=%year%" -T "TRACKNUMBER=%tracknr%" -T "GENRE=%genre%" -T "PERFORMER=%albuminterpret%" -T "COMPOSER=%composer%" %haslyrics%–tag-from-file=LYRICS="%lyricsfile%"%haslyrics% -T "ALBUMARTIST=%albumartist%" -T "DISCNUMBER=%cdnumber%" -T "TOTALDISCS=%totalcds%" -T "TOTALTRACKS=%numtracks%" -T "COMMENT=%comment%" %source% -o %dest%


TOC of the extracted CD

Track | Start | Length | Start sector | End sector
––––––––––––––––––––––––––––-
1 | 0:00.00 | 0:53.34 | 0 | 4008
2 | 0:53.34 | 4:47.50 | 4009 | 25583
3 | 5:41.09 | 4:40.40 | 25584 | 46623
4 | 10:21.49 | 4:42.07 | 46624 | 67780
5 | 15:03.56 | 3:59.51 | 67781 | 85756
6 | 19:03.32 | 3:40.22 | 85757 | 102278
7 | 22:43.54 | 2:53.39 | 102279 | 115292
8 | 25:37.18 | 4:05.20 | 115293 | 133687
9 | 29:42.38 | 4:26.27 | 133688 | 153664
10 | 34:08.65 | 3:29.52 | 153665 | 169391
11 | 37:38.42 | 2:02.31 | 169392 | 178572
12 | 39:40.73 | 3:56.65 | 178573 | 196337
13 | 43:37.63 | 5:55.74 | 196338 | 223036
14 | 49:33.62 | 2:58.45 | 223037 | 236431
15 | 52:32.32 | 2:47.23 | 236432 | 248979
16 | 55:19.55 | 6:14.74 | 248980 | 277103
17 | 61:34.54 | 3:42.56 | 277104 | 293809


Track 1

Filename C:\tmp\00_RED\01 - Slippery St. Paul.wav

Pre-gap length 0:00:02.00

Peak level 21.4 %
Extraction speed 4.7 X
Track quality 99.8 %
Test CRC B47AD1C3
Copy CRC B47AD1C3
Accurately ripped (confidence 1) [ABC6617E] (AR v2)
Copy OK

Track 2

Filename C:\tmp\00_RED\02 - Takin' It To The Street.wav

Peak level 99.6 %
Extraction speed 9.0 X
Track quality 100.0 %
Test CRC FF4E0348
Copy CRC FF4E0348
Accurately ripped (confidence 1) [94CCC905] (AR v2)
Copy OK

Track 3

Filename C:\tmp\00_RED\03 - Jesus Is Just Alright.wav

Peak level 99.4 %
Extraction speed 8.8 X
Track quality 99.9 %
Test CRC 3F743D81
Copy CRC 3F743D81
Accurately ripped (confidence 1) [9B73D4F0] (AR v2)
Copy OK

Track 4

Filename C:\tmp\00_RED\04 - Minute By Minute.wav

Peak level 99.3 %
Extraction speed 10.8 X
Track quality 100.0 %
Test CRC B9B16636
Copy CRC B9B16636
Accurately ripped (confidence 1) [C5640641] (AR v2)
Copy OK

Track 5

Filename C:\tmp\00_RED\05 - Can't Let It Get Away.wav

Peak level 100.0 %
Extraction speed 9.7 X
Track quality 99.9 %
Test CRC B3F364F9
Copy CRC B3F364F9
Accurately ripped (confidence 1) [F59D49A3] (AR v2)
Copy OK

Track 6

Filename C:\tmp\00_RED\06 - Listen To The Music.wav

Peak level 100.0 %
Extraction speed 11.9 X
Track quality 100.0 %
Test CRC 5EC5E395
Copy CRC 5EC5E395
Accurately ripped (confidence 1) [76206DD2] (AR v2)
Copy OK

Track 7

Filename C:\tmp\00_RED\07 - Echoes Of Love.wav

Peak level 99.9 %
Extraction speed 12.1 X
Track quality 100.0 %
Test CRC 7586EE2C
Copy CRC 7586EE2C
Accurately ripped (confidence 1) [310801E6] (AR v2)
Copy OK

Track 8

Filename C:\tmp\00_RED\08 - What A Fool Believes.wav

Peak level 100.0 %
Extraction speed 12.9 X
Track quality 100.0 %
Test CRC 80547242
Copy CRC 80547242
Accurately ripped (confidence 1) [D86676D3] (AR v2)
Copy OK

Track 9

Filename C:\tmp\00_RED\09 - Black Water.wav

Peak level 100.0 %
Extraction speed 13.5 X
Track quality 100.0 %
Test CRC 86671F72
Copy CRC 86671F72
Accurately ripped (confidence 1) [521BDE34] (AR v2)
Copy OK

Track 10

Filename C:\tmp\00_RED\10 - You Belong To Me.wav

Peak level 100.0 %
Extraction speed 13.7 X
Track quality 100.0 %
Test CRC 4B1D8A3E
Copy CRC 4B1D8A3E
Accurately ripped (confidence 1) [12DAFA14] (AR v2)
Copy OK

Track 11

Filename C:\tmp\00_RED\11 - Slat Key Soquel Rag.wav

Peak level 72.3 %
Extraction speed 13.5 X
Track quality 100.0 %
Test CRC BCA33C27
Copy CRC BCA33C27
Accurately ripped (confidence 1) [B63F86F6] (AR v2)
Copy OK

Track 12

Filename C:\tmp\00_RED\12 - Streamer Lane Breakdown.wav

Peak level 100.0 %
Extraction speed 14.5 X
Track quality 100.0 %
Test CRC 5948A573
Copy CRC 5948A573
Accurately ripped (confidence 1) [C0E2059D] (AR v2)
Copy OK

Track 13

Filename C:\tmp\00_RED\13 - South City Midnight Lady.wav

Peak level 99.8 %
Extraction speed 15.5 X
Track quality 100.0 %
Test CRC F9514B2E
Copy CRC F9514B2E
Accurately ripped (confidence 1) [FEFE0093] (AR v2)
Copy OK

Track 14

Filename C:\tmp\00_RED\14 - Olana.wav

Peak level 99.0 %
Extraction speed 11.9 X
Track quality 99.9 %
Test CRC FE7F6121
Copy CRC FE7F6121
Accurately ripped (confidence 1) [7BE68482] (AR v2)
Copy OK

Track 15

Filename C:\tmp\00_RED\15 - Don't Start Me Talkin'.wav

Peak level 100.0 %
Extraction speed 11.3 X
Track quality 99.9 %
Test CRC A8072B0A
Copy CRC A8072B0A
Accurately ripped (confidence 1) [BF1B67DB] (AR v2)
Copy OK

Track 16

Filename C:\tmp\00_RED\16 - Long Train Runnin'.wav

Peak level 100.0 %
Extraction speed 16.2 X
Track quality 100.0 %
Test CRC CF15A24D
Copy CRC CF15A24D
Accurately ripped (confidence 1) [C26EDC0B] (AR v2)
Copy OK

Track 17

Filename C:\tmp\00_RED\17 - China Grove.wav

Peak level 100.0 %
Extraction speed 14.7 X
Track quality 99.9 %
Test CRC F4A3343F
Copy CRC F4A3343F
Accurately ripped (confidence 1) [50497102] (AR v2)
Copy OK


All tracks accurately ripped

No errors occurred

End of status report

–– CUETools DB Plugin V2.1.6

[CTDB TOCID: shTpKYP.S6kCHd_0I8.qm1Yl65A-] found
Submit result: shTpKYP.S6kCHd_0I8.qm1Yl65A- has been confirmed
Track | CTDB Status
1 | (11/11) Accurately ripped
2 | (11/11) Accurately ripped
3 | (11/11) Accurately ripped
4 | (11/11) Accurately ripped
5 | (11/11) Accurately ripped
6 | (11/11) Accurately ripped
7 | (11/11) Accurately ripped
8 | (11/11) Accurately ripped
9 | (11/11) Accurately ripped
10 | (11/11) Accurately ripped
11 | (11/11) Accurately ripped
12 | (11/11) Accurately ripped
13 | (11/11) Accurately ripped
14 | (11/11) Accurately ripped
15 | (11/11) Accurately ripped
16 | (11/11) Accurately ripped
17 | (11/11) Accurately ripped


==== Log checksum 0667A6A7B228F684D006711866F1C331666C6C95D42BD4D521B75B5B35F33A5E ====

The Doobie Brothers - Farewell Tour (1983) {2017, Hybrid SACD, Remastered, Japan}

All thanks go to the original ripper(s) …

>>> "The Doobie Brothers" in my Blog <<<

Download from icerbox.com: