Subcategories

The Doors - 40th Anniversary Mixes [2007, 6CD, ELEKTRA/Rhino 8122-79998] Re-up

Posted By: v3122
The Doors - 40th Anniversary Mixes [2007, 6CD, ELEKTRA/Rhino 8122-79998] Re-up

The Doors - 40th Anniversary Mixes [2007, 6CD, ELEKTRA/Rhino 8122-79998]
Rock | EAC Rip | Flac(Image) + Cue + Log | MP3 CBR 320Kbps
Scans | ELEKTRA/Rhino | 8122-79998 | ~2225 + 879 Mb
Includes Exclusive Bonus Tracks

The Doors - 40th Anniversary Mixes [2007, 6CD, ELEKTRA/Rhino 8122-79998] Re-up

The Doors:

Formed: 1965 07, Los Angeles, CA
Disbanded: 1973
Genres: Rock
Representative Albums: "Legacy: The Absolute Best", "Strange Days/L.A. Woman", "The Doors/Waiting for the Sun"
Representative Songs: "Light My Fire", "Roadhouse Blues", "The End"

The Doors, one of the most influential and controversial rock bands of the 1960s, were formed in Los Angeles in 1965 by UCLA film students Ray Manzarek, keyboards, and Jim Morrison, vocals; with drummer John Densmore and guitarist Robby Krieger. The group never added a bass player, and their sound was dominated by Manzarek's electric organ work and Morrison's deep, sonorous voice, with which he sang and intoned his highly poetic lyrics. The group signed to Elektra Records in 1966 and released its first album, The Doors, featuring the hit "Light My Fire," in 1967.

Like "Light My Fire," the debut album was a massive hit, and endures as one of the most exciting, groundbreaking recordings of the psychedelic era. Blending blues, classical, Eastern music, and pop into sinister but beguiling melodies, the band sounded like no other. With his rich, chilling vocals and somber poetic visions, Morrison explored the depths of the darkest and most thrilling aspects of the psychedelic experience. Their first effort was so stellar, in fact, that the Doors were hard-pressed to match it, and although their next few albums contained a wealth of first-rate material, the group also began running up against the limitations of their recklessly disturbing visions. By their third album, they had exhausted their initial reservoir of compositions, and some of the tracks they hurriedly devised to meet public demand were clearly inferior to, and imitative of, their best early work.

On The Soft Parade, the group experimented with brass sections, with mixed results. Accused (without much merit) by much of the rock underground as pop sellouts, the group charged back hard with the final two albums they recorded with Morrison, on which they drew upon stone-cold blues for much of their inspiration, especially on 1971's L.A. Woman.

From the start, the Doors' focus was the charismatic Morrison, who proved increasingly unstable over the group's brief career. In 1969, Morrison was arrested for indecent exposure during a concert in Miami, an incident that nearly derailed the band. Nevertheless, the Doors managed to turn out a series of successful albums and singles through 1971, when, upon the completion of L.A. Woman, Morrison decamped for Paris. He died there, apparently of a drug overdose. The three surviving Doors tried to carry on without him, but ultimately disbanded. Yet the Doors' music and Morrison's legend continued to fascinate succeeding generations of rock fans: In the mid-'80s, Morrison was as big a star as he'd been in the mid-'60s, and Elektra has sold numerous quantities of the Doors' original albums plus reissues and releases of live material over the years, while publishers have flooded bookstores with Doors and Morrison biographies. In 1991, director Oliver Stone made The Doors, a feature film about the group starring Val Kilmer as Morrison.

~ William Ruhlmann & Richie Unterberger, Rovi

The Doors - 40th Anniversary Mixes [2007, 6CD, ELEKTRA/Rhino 8122-79998] Re-up

CD01: The Doors - The Doors (1967)
Rock | EAC Rip | Flac(Image) + Cue + Log | MP3 CBR 320Kbps
Covers(200dpi) | ELEKTRA/Rhino | 8122-79998-3 | ~334 + 131 Mb | FSonic, HF

The Doors - 40th Anniversary Mixes [2007, 6CD, ELEKTRA/Rhino 8122-79998] Re-up

Tracklist:

01. Break On Through (To The Other Side) [02:25]
02. Soul Kitchen [03:34]
03. The Crystal Ship [02:35]
04. Twentieth Century Fox [02:35]
05. Alabama Song (Whisky Bar) [03:16]
06. Light My Fire [07:01]
07. Back Door Man [03:34]
08. I Looked At You [02:23]
09. End of the Night [02:53]
10. Take it as it Comes [02:17]
11. The End [11:43]

Bonuses:

12. Moonlight Drive (Version 1) [02:43]
13. Moonlight Drive (Version 2) [02:31]
14. Indian Summer (8-19-66 Vocal) [02:38]

Exact Audio Copy V0.99 prebeta 4 from 23. January 2008

Отчёт EAC об извлечении, выполненном 2. декабря 2008, 10:28

The Doors / The Doors [40th Anniversary Mixes]

Дисковод: ATAPI DVD A DH20A4H Adapter: 0 ID: 1

Режим чтения : Достоверность
Использование точного потока : Да
Отключение кэша аудио : Да
Использование указателей C2 : Нет

Коррекция смещения при чтении : 6
Способность читать области Lead-in и Lead-out : Нет
Заполнение пропущенных сэмплов тишиной : Да
Удаление блоков с тишиной в начале и конце : Нет
При вычислениях CRC использовались нулевые сэмплы : Нет
Интерфейс : Встроенный Win32-интерфейс для Win NT/2000

Выходной формат : Пользовательский кодировщик
Выбранный битрейт : 768 kBit/s
Качество : Высокий
Добавление ID3-тэга : Нет
Утилита сжатия : d:\Program Files\Exact Audio Copy\FLAC\FLAC.EXE
Дополнительные параметры : -6 -V -T "ARTIST=%a" -T "TITLE=%t" -T "ALBUM=%g" -T "DATE=%y" -T "TRACKNUMBER=%n" -T "GENRE=%m" -T "COMMENT=%e" %s -o %d


TOC извлечённого CD

Трек | Старт | Длительность | Начальный сектор | Конечный сектор
––––––––––––––––––––––––––––––––––-
1 | 0:00.00 | 2:28.19 | 0 | 11118
2 | 2:28.19 | 3:33.73 | 11119 | 27166
3 | 6:02.17 | 2:34.45 | 27167 | 38761
4 | 8:36.62 | 2:33.61 | 38762 | 50297
5 | 11:10.48 | 3:17.53 | 50298 | 65125
6 | 14:28.26 | 7:00.22 | 65126 | 96647
7 | 21:28.48 | 3:34.10 | 96648 | 112707
8 | 25:02.58 | 2:24.35 | 112708 | 123542
9 | 27:27.18 | 2:50.64 | 123543 | 136356
10 | 30:18.07 | 2:19.37 | 136357 | 146818
11 | 32:37.44 | 11:41.10 | 146819 | 199403
12 | 44:18.54 | 2:42.25 | 199404 | 211578
13 | 47:01.04 | 2:31.25 | 211579 | 222928
14 | 49:32.29 | 2:35.51 | 222929 | 234604


Характеристики диапазона извлечения и сообщения об ошибках

Выбранный диапазон

Имя файла E:\My Documents\My Music\Doors - The Doors [40th Anniversary Mixes].2007\The Doors - The Doors [40th Anniversary Mixes].wav

Пиковый уровень 100.0 %
Качество диапазона 99.9 %
CRC копии 2D10DB85
Копирование… OK

Ошибок не произошло


AccurateRip: сводка

Трек 1 точное извлечение (доверие 34) [B98FAB90]
Трек 2 точное извлечение (доверие 33) [43487E06]
Трек 3 точное извлечение (доверие 34) [D06E0427]
Трек 4 точное извлечение (доверие 33) [828209D5]
Трек 5 точное извлечение (доверие 34) [B0B3B3D6]
Трек 6 точное извлечение (доверие 35) [8FAECECB]
Трек 7 точное извлечение (доверие 33) [E38B5371]
Трек 8 точное извлечение (доверие 33) [0C760494]
Трек 9 точное извлечение (доверие 33) [8DB7470D]
Трек 10 точное извлечение (доверие 33) [B27AF548]
Трек 11 точное извлечение (доверие 34) [925245F8]
Трек 12 точное извлечение (доверие 32) [8ABEBD10]
Трек 13 точное извлечение (доверие 33) [EF83EE9F]
Трек 14 точное извлечение (доверие 31) [5E03C688]

Все треки извлечены точно

Конец отчёта

AUDIOCHECKER v2.0 beta (build 457) - by Dester - opdester@freemail.hu
~~~~~~~~~~~~~~~~~~~~~~~~~~~~~~~~~~
-=== DO NOT EDIT THIS FILE! ===-

Path: …\1967a - The Doors [ELEKTRA-Rhino 8122-79998-3]

01 -=- The Doors - The Doors [40th Anniversary Mixes].flac -=- CDDA (100%)

161945476

[Verification date: 20.11.2010 1:18:41]
[Disc ID: 00199708-01180c04-c10c380e]
Track [ CRC ] Status
01 [b98fab90] (91/185) Accurately ripped as in pressing(s) #1
02 [43487e06] (89/182) Accurately ripped as in pressing(s) #1
03 [d06e0427] (91/184) Accurately ripped as in pressing(s) #1
04 [828209d5] (89/182) Accurately ripped as in pressing(s) #1
05 [b0b3b3d6] (91/186) Accurately ripped as in pressing(s) #1
06 [8faececb] (92/185) Accurately ripped as in pressing(s) #1
07 [e38b5371] (90/182) Accurately ripped as in pressing(s) #1
08 [0c760494] (89/180) Accurately ripped as in pressing(s) #1
09 [8db7470d] (88/179) Accurately ripped as in pressing(s) #1
10 [b27af548] (90/181) Accurately ripped as in pressing(s) #1
11 [925245f8] (90/181) Accurately ripped as in pressing(s) #1
12 [8abebd10] (87/177) Accurately ripped as in pressing(s) #1
13 [ef83ee9f] (89/178) Accurately ripped as in pressing(s) #1
14 [5e03c688] (81/169) Accurately ripped as in pressing(s) #1
Offsetted by -676:
01 [ebf0e83c] (03/185) Accurately ripped as in pressing(s) #7
02 [45a6db6e] (03/182) Accurately ripped as in pressing(s) #7
03 [1935a1c3] (03/184) Accurately ripped as in pressing(s) #7
04 [5ae28bc1] (03/182) Accurately ripped as in pressing(s) #7
05 [04a0cff6] (03/186) Accurately ripped as in pressing(s) #7
06 [738a5077] (03/185) Accurately ripped as in pressing(s) #7
07 [e1143485] (03/182) Accurately ripped as in pressing(s) #7
08 [89114e60] (03/180) Accurately ripped as in pressing(s) #7
09 [346fe825] (03/179) Accurately ripped as in pressing(s) #7
10 [2bf6efc0] (03/181) Accurately ripped as in pressing(s) #7
11 [98421a90] (03/181) Accurately ripped as in pressing(s) #7
12 [9f3f9774] (03/177) Accurately ripped as in pressing(s) #7
13 [f1b9f073] (03/178) Accurately ripped as in pressing(s) #7
14 [ee2eae2e] (02/169) Accurately ripped as in pressing(s) #7
Offsetted by -12:
01 [309bfff4] (08/185) Accurately ripped as in pressing(s) #5
02 [a4459f7e] (08/182) Accurately ripped as in pressing(s) #5
03 [b67496db] (08/184) Accurately ripped as in pressing(s) #5
04 [9886c7f9] (08/182) Accurately ripped as in pressing(s) #5
05 [710e4136] (08/186) Accurately ripped as in pressing(s) #5
06 [96c1da2f] (08/185) Accurately ripped as in pressing(s) #5
07 [b916164d] (08/182) Accurately ripped as in pressing(s) #5
08 [742a0158] (08/180) Accurately ripped as in pressing(s) #5
09 [bb16f515] (08/179) Accurately ripped as in pressing(s) #5
10 [c8544270] (08/181) Accurately ripped as in pressing(s) #5
11 [6b0aca80] (08/181) Accurately ripped as in pressing(s) #5
12 [72df525c] (08/177) Accurately ripped as in pressing(s) #5
13 [200729bb] (08/178) Accurately ripped as in pressing(s) #5
14 [20552fdc] (08/169) Accurately ripped as in pressing(s) #6

Track [ CRC32 ] [W/O NULL] [ LOG ]
– [252EE109] [2D10DB85] W/O NULL
01 [EEDD3F6E] [9B4B144B]
02 [0E4C3733] [94225890]
03 [6A40989B] [C9302F07]
04 [86711DBC] [04EFE97D]
05 [D9625C9B] [EA5E9E97]
06 [662FD2BA] [8435F166]
07 [E4781414] [DA739D63]
08 [60270A4E] [79A6D4F0]
09 [B03C57F0] [508A903F]
10 [C2E00DDB] [C89EEEF5]
11 [0BDD999B] [178FD0E0]
12 [D2C3CFF2] [836F71F6]
13 [7FC68627] [674041E4]
14 [3A855BD4] [10628E4F]

–––––––––––––––––––––––––––––––––

The Doors - 40th Anniversary Mixes [2007, 6CD, ELEKTRA/Rhino 8122-79998] Re-up

CD02: The Doors - Strange Days (1967)
Rock | EAC Rip | Flac(Image) + Cue + Log | MP3 CBR 320Kbps
Covers(200dpi) | ELEKTRA/Rhino | 8122-79998-4 | ~263 + 106 Mb

The Doors - 40th Anniversary Mixes [2007, 6CD, ELEKTRA/Rhino 8122-79998] Re-up

Tracklist:

01. Strange Days [03:09]
02. You're Lost Little Girl [03:05]
03. Love Me Two Times [03:16]
04. Unhappy Girl [01:57]
05. Horse Lattitudes [01:35]
06. Moonlight Drive [03:05]
07. People Are Strange [02:12]
08. My Eyes Have Seen You [02:32]
09. I Can't See Your Face In My Mind [03:24]
10. When The Music's Over [11:08]

Bonuses:

11. People Are Strange (False Starts & Studio Dialogue) [01:58]
12. Love Me Two Times (Take 3) [03:20]

Exact Audio Copy V0.99 prebeta 5 from 4. May 2009

Отчёт EAC об извлечении, выполненном 21. июля 2009, 0:36

The Doors / Strange Days

Дисковод: ATAPI DVD A DH20A4H Adapter: 0 ID: 1

Режим чтения : Достоверность
Использование точного потока : Да
Отключение кэша аудио : Да
Использование указателей C2 : Нет

Коррекция смещения при чтении : 6
Способность читать области Lead-in и Lead-out : Нет
Заполнение пропущенных сэмплов тишиной : Да
Удаление блоков с тишиной в начале и конце : Нет
При вычислениях CRC использовались нулевые сэмплы : Нет
Интерфейс : Встроенный Win32-интерфейс для Win NT/2000

Выходной формат : Пользовательский кодировщик
Выбранный битрейт : 768 kBit/s
Качество : Высокий
Добавление ID3-тэга : Нет
Утилита сжатия : d:\Program Files\Exact Audio Copy\FLAC\FLAC.EXE
Дополнительные параметры : -6 -V -T "ARTIST=%a" -T "TITLE=%t" -T "ALBUM=%g" -T "DATE=%y" -T "TRACKNUMBER=%n" -T "GENRE=%m" -T "COMMENT=%e" %s -o %d


TOC извлечённого CD

Трек | Старт | Длительность | Начальный сектор | Конечный сектор
––––––––––––––––––––––––––––––––––-
1 | 0:00.00 | 3:09.35 | 0 | 14209
2 | 3:09.35 | 3:05.10 | 14210 | 28094
3 | 6:14.45 | 3:15.54 | 28095 | 42773
4 | 9:30.24 | 1:57.17 | 42774 | 51565
5 | 11:27.41 | 1:34.65 | 51566 | 58680
6 | 13:02.31 | 3:05.12 | 58681 | 72567
7 | 16:07.43 | 2:11.67 | 72568 | 82459
8 | 18:19.35 | 2:31.57 | 82460 | 93841
9 | 20:51.17 | 3:24.37 | 93842 | 109178
10 | 24:15.54 | 11:08.04 | 109179 | 159282
11 | 35:23.58 | 1:57.69 | 159283 | 168126
12 | 37:21.52 | 3:19.31 | 168127 | 183082


Характеристики диапазона извлечения и сообщения об ошибках

Выбранный диапазон

Имя файла E:\My Documents\My Music\The Doors\The Doors - Strange Days [40th Anniversary Mixes]\The Doors - Strange Days.wav

Пиковый уровень 100.0 %
Качество диапазона 100.0 %
CRC копии 44420D1F
Копирование… OK

Ошибок не произошло


AccurateRip: сводка

Трек 1 точное извлечение (доверие 28) [2EEA0CFB]
Трек 2 точное извлечение (доверие 27) [7542A4BB]
Трек 3 точное извлечение (доверие 28) [BE45AE5F]
Трек 4 точное извлечение (доверие 27) [1CFEC797]
Трек 5 точное извлечение (доверие 27) [F33AA10D]
Трек 6 точное извлечение (доверие 27) [5A48327B]
Трек 7 точное извлечение (доверие 28) [A6002969]
Трек 8 точное извлечение (доверие 27) [59556AFA]
Трек 9 точное извлечение (доверие 27) [9084BD7F]
Трек 10 точное извлечение (доверие 28) [BE32CC14]
Трек 11 точное извлечение (доверие 28) [99BD862B]
Трек 12 точное извлечение (доверие 28) [1D7B40E6]

Все треки извлечены точно

Конец отчёта

AUDIOCHECKER v2.0 beta (build 457) - by Dester - opdester@freemail.hu
~~~~~~~~~~~~~~~~~~~~~~~~~~~~~~~~~~
-=== DO NOT EDIT THIS FILE! ===-

Path: …\1967b - Strange Days [ELEKTRA-Rhino 8122-79998-4]

01 -=- The Doors - Strange Days.flac -=- CDDA (99%)

246627620

[Verification date: 03.12.2010 15:18:46]
[Disc ID: 00103bbc-009ad682-a109890c]
Track [ CRC ] Status
01 [2eea0cfb] (67/120) Accurately ripped as in pressing(s) #1
02 [7542a4bb] (66/119) Accurately ripped as in pressing(s) #1
03 [be45ae5f] (67/120) Accurately ripped as in pressing(s) #1
04 [1cfec797] (66/119) Accurately ripped as in pressing(s) #1
05 [f33aa10d] (66/119) Accurately ripped as in pressing(s) #1
06 [5a48327b] (66/118) Accurately ripped as in pressing(s) #1
07 [a6002969] (67/120) Accurately ripped as in pressing(s) #1
08 [59556afa] (66/119) Accurately ripped as in pressing(s) #1
09 [9084bd7f] (66/119) Accurately ripped as in pressing(s) #1
10 [be32cc14] (67/121) Accurately ripped as in pressing(s) #1
11 [99bd862b] (65/117) Accurately ripped as in pressing(s) #1
12 [1d7b40e6] (65/113) Accurately ripped as in pressing(s) #1
Offsetted by -676:
01 [d68d0b89] (02/120) Accurately ripped as in pressing(s) #5
02 [31b88297] (02/119) Accurately ripped as in pressing(s) #5
03 [64e22f53] (02/120) Accurately ripped as in pressing(s) #5
04 [a345d979] (02/119) Accurately ripped as in pressing(s) #5
05 [d695f1a0] (02/119) Accurately ripped as in pressing(s) #5
06 [888aa986] (02/118) Accurately ripped as in pressing(s) #5
07 [2434bb2b] (02/120) Accurately ripped as in pressing(s) #5
08 [e1be7168] (02/119) Accurately ripped as in pressing(s) #5
09 [b0477a5e] (02/119) Accurately ripped as in pressing(s) #5
10 [695f0d8a] (02/121) Accurately ripped as in pressing(s) #5
11 [1453ed7a] (02/117) Accurately ripped as in pressing(s) #5
12 [9facc979] (02/113) Accurately ripped as in pressing(s) #5
Offsetted by -670:
01 [23ab5ed6] (06/120) Accurately ripped as in pressing(s) #4
02 [875f01fd] (06/119) Accurately ripped as in pressing(s) #4
03 [b781eaf7] (06/120) Accurately ripped as in pressing(s) #4
04 [94426d91] (06/119) Accurately ripped as in pressing(s) #4
05 [13694959] (06/119) Accurately ripped as in pressing(s) #4
06 [9743c5fb] (06/118) Accurately ripped as in pressing(s) #4
07 [ae698ba4] (06/120) Accurately ripped as in pressing(s) #4
08 [6b51caa3] (06/119) Accurately ripped as in pressing(s) #4
09 [e98a00ee] (06/119) Accurately ripped as in pressing(s) #4
10 [a3f768c0] (06/121) Accurately ripped as in pressing(s) #4
11 [75fee057] (06/117) Accurately ripped as in pressing(s) #4
12 [8e8832ec] (05/113) Accurately ripped as in pressing(s) #4
Offsetted by -12:
01 [5868741a] (06/120) Accurately ripped as in pressing(s) #3
02 [a1fa3a1a] (06/119) Accurately ripped as in pressing(s) #3
03 [1920373d] (06/120) Accurately ripped as in pressing(s) #3
04 [59eb8117] (06/119) Accurately ripped as in pressing(s) #3
05 [49417af1] (06/119) Accurately ripped as in pressing(s) #3
06 [309b9b4c] (06/118) Accurately ripped as in pressing(s) #3
07 [545a4616] (06/120) Accurately ripped as in pressing(s) #3
08 [0806b88e] (06/119) Accurately ripped as in pressing(s) #3
09 [e73f79ce] (06/119) Accurately ripped as in pressing(s) #3
10 [bcbe8ada] (06/121) Accurately ripped as in pressing(s) #3
11 [ef762df0] (06/117) Accurately ripped as in pressing(s) #3
12 [f332d1a1] (06/113) Accurately ripped as in pressing(s) #3
Offsetted by -6:
01 [e13d4695] (37/120) Accurately ripped as in pressing(s) #2
02 [1f7c255e] (37/119) Accurately ripped as in pressing(s) #2
03 [d2d43ef9] (37/120) Accurately ripped as in pressing(s) #2
04 [2c5e3349] (37/119) Accurately ripped as in pressing(s) #2
05 [4357a008] (37/119) Accurately ripped as in pressing(s) #2
06 [c0bc14d0] (36/118) Accurately ripped as in pressing(s) #2
07 [9d019817] (37/120) Accurately ripped as in pressing(s) #2
08 [b0ad11c5] (37/119) Accurately ripped as in pressing(s) #2
09 [bc6936d5] (37/119) Accurately ripped as in pressing(s) #2
10 [f90870c5] (38/121) Accurately ripped as in pressing(s) #2
11 [7dddb87f] (36/117) Accurately ripped as in pressing(s) #2
12 [08938ab8] (35/113) Accurately ripped as in pressing(s) #2
Offsetted by 6:
01 [4003a205] (02/120) Accurately ripped as in pressing(s) #6
02 [cb0c2415] (02/119) Accurately ripped as in pressing(s) #6
03 [c5401dbd] (02/120) Accurately ripped as in pressing(s) #6
04 [0d925bed] (02/119) Accurately ripped as in pressing(s) #6
05 [8799f328] (02/119) Accurately ripped as in pressing(s) #6
06 [47f74591] (02/118) Accurately ripped as in pressing(s) #6
07 [ee50bac2] (02/120) Accurately ripped as in pressing(s) #6
08 [e356e337] (02/119) Accurately ripped as in pressing(s) #6
09 [ff44a900] (02/119) Accurately ripped as in pressing(s) #6
10 [8522b1ff] (02/121) Accurately ripped as in pressing(s) #6
11 [d22d9965] (02/117) Accurately ripped as in pressing(s) #6
12 [e9431706] (00/113) No matches

Track [ CRC32 ] [W/O NULL] [ LOG ]
– [1ADB6ED9] [44420D1F] W/O NULL
01 [28CD1034] [D5D0B786]
02 [EE9B0690] [F839F560]
03 [B9FCCEEB] [2380467D]
04 [21820BF6] [2E041B1D]
05 [647AA5AC] [80BC5181]
06 [21F7D8F8] [1FB67082]
07 [4B458A36] [1A9968E7]
08 [50D5E61C] [75476B51]
09 [E01D8D17] [56F832D6]
10 [2E0DFE72] [2175C629]
11 [091D8920] [8DDEC5D4]
12 [774CBC17] [C72E36A0]

–––––––––––––––––––––––––––––––––

The Doors - 40th Anniversary Mixes [2007, 6CD, ELEKTRA/Rhino 8122-79998] Re-up

CD03: The Doors - Waiting For The Sun (1968)
Rock | EAC Rip | Flac(Image) + Cue + Log | MP3 CBR 320Kbps
Covers(200dpi) | ELEKTRA/Rhino | 8122-79998-0 | ~425 + 162 Mb

The Doors - 40th Anniversary Mixes [2007, 6CD, ELEKTRA/Rhino 8122-79998] Re-up

Tracklist:

01. Hello, I Love You [02:40]
02. Love Street [02:57]
03. Not To Touch the Earth [04:00]
04. Summer's Almost Gone [03:23]
05. Wintertime Love [01:57]
06. The Unknown Soldier [03:27]
07. Spanish Caravan [03:02]
08. My Wild Love [03:01]
09. We Could Be So Good Together [02:24]
10. Yes, The River Knows [02:43]
11. Five To One [04:33]

Bonuses:

12. Albinoni's Adagio in G Minor [04:32]
13. Not To Touch The Earth (Dialogue) [00:44]
14. Not To Touch The Earth (Take 1) [03:59]
15. Not To Touch The Earth (Take 2) [04:18]
16. Celebration Of The Lizard (Work In Progress) [17:10]

Exact Audio Copy V0.99 prebeta 4 from 23. January 2008

Отчёт EAC об извлечении, выполненном 9. июля 2009, 12:35

The Doors / Waiting For The Sun [40Th Anniversary Rhino Remaster]

Дисковод: Optiarc DVD RW AD-7173A Adapter: 0 ID: 0

Режим чтения : Достоверность
Использование точного потока : Да
Отключение кэша аудио : Да
Использование указателей C2 : Нет

Коррекция смещения при чтении : 48
Способность читать области Lead-in и Lead-out : Нет
Заполнение пропущенных сэмплов тишиной : Да
Удаление блоков с тишиной в начале и конце : Нет
При вычислениях CRC использовались нулевые сэмплы : Нет
Интерфейс : Установленный внешний ASPI-интерфейс

Выходной формат : Пользовательский кодировщик
Выбранный битрейт : 768 kBit/s
Качество : Высокий
Добавление ID3-тэга : Нет
Утилита сжатия : D:\Program Files\FLAC\flac.exe
Дополнительные параметры : -6 -V -T "ARTIST=%a" -T "TITLE=%t" -T "ALBUM=%g" -T "DATE=%y" -T "TRACKNUMBER=%n" -T "GENRE=%m" -T "COMMENT=%e" %s -o %d


TOC извлечённого CD

Трек | Старт | Длительность | Начальный сектор | Конечный сектор
––––––––––––––––––––––––––––––––––-
1 | 0:00.00 | 2:40.34 | 0 | 12033
2 | 2:40.34 | 2:56.61 | 12034 | 25294
3 | 5:37.20 | 4:00.38 | 25295 | 43332
4 | 9:37.58 | 3:22.72 | 43333 | 58554
5 | 13:00.55 | 1:56.45 | 58555 | 67299
6 | 14:57.25 | 3:26.72 | 67300 | 82821
7 | 18:24.22 | 3:02.36 | 82822 | 96507
8 | 21:26.58 | 3:01.07 | 96508 | 110089
9 | 24:27.65 | 2:23.57 | 110090 | 120871
10 | 26:51.47 | 2:42.32 | 120872 | 133053
11 | 29:34.04 | 4:33.35 | 133054 | 153563
12 | 34:07.39 | 4:32.35 | 153564 | 173998
13 | 38:39.74 | 0:43.34 | 173999 | 177257
14 | 39:23.33 | 3:59.37 | 177258 | 195219
15 | 43:22.70 | 4:17.48 | 195220 | 214542
16 | 47:40.43 | 17:09.33 | 214543 | 291750


Характеристики диапазона извлечения и сообщения об ошибках

Выбранный диапазон

Имя файла F:\Documents and Settings\Aleksandr\My Documents\My Music\The Doors\The Doors - Waiting For The Sun [40Th Anniversary Mixes]\The Doors - Waiting For The Sun [40Th Anniversary Rhino Remaster].wav

Пиковый уровень 100.0 %
Качество диапазона 100.0 %
CRC копии 0E343A16
Копирование… OK

Ошибок не произошло


AccurateRip: сводка

Трек 1 точное извлечение (доверие 23) [27919C87]
Трек 2 точное извлечение (доверие 23) [6B0FEE33]
Трек 3 точное извлечение (доверие 22) [B023C21D]
Трек 4 точное извлечение (доверие 22) [CB68A623]
Трек 5 точное извлечение (доверие 22) [6F5C3480]
Трек 6 точное извлечение (доверие 23) [FE11894B]
Трек 7 точное извлечение (доверие 23) [BB0D604D]
Трек 8 точное извлечение (доверие 22) [4CA5E95A]
Трек 9 точное извлечение (доверие 22) [DC9DC425]
Трек 10 точное извлечение (доверие 22) [E7734ABA]
Трек 11 точное извлечение (доверие 23) [BD83AC56]
Трек 12 точное извлечение (доверие 21) [131126A0]
Трек 13 точное извлечение (доверие 21) [600F0656]
Трек 14 точное извлечение (доверие 21) [501A6507]
Трек 15 точное извлечение (доверие 21) [F4926AF0]
Трек 16 точное извлечение (доверие 21) [BDE18AEE]

Все треки извлечены точно

Конец отчёта

AUDIOCHECKER v2.0 beta (build 457) - by Dester - opdester@freemail.hu
~~~~~~~~~~~~~~~~~~~~~~~~~~~~~~~~~~
-=== DO NOT EDIT THIS FILE! ===-

Path: …\1968 - Waiting For The Sun [ELEKTRA-Rhino 8122-79998-0]

01 -=- The Doors - Waiting For The Sun [40Th Anniversary Rhino Remaster].flac -=- CDDA (99%)

240499220

[Verification date: 03.12.2010 15:19:41]
[Disc ID: 001dd966-016c8fd5-ee0f3210]
Track [ CRC ] Status
01 [27919c87] (63/98) Accurately ripped as in pressing(s) #1
02 [6b0fee33] (63/98) Accurately ripped as in pressing(s) #1
03 [b023c21d] (62/98) Accurately ripped as in pressing(s) #1
04 [cb68a623] (62/96) Accurately ripped as in pressing(s) #1
05 [6f5c3480] (62/97) Accurately ripped as in pressing(s) #1
06 [fe11894b] (63/99) Accurately ripped as in pressing(s) #1
07 [bb0d604d] (63/98) Accurately ripped as in pressing(s) #1
08 [4ca5e95a] (62/97) Accurately ripped as in pressing(s) #1
09 [dc9dc425] (62/97) Accurately ripped as in pressing(s) #1
10 [e7734aba] (62/97) Accurately ripped as in pressing(s) #1
11 [bd83ac56] (63/99) Accurately ripped as in pressing(s) #1
12 [131126a0] (61/95) Accurately ripped as in pressing(s) #1
13 [600f0656] (61/92) Accurately ripped as in pressing(s) #1
14 [501a6507] (61/92) Accurately ripped as in pressing(s) #1
15 [f4926af0] (61/92) Accurately ripped as in pressing(s) #1
16 [bde18aee] (60/89) Accurately ripped as in pressing(s) #1
Offsetted by -670:
01 [7904c754] (05/98) Accurately ripped as in pressing(s) #4
02 [08147414] (05/98) Accurately ripped as in pressing(s) #4
03 [a6db5432] (05/98) Accurately ripped as in pressing(s) #4
04 [8ead8ead] (05/96) Accurately ripped as in pressing(s) #4
05 [b5611bf4] (05/97) Accurately ripped as in pressing(s) #4
06 [e9c39eaf] (05/99) Accurately ripped as in pressing(s) #4
07 [cd10739d] (05/98) Accurately ripped as in pressing(s) #4
08 [03df307d] (05/97) Accurately ripped as in pressing(s) #4
09 [19ad0cbb] (05/97) Accurately ripped as in pressing(s) #4
10 [fc6adf22] (05/97) Accurately ripped as in pressing(s) #4
11 [12c85bdb] (05/99) Accurately ripped as in pressing(s) #4
12 [6d83bab1] (05/95) Accurately ripped as in pressing(s) #4
13 [bd347505] (05/92) Accurately ripped as in pressing(s) #4
14 [c8722ff7] (05/92) Accurately ripped as in pressing(s) #4
15 [8d69fdb9] (05/92) Accurately ripped as in pressing(s) #4
16 [5dc10a92] (04/89) Accurately ripped as in pressing(s) #4
Offsetted by -12:
01 [b97473cb] (05/98) Accurately ripped as in pressing(s) #3
02 [4e4c07b0] (05/98) Accurately ripped as in pressing(s) #3
03 [26a25d9d] (05/98) Accurately ripped as in pressing(s) #3
04 [60970edc] (05/96) Accurately ripped as in pressing(s) #3
05 [427730eb] (05/97) Accurately ripped as in pressing(s) #3
06 [f6437871] (05/99) Accurately ripped as in pressing(s) #3
07 [044ed126] (05/98) Accurately ripped as in pressing(s) #3
08 [04bd8f82] (05/97) Accurately ripped as in pressing(s) #3
09 [e8323986] (05/97) Accurately ripped as in pressing(s) #3
10 [7ece7b27] (05/97) Accurately ripped as in pressing(s) #3
11 [1cc16540] (05/99) Accurately ripped as in pressing(s) #3
12 [63a86dd2] (05/95) Accurately ripped as in pressing(s) #3
13 [bb817dca] (05/92) Accurately ripped as in pressing(s) #3
14 [6fe4ecee] (05/92) Accurately ripped as in pressing(s) #3
15 [fa2bee1f] (05/92) Accurately ripped as in pressing(s) #3
16 [c51b5886] (05/89) Accurately ripped as in pressing(s) #3
Offsetted by -6:
01 [c7b89930] (25/98) Accurately ripped as in pressing(s) #2
02 [5674740a] (25/98) Accurately ripped as in pressing(s) #2
03 [ece991a1] (26/98) Accurately ripped as in pressing(s) #2
04 [4cc12403] (24/96) Accurately ripped as in pressing(s) #2
05 [8911e22b] (25/97) Accurately ripped as in pressing(s) #2
06 [d83800f6] (26/99) Accurately ripped as in pressing(s) #2
07 [2bee34eb] (25/98) Accurately ripped as in pressing(s) #2
08 [a8b13c6e] (25/97) Accurately ripped as in pressing(s) #2
09 [3f617d22] (25/97) Accurately ripped as in pressing(s) #2
10 [d924bca0] (25/97) Accurately ripped as in pressing(s) #2
11 [f11d8a8b] (26/99) Accurately ripped as in pressing(s) #2
12 [e7abca38] (24/95) Accurately ripped as in pressing(s) #2
13 [0efd7eac] (21/92) Accurately ripped as in pressing(s) #2
14 [c84e25dc] (21/92) Accurately ripped as in pressing(s) #2
15 [c7c7fd49] (21/92) Accurately ripped as in pressing(s) #2
16 [fa4206a8] (20/89) Accurately ripped as in pressing(s) #2

Track [ CRC32 ] [W/O NULL] [ LOG ]
– [F97B1707] [0E343A16] W/O NULL
01 [8BF11315] [D4CCD627]
02 [CD79881B] [9D84D1D7]
03 [4C6E67AE] [298C9A24]
04 [94D90ADF] [FC425A4A]
05 [8306D626] [31702076]
06 [7A4F508F] [053A0096]
07 [30D2DB3A] [E146D18D]
08 [9383DA46] [EF527ABE]
09 [32074CAD] [496E4861]
10 [D1971DC1] [64CD9E6D]
11 [57B7B3B3] [156D8525]
12 [EC86AEB5] [26BC1418]
13 [1E5B40F1] [2F8BE5FC]
14 [172B27AA] [9FA8EE70]
15 [2AA53062] [32D30346]
16 [7291F75F] [ED0337A6]

–––––––––––––––––––––––––––––––––

The Doors - 40th Anniversary Mixes [2007, 6CD, ELEKTRA/Rhino 8122-79998] Re-up

CD04: The Doors - The Soft Parade (1969)
Rock | EAC Rip | Flac(Image) + Cue + Log | MP3 CBR 320Kbps
Covers(200dpi) | ELEKTRA/Rhino | 8122-79998-1 | ~343 + 133 Mb

The Doors - 40th Anniversary Mixes [2007, 6CD, ELEKTRA/Rhino 8122-79998] Re-up

Tracklist:

01. Tell All The People [03:21]
02. Touch Me [03:12]
03. Shaman's Blues [04:51]
04. Do It [03:10]
05. Easy Ride [02:41]
06. Wild Child [02:38]
07. Runnin' Blue [02:30]
08. Wishful Sinful [03:00]
09. The Soft Parade [09:41]

Bonuses:

10. Who Scared You [03:59]
11. Whiskey, Mystics and Men [Version 1] [02:29]
12. Whiskey, Mystics and Men [Version 2] [03:05]
13. Push Push [06:05]
14. Touch Me [Dialog] [00:29]
15. Touch Me [Take 3] [03:40]

Exact Audio Copy V0.99 prebeta 5 from 4. May 2009

Отчёт EAC об извлечении, выполненном 16. августа 2009, 22:28

Doors / The Soft Parade

Дисковод: ATAPI DVD A DH20A4H Adapter: 0 ID: 1

Режим чтения : Достоверность
Использование точного потока : Да
Отключение кэша аудио : Да
Использование указателей C2 : Нет

Коррекция смещения при чтении : 6
Способность читать области Lead-in и Lead-out : Нет
Заполнение пропущенных сэмплов тишиной : Да
Удаление блоков с тишиной в начале и конце : Нет
При вычислениях CRC использовались нулевые сэмплы : Нет
Интерфейс : Встроенный Win32-интерфейс для Win NT/2000

Выходной формат : Пользовательский кодировщик
Выбранный битрейт : 768 kBit/s
Качество : Высокий
Добавление ID3-тэга : Нет
Утилита сжатия : d:\Program Files\Exact Audio Copy\FLAC\FLAC.EXE
Дополнительные параметры : -6 -V -T "ARTIST=%a" -T "TITLE=%t" -T "ALBUM=%g" -T "DATE=%y" -T "TRACKNUMBER=%n" -T "GENRE=%m" -T "COMMENT=%e" %s -o %d


TOC извлечённого CD

Трек | Старт | Длительность | Начальный сектор | Конечный сектор
––––––––––––––––––––––––––––––––––-
1 | 0:00.00 | 3:21.47 | 0 | 15121
2 | 3:21.47 | 3:12.14 | 15122 | 29535
3 | 6:33.61 | 4:50.56 | 29536 | 51341
4 | 11:24.42 | 3:10.32 | 51342 | 65623
5 | 14:34.74 | 2:40.71 | 65624 | 77694
6 | 17:15.70 | 2:38.00 | 77695 | 89544
7 | 19:53.70 | 2:29.56 | 89545 | 100775
8 | 22:23.51 | 3:00.00 | 100776 | 114275
9 | 25:23.51 | 9:41.17 | 114276 | 157867
10 | 35:04.68 | 3:58.54 | 157868 | 175771
11 | 39:03.47 | 2:28.45 | 175772 | 186916
12 | 41:32.17 | 3:04.64 | 186917 | 200780
13 | 44:37.06 | 6:05.56 | 200781 | 228211
14 | 50:42.62 | 0:28.13 | 228212 | 230324
15 | 51:11.00 | 3:40.63 | 230325 | 246887


Характеристики диапазона извлечения и сообщения об ошибках

Выбранный диапазон

Имя файла F:\My Music\The Doors\The Doors - The Soft Parade [40th Anniversary Mixes]\Doors - The Soft Parade.wav

Пиковый уровень 89.0 %
Качество диапазона 100.0 %
CRC копии 7483BAA2
Копирование… OK

Ошибок не произошло


AccurateRip: сводка

Трек 1 точное извлечение (доверие 20) [7513A550]
Трек 2 точное извлечение (доверие 21) [8E5351E0]
Трек 3 точное извлечение (доверие 20) [ECFD12A7]
Трек 4 точное извлечение (доверие 20) [EAF69C29]
Трек 5 точное извлечение (доверие 20) [A04CD5D1]
Трек 6 точное извлечение (доверие 20) [8DA07035]
Трек 7 точное извлечение (доверие 20) [A215C5F8]
Трек 8 точное извлечение (доверие 20) [5695249D]
Трек 9 точное извлечение (доверие 19) [1B3882DB]
Трек 10 точное извлечение (доверие 19) [13FDB45C]
Трек 11 точное извлечение (доверие 19) [ADE9B4F8]
Трек 12 точное извлечение (доверие 19) [A6EA7E2B]
Трек 13 точное извлечение (доверие 19) [0B18E0E8]
Трек 14 точное извлечение (доверие 19) [86890B07]
Трек 15 точное извлечение (доверие 19) [977D2D15]

Все треки извлечены точно

Конец отчёта

AUDIOCHECKER v2.0 beta (build 457) - by Dester - opdester@freemail.hu
~~~~~~~~~~~~~~~~~~~~~~~~~~~~~~~~~~
-=== DO NOT EDIT THIS FILE! ===-

Path: …\1969 - The Soft Parade [ELEKTRA-Rhino 8122-79998-1]

01 -=- Doors - The Soft Parade.flac -=- CDDA (100%)

107365108

[Verification date: 03.12.2010 15:25:37]
[Disc ID: 001e11f7-015803f6-d00cdb0f]
Track [ CRC ] Status
01 [7513a550] (50/88) Accurately ripped as in pressing(s) #1
02 [8e5351e0] (52/89) Accurately ripped as in pressing(s) #1
03 [ecfd12a7] (51/88) Accurately ripped as in pressing(s) #1
04 [eaf69c29] (51/88) Accurately ripped as in pressing(s) #1
05 [a04cd5d1] (50/88) Accurately ripped as in pressing(s) #1
06 [8da07035] (51/88) Accurately ripped as in pressing(s) #1
07 [a215c5f8] (51/89) Accurately ripped as in pressing(s) #1
08 [5695249d] (51/88) Accurately ripped as in pressing(s) #1
09 [1b3882db] (50/87) Accurately ripped as in pressing(s) #1
10 [13fdb45c] (48/86) Accurately ripped as in pressing(s) #1
11 [ade9b4f8] (49/86) Accurately ripped as in pressing(s) #1
12 [a6ea7e2b] (49/86) Accurately ripped as in pressing(s) #1
13 [0b18e0e8] (49/85) Accurately ripped as in pressing(s) #1
14 [86890b07] (49/85) Accurately ripped as in pressing(s) #1
15 [977d2d15] (48/84) Accurately ripped as in pressing(s) #1
Offsetted by -676:
01 [cd43eda2] (02/88) Accurately ripped as in pressing(s) #6
02 [d6f10650] (02/89) Accurately ripped as in pressing(s) #6
03 [66d9d56e] (02/88) Accurately ripped as in pressing(s) #6
04 [f8ebf200] (02/88) Accurately ripped as in pressing(s) #6
05 [fbe6da46] (02/88) Accurately ripped as in pressing(s) #6
06 [d1f1df39] (02/88) Accurately ripped as in pressing(s) #6
07 [696c9192] (02/89) Accurately ripped as in pressing(s) #6
08 [d68f67e0] (02/88) Accurately ripped as in pressing(s) #6
09 [843d7d07] (02/87) Accurately ripped as in pressing(s) #6
10 [68e470d9] (02/86) Accurately ripped as in pressing(s) #6
11 [8de1d780] (02/86) Accurately ripped as in pressing(s) #6
12 [69b38c8f] (02/86) Accurately ripped as in pressing(s) #6
13 [b322c3ba] (02/85) Accurately ripped as in pressing(s) #6
14 [b32e047c] (02/85) Accurately ripped as in pressing(s) #6
15 [d62f64b7] (02/84) Accurately ripped as in pressing(s) #6
Offsetted by -670:
01 [e0a84111] (05/88) Accurately ripped as in pressing(s) #3
02 [329c237d] (05/89) Accurately ripped as in pressing(s) #3
03 [1d08641c] (05/88) Accurately ripped as in pressing(s) #3
04 [2ffb6c99] (05/88) Accurately ripped as in pressing(s) #3
05 [a90906c6] (05/88) Accurately ripped as in pressing(s) #3
06 [fa1bba20] (05/88) Accurately ripped as in pressing(s) #3
07 [d5497e0e] (05/89) Accurately ripped as in pressing(s) #3
08 [c8a9de65] (05/88) Accurately ripped as in pressing(s) #3
09 [3a39d158] (05/87) Accurately ripped as in pressing(s) #3
10 [ad5bfcb8] (05/86) Accurately ripped as in pressing(s) #3
11 [498146ed] (05/86) Accurately ripped as in pressing(s) #3
12 [57fb5ce2] (05/86) Accurately ripped as in pressing(s) #3
13 [a017109c] (05/85) Accurately ripped as in pressing(s) #3
14 [a843b7e1] (05/85) Accurately ripped as in pressing(s) #3
15 [0f189c37] (05/84) Accurately ripped as in pressing(s) #3
Offsetted by -68:
01 [8ef395c2] (02/88) Accurately ripped as in pressing(s) #5
02 [7d5561cb] (02/89) Accurately ripped as in pressing(s) #5
03 [a2d17aef] (02/88) Accurately ripped as in pressing(s) #5
04 [f5197617] (02/88) Accurately ripped as in pressing(s) #5
05 [0a67b5a8] (02/88) Accurately ripped as in pressing(s) #5
06 [010410c4] (02/88) Accurately ripped as in pressing(s) #5
07 [647851df] (02/89) Accurately ripped as in pressing(s) #5
08 [a7e388de] (02/88) Accurately ripped as in pressing(s) #5
09 [2df4ae3e] (02/87) Accurately ripped as in pressing(s) #5
10 [38a13725] (02/86) Accurately ripped as in pressing(s) #5
11 [9673e2fe] (02/86) Accurately ripped as in pressing(s) #5
12 [2800ed19] (02/86) Accurately ripped as in pressing(s) #5
13 [56ed8641] (02/85) Accurately ripped as in pressing(s) #5
14 [9880cb94] (02/85) Accurately ripped as in pressing(s) #5
15 [2d93aa50] (02/84) Accurately ripped as in pressing(s) #5
Offsetted by -12:
01 [5decda28] (04/88) Accurately ripped as in pressing(s) #4
02 [36dd6a7f] (04/89) Accurately ripped as in pressing(s) #4
03 [cb1daa02] (04/88) Accurately ripped as in pressing(s) #4
04 [c3c1a87d] (04/88) Accurately ripped as in pressing(s) #4
05 [c2ef2e0f] (04/88) Accurately ripped as in pressing(s) #4
06 [32bd0c4d] (04/88) Accurately ripped as in pressing(s) #4
07 [7d0aa071] (04/89) Accurately ripped as in pressing(s) #4
08 [926a17f9] (04/88) Accurately ripped as in pressing(s) #4
09 [8fb1bc3a] (04/87) Accurately ripped as in pressing(s) #4
10 [89ff5671] (04/86) Accurately ripped as in pressing(s) #4
11 [3217dcba] (04/86) Accurately ripped as in pressing(s) #4
12 [9154154a] (04/86) Accurately ripped as in pressing(s) #4
13 [6b122a12] (04/85) Accurately ripped as in pressing(s) #4
14 [2549f9e1] (04/85) Accurately ripped as in pressing(s) #4
15 [0530f955] (04/84) Accurately ripped as in pressing(s) #4
Offsetted by -6:
01 [fa000a4d] (25/88) Accurately ripped as in pressing(s) #2
02 [38c1349b] (24/89) Accurately ripped as in pressing(s) #2
03 [dc0ade54] (24/88) Accurately ripped as in pressing(s) #2
04 [d75c2253] (24/88) Accurately ripped as in pressing(s) #2
05 [583e5b23] (25/88) Accurately ripped as in pressing(s) #2
06 [0951e741] (24/88) Accurately ripped as in pressing(s) #2
07 [71df1550] (25/89) Accurately ripped as in pressing(s) #2
08 [457ccdff] (24/88) Accurately ripped as in pressing(s) #2
09 [47892e3b] (24/87) Accurately ripped as in pressing(s) #2
10 [cf9e28aa] (25/86) Accurately ripped as in pressing(s) #2
11 [efd14981] (24/86) Accurately ripped as in pressing(s) #2
12 [1b9de5de] (24/86) Accurately ripped as in pressing(s) #2
13 [3a9e76ac] (23/85) Accurately ripped as in pressing(s) #2
14 [36060616] (23/85) Accurately ripped as in pressing(s) #2
15 [ce8394f0] (23/84) Accurately ripped as in pressing(s) #2

Track [ CRC32 ] [W/O NULL] [ LOG ]
– [61DD553C] [7483BAA2] W/O NULL
01 [69CA7986] [F0ACAB75]
02 [35361380] [06A5959A]
03 [792814A9] [EE427CDD]
04 [8F6A91EC] [2FB3160E]
05 [F6E1A55A] [0316E39C]
06 [4A13C5E9] [53A3768F]
07 [1B451FBC] [AA66F6C6]
08 [372E7D74] [A72CF5DE]
09 [7E5AFF97] [07464B31]
10 [CB1FB14F] [B5023808]
11 [BF6E9977] [2E914457]
12 [78D817E5] [B51604FE]
13 [E8ABCA00] [932785E1]
14 [CD142EA5] [E19D706E]
15 [9D41A71D] [4C5B7540]

–––––––––––––––––––––––––––––––––

The Doors - 40th Anniversary Mixes [2007, 6CD, ELEKTRA/Rhino 8122-79998] Re-up

CD05: The Doors - Morrison Hotel (1970)
Rock | EAC Rip | Flac(Image) + Cue + Log | MP3 CBR 320Kbps
Covers(200dpi) | ELEKTRA/Rhino | 8122-79998-5 | ~479 + 198 Mb

The Doors - 40th Anniversary Mixes [2007, 6CD, ELEKTRA/Rhino 8122-79998] Re-up

Tracklist:

01. Roadhouse Blues [04:08]
02. Waiting For The Sun [04:02]
03. You Make Me Real [02:55]
04. Peace Frog [02:51]
05. Blue Sunday [02:11]
06. Ship Of Fools [03:17]
07. Land Ho! [04:14]
08. The Spy [04:22]
09. Queen Of The Highway [02:52]
10. Indian Summer [02:37]
11. Maggie M'Gill [04:22]

Bonuses:

12. Talking Blues [00:59]
13. Roadhouse Blues (11/4/69 takes 1-3) [08:47]
14. Roadhouse Blues (11/4/69 take 6) [09:27]
15. Carol (11/4/69) [00:56]
16. Roadhouse Blues (11/5/69 take 1) [04:33]
17. Money Beats Soul (11/5/69) [01:04]
18. Roadhouse Blues (11/5/69 takes 13-15) [06:22]
19. Peace Frog (false starts & dialogue) [02:00]
20. The Spy (version 2) [03:49]
21. Queen of the Highway (jazz version) [03:36]

Exact Audio Copy V0.99 prebeta 5 from 4. May 2009

Отчёт EAC об извлечении, выполненном 17. июля 2009, 22:37

The Doors / Morrison Hotel

Дисковод: ATAPI DVD A DH20A4H Adapter: 0 ID: 1

Режим чтения : Достоверность
Использование точного потока : Да
Отключение кэша аудио : Да
Использование указателей C2 : Нет

Коррекция смещения при чтении : 6
Способность читать области Lead-in и Lead-out : Нет
Заполнение пропущенных сэмплов тишиной : Да
Удаление блоков с тишиной в начале и конце : Нет
При вычислениях CRC использовались нулевые сэмплы : Нет
Интерфейс : Встроенный Win32-интерфейс для Win NT/2000

Выходной формат : Пользовательский кодировщик
Выбранный битрейт : 768 kBit/s
Качество : Высокий
Добавление ID3-тэга : Нет
Утилита сжатия : d:\Program Files\Exact Audio Copy\FLAC\FLAC.EXE
Дополнительные параметры : -6 -V -T "ARTIST=%a" -T "TITLE=%t" -T "ALBUM=%g" -T "DATE=%y" -T "TRACKNUMBER=%n" -T "GENRE=%m" -T "COMMENT=%e" %s -o %d


TOC извлечённого CD

Трек | Старт | Длительность | Начальный сектор | Конечный сектор
––––––––––––––––––––––––––––––––––-
1 | 0:00.00 | 4:08.11 | 0 | 18610
2 | 4:08.11 | 4:02.44 | 18611 | 36804
3 | 8:10.55 | 2:54.25 | 36805 | 49879
4 | 11:05.05 | 2:51.65 | 49880 | 62769
5 | 13:56.70 | 2:10.46 | 62770 | 72565
6 | 16:07.41 | 3:17.17 | 72566 | 87357
7 | 19:24.58 | 4:14.15 | 87358 | 106422
8 | 23:38.73 | 4:21.18 | 106423 | 126015
9 | 28:00.16 | 2:52.02 | 126016 | 138917
10 | 30:52.18 | 2:37.06 | 138918 | 150698
11 | 33:29.24 | 4:21.55 | 150699 | 170328
12 | 37:51.04 | 0:59.12 | 170329 | 174765
13 | 38:50.16 | 8:47.38 | 174766 | 214328
14 | 47:37.54 | 9:26.67 | 214329 | 256845
15 | 57:04.46 | 0:56.16 | 256846 | 261061
16 | 58:00.62 | 4:32.50 | 261062 | 281511
17 | 62:33.37 | 1:04.36 | 281512 | 286347
18 | 63:37.73 | 6:21.50 | 286348 | 314972
19 | 69:59.48 | 2:00.19 | 314973 | 323991
20 | 71:59.67 | 3:48.18 | 323992 | 341109
21 | 75:48.10 | 3:36.22 | 341110 | 357331


Характеристики диапазона извлечения и сообщения об ошибках

Выбранный диапазон

Имя файла E:\My Documents\My Music\The Doors\The Doors - Morrison Hotel [40th Anniversary Mixes]\The Doors - Morrison Hotel.wav

Пиковый уровень 91.7 %
Качество диапазона 99.9 %
CRC копии 56E9265E
Копирование… OK

Ошибок не произошло


AccurateRip: сводка

Трек 1 точное извлечение (доверие 26) [C85B8169]
Трек 2 точное извлечение (доверие 26) [3CEE3EC9]
Трек 3 точное извлечение (доверие 24) [2E5E4E21]
Трек 4 точное извлечение (доверие 24) [1108EA80]
Трек 5 точное извлечение (доверие 24) [3A25F49A]
Трек 6 точное извлечение (доверие 25) [14C19BA4]
Трек 7 точное извлечение (доверие 24) [79433335]
Трек 8 точное извлечение (доверие 24) [6DBD2B7F]
Трек 9 точное извлечение (доверие 24) [1B86379D]
Трек 10 точное извлечение (доверие 24) [A2CF9FDE]
Трек 11 точное извлечение (доверие 24) [65326D76]
Трек 12 точное извлечение (доверие 23) [3A4E0395]
Трек 13 точное извлечение (доверие 23) [1F885795]
Трек 14 точное извлечение (доверие 23) [CD3662CD]
Трек 15 точное извлечение (доверие 23) [8C9C1D29]
Трек 16 точное извлечение (доверие 23) [D212FF3B]
Трек 17 точное извлечение (доверие 23) [2963CBAA]
Трек 18 точное извлечение (доверие 23) [B49EFA82]
Трек 19 точное извлечение (доверие 23) [A2FB2A59]
Трек 20 точное извлечение (доверие 22) [758A8C80]
Трек 21 точное извлечение (доверие 22) [D09BC19A]

Все треки извлечены точно

Конец отчёта

AUDIOCHECKER v2.0 beta (build 457) - by Dester - opdester@freemail.hu
~~~~~~~~~~~~~~~~~~~~~~~~~~~~~~~~~~
-=== DO NOT EDIT THIS FILE! ===-

Path: …\1970 - Morrison Hotel [ELEKTRA-Rhino 8122-79998-5]

01 -=- The Doors - Morrison Hotel.flac -=- CDDA (99%)

91547332

[Verification date: 03.12.2010 15:26:29]
[Disc ID: 003a7b45-038c2212-2b129c15]
Track [ CRC ] Status
01 [c85b8169] (68/132) Accurately ripped as in pressing(s) #1
02 [3cee3ec9] (68/133) Accurately ripped as in pressing(s) #1
03 [2e5e4e21] (65/131) Accurately ripped as in pressing(s) #1
04 [1108ea80] (66/131) Accurately ripped as in pressing(s) #1
05 [3a25f49a] (66/131) Accurately ripped as in pressing(s) #1
06 [14c19ba4] (66/131) Accurately ripped as in pressing(s) #1
07 [79433335] (66/131) Accurately ripped as in pressing(s) #1
08 [6dbd2b7f] (66/131) Accurately ripped as in pressing(s) #1
09 [1b86379d] (66/131) Accurately ripped as in pressing(s) #1
10 [a2cf9fde] (65/130) Accurately ripped as in pressing(s) #1
11 [65326d76] (65/131) Accurately ripped as in pressing(s) #1
12 [3a4e0395] (63/124) Accurately ripped as in pressing(s) #1
13 [1f885795] (62/121) Accurately ripped as in pressing(s) #1
14 [cd3662cd] (61/120) Accurately ripped as in pressing(s) #1
15 [8c9c1d29] (62/121) Accurately ripped as in pressing(s) #1
16 [d212ff3b] (63/122) Accurately ripped as in pressing(s) #1
17 [2963cbaa] (62/121) Accurately ripped as in pressing(s) #1
18 [b49efa82] (63/122) Accurately ripped as in pressing(s) #1
19 [a2fb2a59] (62/120) Accurately ripped as in pressing(s) #1
20 [758a8c80] (62/118) Accurately ripped as in pressing(s) #1
21 [d09bc19a] (63/118) Accurately ripped as in pressing(s) #1
Offsetted by -670:
01 [63237ba2] (07/132) Accurately ripped as in pressing(s) #4
02 [234a848e] (07/133) Accurately ripped as in pressing(s) #4
03 [79401b4d] (07/131) Accurately ripped as in pressing(s) #4
04 [13ef53cd] (07/131) Accurately ripped as in pressing(s) #4
05 [11351832] (07/131) Accurately ripped as in pressing(s) #4
06 [04a9a3cb] (07/131) Accurately ripped as in pressing(s) #4
07 [f909f45a] (07/131) Accurately ripped as in pressing(s) #4
08 [c7b4edcd] (07/131) Accurately ripped as in pressing(s) #4
09 [95eb090b] (07/131) Accurately ripped as in pressing(s) #4
10 [3619ffdb] (07/130) Accurately ripped as in pressing(s) #4
11 [992c252f] (07/131) Accurately ripped as in pressing(s) #4
12 [41cf153a] (07/124) Accurately ripped as in pressing(s) #4
13 [79e71af7] (07/121) Accurately ripped as in pressing(s) #4
14 [d7eb7bed] (07/120) Accurately ripped as in pressing(s) #4
15 [c3d04d24] (07/121) Accurately ripped as in pressing(s) #4
16 [1994cd79] (07/122) Accurately ripped as in pressing(s) #4
17 [88a469db] (07/121) Accurately ripped as in pressing(s) #4
18 [34dc1b32] (07/122) Accurately ripped as in pressing(s) #4
19 [33261443] (07/120) Accurately ripped as in pressing(s) #4
20 [4fde607e] (07/118) Accurately ripped as in pressing(s) #4
21 [32fe124a] (06/118) Accurately ripped as in pressing(s) #4
Offsetted by -646:
01 [591f38d5] (14/132) Accurately ripped as in pressing(s) #3
02 [7931041f] (14/133) Accurately ripped as in pressing(s) #3
03 [5e5a43a8] (14/131) Accurately ripped as in pressing(s) #3
04 [e60fc325] (14/131) Accurately ripped as in pressing(s) #3
05 [c8fd3dce] (14/131) Accurately ripped as in pressing(s) #3
06 [3023fe7c] (14/131) Accurately ripped as in pressing(s) #3
07 [3b7ef624] (14/131) Accurately ripped as in pressing(s) #3
08 [f98e708e] (14/131) Accurately ripped as in pressing(s) #3
09 [a7baaa52] (14/131) Accurately ripped as in pressing(s) #3
10 [0cd51c27] (14/130) Accurately ripped as in pressing(s) #3
11 [53f68758] (14/131) Accurately ripped as in pressing(s) #3
12 [19aaa700] (12/124) Accurately ripped as in pressing(s) #3
13 [a15b3635] (11/121) Accurately ripped as in pressing(s) #3
14 [dc5780bf] (11/120) Accurately ripped as in pressing(s) #3
15 [caa67759] (11/121) Accurately ripped as in pressing(s) #3
16 [28061c8a] (11/122) Accurately ripped as in pressing(s) #3
17 [e13de695] (11/121) Accurately ripped as in pressing(s) #3
18 [13f97e83] (10/122) Accurately ripped as in pressing(s) #3
19 [aa800d66] (10/120) Accurately ripped as in pressing(s) #3
20 [c2f8217c] (10/118) Accurately ripped as in pressing(s) #3
21 [129ec3b5] (10/118) Accurately ripped as in pressing(s) #3
Offsetted by -136:
01 [cbee6344] (02/132) Accurately ripped as in pressing(s) #6
02 [3aa7d695] (02/133) Accurately ripped as in pressing(s) #6
03 [c2f214ce] (02/131) Accurately ripped as in pressing(s) #6
04 [4e26bc07] (02/131) Accurately ripped as in pressing(s) #6
05 [cd4799f6] (02/131) Accurately ripped as in pressing(s) #6
06 [a8b56bf8] (02/131) Accurately ripped as in pressing(s) #6
07 [f645881b] (02/131) Accurately ripped as in pressing(s) #6
08 [826e80cd] (02/131) Accurately ripped as in pressing(s) #6
09 [07d564dd] (02/131) Accurately ripped as in pressing(s) #6
10 [dd33eca9] (02/130) Accurately ripped as in pressing(s) #6
11 [0ef68dd0] (02/131) Accurately ripped as in pressing(s) #6
12 [2b47b36e] (02/124) Accurately ripped as in pressing(s) #6
13 [9ec73246] (02/121) Accurately ripped as in pressing(s) #6
14 [21a35d04] (02/120) Accurately ripped as in pressing(s) #6
15 [c4ca1f59] (02/121) Accurately ripped as in pressing(s) #6
16 [fcb9ff11] (02/122) Accurately ripped as in pressing(s) #6
17 [018b2a5b] (02/121) Accurately ripped as in pressing(s) #6
18 [cf31696c] (02/122) Accurately ripped as in pressing(s) #6
19 [769701df] (02/120) Accurately ripped as in pressing(s) #6
20 [b9dcee48] (02/118) Accurately ripped as in pressing(s) #6
21 [6c2146e5] (02/118) Accurately ripped as in pressing(s) #6
Offsetted by -12:
01 [f8530e1b] (05/132) Accurately ripped as in pressing(s) #5
02 [1b6be136] (05/133) Accurately ripped as in pressing(s) #5
03 [35271795] (05/131) Accurately ripped as in pressing(s) #5
04 [30603504] (05/131) Accurately ripped as in pressing(s) #5
05 [0a2e0d77] (05/131) Accurately ripped as in pressing(s) #5
06 [7e57eede] (05/131) Accurately ripped as in pressing(s) #5
07 [f41931d5] (05/131) Accurately ripped as in pressing(s) #5
08 [838a54a9] (05/131) Accurately ripped as in pressing(s) #5
09 [d953c897] (05/131) Accurately ripped as in pressing(s) #5
10 [117a11a6] (05/130) Accurately ripped as in pressing(s) #5
11 [39feebc4] (05/131) Accurately ripped as in pressing(s) #5
12 [4d9f049c] (05/124) Accurately ripped as in pressing(s) #5
13 [a6262fff] (05/121) Accurately ripped as in pressing(s) #5
14 [0570f7f9] (05/120) Accurately ripped as in pressing(s) #5
15 [076d9509] (05/121) Accurately ripped as in pressing(s) #5
16 [d4f36800] (05/122) Accurately ripped as in pressing(s) #5
17 [7b347222] (05/121) Accurately ripped as in pressing(s) #5
18 [2d9a2805] (05/122) Accurately ripped as in pressing(s) #5
19 [d20460eb] (05/120) Accurately ripped as in pressing(s) #5
20 [bce04235] (05/118) Accurately ripped as in pressing(s) #5
21 [c1016562] (05/118) Accurately ripped as in pressing(s) #5
Offsetted by -6:
01 [88227d7d] (34/132) Accurately ripped as in pressing(s) #2
02 [a74c8fc3] (35/133) Accurately ripped as in pressing(s) #2
03 [89bb5ae6] (36/131) Accurately ripped as in pressing(s) #2
04 [f08d2a6c] (35/131) Accurately ripped as in pressing(s) #2
05 [abbebd15] (35/131) Accurately ripped as in pressing(s) #2
06 [c98dc544] (35/131) Accurately ripped as in pressing(s) #2
07 [28beb285] (35/131) Accurately ripped as in pressing(s) #2
08 [2da25abf] (35/131) Accurately ripped as in pressing(s) #2
09 [7a6d8019] (35/131) Accurately ripped as in pressing(s) #2
10 [33e4d8c2] (35/130) Accurately ripped as in pressing(s) #2
11 [3fc42c9c] (36/131) Accurately ripped as in pressing(s) #2
12 [dc449c7e] (33/124) Accurately ripped as in pressing(s) #2
13 [c51c54c6] (32/121) Accurately ripped as in pressing(s) #2
14 [5c86ba52] (32/120) Accurately ripped as in pressing(s) #2
15 [f126eb8c] (32/121) Accurately ripped as in pressing(s) #2
16 [b1365ee5] (32/122) Accurately ripped as in pressing(s) #2
17 [a348120a] (32/121) Accurately ripped as in pressing(s) #2
18 [72feaa47] (33/122) Accurately ripped as in pressing(s) #2
19 [44695a1f] (32/120) Accurately ripped as in pressing(s) #2
20 [e3915170] (30/118) Accurately ripped as in pressing(s) #2
21 [4a36d417] (30/118) Accurately ripped as in pressing(s) #2

Track [ CRC32 ] [W/O NULL] [ LOG ]
– [0870D96C] [56E9265E] W/O NULL
01 [1BAB84C6] [EA3462A4]
02 [574D7B44] [1ECDC8D7]
03 [F33F1D45] [9743ACBF]
04 [78671C8D] [F083B8F5]
05 [CD3BB899] [9955E453]
06 [0F477265] [71D65649]
07 [FC3266FB] [DC84A411]
08 [56259B2E] [C3C0F0A7]
09 [CCA74AF1] [BD060CE9]
10 [6D3E28DC] [FBD53684]
11 [7EA22993] [789D4DEE]
12 [5E67DAB3] [D0607BCF]
13 [A818DF99] [1F5BB88C]
14 [BD549BFE] [A3B3D846]
15 [1FF0B8B3] [62727E2F]
16 [D7AA6D03] [31997D4C]
17 [AD389315] [B6BC84E2]
18 [F49ACF33] [650B1953]
19 [12920E57] [9DBE68DF]
20 [69FC57E0] [3F79809B]
21 [5CAABD06] [459D157E]

–––––––––––––––––––––––––––––––––

The Doors - 40th Anniversary Mixes [2007, 6CD, ELEKTRA/Rhino 8122-79998] Re-up

CD06: The Doors - L.A. Woman (1971)
Rock | EAC Rip | Flac(Image) + Cue + Log | MP3 CBR 320Kbps
Covers(200dpi) | ELEKTRA/Rhino | 8122-79998-6 | ~381 + 149 Mb

The Doors - 40th Anniversary Mixes [2007, 6CD, ELEKTRA/Rhino 8122-79998] Re-up

Tracklist:

01. The Changeling [04:24]
02. Love Her Madly [03:40]
03. Been Down So Long [04:44]
04. Cars Hiss By My Window [04:59]
05. L.A. Woman [08:00]
06. L'America [04:34]
07. Hyacinth House [03:13]
08. Crawling King Snake [05:01]
09. The WASP (Texas Radio and the Big Beat) [04:17]
10. Riders on the Storm [07:08]

Bonuses:

11. Orange County Suite [05:46]
12. (You Need Meat) Don't Go No Further [03:41]

Exact Audio Copy V0.99 prebeta 5 from 4. May 2009

Отчёт EAC об извлечении, выполненном 26. июня 2009, 1:14

The Doors / L.A. Woman [40th Anniversary Mixes]

Дисковод: ATAPI DVD A DH20A4H Adapter: 0 ID: 1

Режим чтения : Достоверность
Использование точного потока : Да
Отключение кэша аудио : Да
Использование указателей C2 : Нет

Коррекция смещения при чтении : 6
Способность читать области Lead-in и Lead-out : Нет
Заполнение пропущенных сэмплов тишиной : Да
Удаление блоков с тишиной в начале и конце : Нет
При вычислениях CRC использовались нулевые сэмплы : Нет
Интерфейс : Встроенный Win32-интерфейс для Win NT/2000

Выходной формат : Пользовательский кодировщик
Выбранный битрейт : 768 kBit/s
Качество : Высокий
Добавление ID3-тэга : Нет
Утилита сжатия : d:\Program Files\Exact Audio Copy\FLAC\FLAC.EXE
Дополнительные параметры : -6 -V -T "ARTIST=%a" -T "TITLE=%t" -T "ALBUM=%g" -T "DATE=%y" -T "TRACKNUMBER=%n" -T "GENRE=%m" -T "COMMENT=%e" %s -o %d


TOC извлечённого CD

Трек | Старт | Длительность | Начальный сектор | Конечный сектор
––––––––––––––––––––––––––––––––––-
1 | 0:00.00 | 4:24.72 | 0 | 19871
2 | 4:24.72 | 3:39.39 | 19872 | 36335
3 | 8:04.36 | 4:44.27 | 36336 | 57662
4 | 12:48.63 | 4:58.74 | 57663 | 80086
5 | 17:47.62 | 7:59.44 | 80087 | 116055
6 | 25:47.31 | 4:34.08 | 116056 | 136613
7 | 30:21.39 | 3:13.02 | 136614 | 151090
8 | 33:34.41 | 5:01.05 | 151091 | 173670
9 | 38:35.46 | 4:16.33 | 173671 | 192903
10 | 42:52.04 | 7:08.48 | 192904 | 225051
11 | 50:00.52 | 5:45.26 | 225052 | 250952
12 | 55:46.03 | 3:41.11 | 250953 | 267538


Характеристики диапазона извлечения и сообщения об ошибках

Выбранный диапазон

Имя файла E:\My Documents\My Music\The Doors\L.A. Woman [40th Anniversary Mixes]\The Doors - L.A. Woman [40th Anniversary Mixes].wav

Пиковый уровень 100.0 %
Качество диапазона 100.0 %
CRC копии 34466B42
Копирование… OK

Ошибок не произошло


AccurateRip: сводка

Трек 1 точное извлечение (доверие 32) [EC96A5C5]
Трек 2 точное извлечение (доверие 33) [7B3F6A20]
Трек 3 точное извлечение (доверие 32) [6BC9B814]
Трек 4 точное извлечение (доверие 33) [3B5B1E5A]
Трек 5 точное извлечение (доверие 34) [E5D3CF5E]
Трек 6 точное извлечение (доверие 33) [75BBCD7D]
Трек 7 точное извлечение (доверие 33) [4A83D0A6]
Трек 8 точное извлечение (доверие 33) [BC52F8CB]
Трек 9 точное извлечение (доверие 33) [7307929D]
Трек 10 точное извлечение (доверие 34) [5D5F3FE3]
Трек 11 точное извлечение (доверие 32) [E189E641]
Трек 12 точное извлечение (доверие 32) [9910EC82]

Все треки извлечены точно

Конец отчёта

AUDIOCHECKER v2.0 beta (build 457) - by Dester - opdester@freemail.hu
~~~~~~~~~~~~~~~~~~~~~~~~~~~~~~~~~~
-=== DO NOT EDIT THIS FILE! ===-

Path: …\1971 - L.A. Woman [ELEKTRA-Rhino 8122-79998-6]

01 -=- The Doors - L.A. Woman [40th Anniversary Mixes].flac -=- CDDA (100%)

228209588

[Verification date: 03.12.2010 15:27:16]
[Disc ID: 001a0f3e-00f5a3f8-a00def0c]
Track [ CRC ] Status
01 [ec96a5c5] (96/168) Accurately ripped as in pressing(s) #1
02 [7b3f6a20] (97/170) Accurately ripped as in pressing(s) #1
03 [6bc9b814] (96/168) Accurately ripped as in pressing(s) #1
04 [3b5b1e5a] (97/170) Accurately ripped as in pressing(s) #1
05 [e5d3cf5e] (98/172) Accurately ripped as in pressing(s) #1
06 [75bbcd7d] (97/170) Accurately ripped as in pressing(s) #1
07 [4a83d0a6] (97/170) Accurately ripped as in pressing(s) #1
08 [bc52f8cb] (97/170) Accurately ripped as in pressing(s) #1
09 [7307929d] (97/170) Accurately ripped as in pressing(s) #1
10 [5d5f3fe3] (97/171) Accurately ripped as in pressing(s) #1
11 [e189e641] (96/167) Accurately ripped as in pressing(s) #1
12 [9910ec82] (95/166) Accurately ripped as in pressing(s) #1
Offsetted by -682:
01 [2a84ac33] (04/168) Accurately ripped as in pressing(s) #6
02 [9f715523] (04/170) Accurately ripped as in pressing(s) #6
03 [75e266cc] (04/168) Accurately ripped as in pressing(s) #6
04 [6f37b102] (04/170) Accurately ripped as in pressing(s) #6
05 [9f47cd19] (04/172) Accurately ripped as in pressing(s) #6
06 [5425a443] (04/170) Accurately ripped as in pressing(s) #6
07 [35df190f] (04/170) Accurately ripped as in pressing(s) #6
08 [b462a775] (04/170) Accurately ripped as in pressing(s) #6
09 [cf0abfe3] (04/170) Accurately ripped as in pressing(s) #6
10 [e91ff7ce] (04/171) Accurately ripped as in pressing(s) #6
11 [90c47d77] (04/167) Accurately ripped as in pressing(s) #6
12 [62530dbf] (04/166) Accurately ripped as in pressing(s) #6
Offsetted by -676:
01 [837741ea] (02/168) Accurately ripped as in pressing(s) #7
02 [15506813] (02/170) Accurately ripped as in pressing(s) #7
03 [9da816ee] (02/168) Accurately ripped as in pressing(s) #7
04 [9a95cfd6] (02/170) Accurately ripped as in pressing(s) #7
05 [f14f5a8f] (02/172) Accurately ripped as in pressing(s) #7
06 [90fdea24] (02/170) Accurately ripped as in pressing(s) #7
07 [b04392df] (02/170) Accurately ripped as in pressing(s) #7
08 [dbd48a2f] (02/170) Accurately ripped as in pressing(s) #7
09 [058ca247] (02/170) Accurately ripped as in pressing(s) #7
10 [66483914] (02/171) Accurately ripped as in pressing(s) #7
11 [59b298e6] (02/167) Accurately ripped as in pressing(s) #7
12 [048c1ed5] (02/166) Accurately ripped as in pressing(s) #7
Offsetted by -646:
01 [2a986d52] (06/168) Accurately ripped as in pressing(s) #5
02 [184ccd23] (07/170) Accurately ripped as in pressing(s) #5
03 [f30be114] (06/168) Accurately ripped as in pressing(s) #5
04 [fc7869f8] (07/170) Accurately ripped as in pressing(s) #5
05 [20dcb774] (07/172) Accurately ripped as in pressing(s) #5
06 [f29feddb] (07/170) Accurately ripped as in pressing(s) #5
07 [b964b934] (07/170) Accurately ripped as in pressing(s) #5
08 [bfd0d3a1] (07/170) Accurately ripped as in pressing(s) #5
09 [f822bde6] (07/170) Accurately ripped as in pressing(s) #5
10 [854c2f67] (07/171) Accurately ripped as in pressing(s) #5
11 [e4b6e8ad] (07/167) Accurately ripped as in pressing(s) #5
12 [c54dcf43] (07/166) Accurately ripped as in pressing(s) #5
Offsetted by -92:
01 [4269e401] (08/168) Accurately ripped as in pressing(s) #4
02 [2663754f] (08/170) Accurately ripped as in pressing(s) #4
03 [008ed652] (08/168) Accurately ripped as in pressing(s) #4
04 [ef3bee1a] (08/170) Accurately ripped as in pressing(s) #4
05 [fc9f314c] (08/172) Accurately ripped as in pressing(s) #4
06 [c307f4a0] (08/170) Accurately ripped as in pressing(s) #4
07 [dc569d5a] (08/170) Accurately ripped as in pressing(s) #4
08 [e670fb9e] (08/170) Accurately ripped as in pressing(s) #4
09 [4f916a9d] (08/170) Accurately ripped as in pressing(s) #4
10 [e8a7a42e] (08/171) Accurately ripped as in pressing(s) #4
11 [681e9957] (08/167) Accurately ripped as in pressing(s) #4
12 [2f4a66b7] (08/166) Accurately ripped as in pressing(s) #4
Offsetted by -12:
01 [3eed00bc] (08/168) Accurately ripped as in pressing(s) #3
02 [fd1c1d34] (08/170) Accurately ripped as in pressing(s) #3
03 [2782fe4d] (08/168) Accurately ripped as in pressing(s) #3
04 [f0e842ba] (08/170) Accurately ripped as in pressing(s) #3
05 [f8f3fc7e] (08/172) Accurately ripped as in pressing(s) #3
06 [e3e127ce] (08/170) Accurately ripped as in pressing(s) #3
07 [5711a49e] (08/170) Accurately ripped as in pressing(s) #3
08 [3f746263] (08/170) Accurately ripped as in pressing(s) #3
09 [04a8cdbd] (08/170) Accurately ripped as in pressing(s) #3
10 [b3b24d0a] (08/171) Accurately ripped as in pressing(s) #3
11 [4eba4c72] (08/167) Accurately ripped as in pressing(s) #3
12 [139ccc82] (08/166) Accurately ripped as in pressing(s) #3
Offsetted by -6:
01 [bd581f3c] (42/168) Accurately ripped as in pressing(s) #2
02 [bc7b9f8a] (42/170) Accurately ripped as in pressing(s) #2
03 [9d4907ea] (42/168) Accurately ripped as in pressing(s) #2
04 [7e6161a7] (42/170) Accurately ripped as in pressing(s) #2
05 [4ae689c7] (43/172) Accurately ripped as in pressing(s) #2
06 [acccfaa7] (42/170) Accurately ripped as in pressing(s) #2
07 [b4aa3aa2] (42/170) Accurately ripped as in pressing(s) #2
08 [9551ad97] (42/170) Accurately ripped as in pressing(s) #2
09 [3bdbb028] (42/170) Accurately ripped as in pressing(s) #2
10 [4ff98e85] (43/171) Accurately ripped as in pressing(s) #2
11 [17b267ac] (40/167) Accurately ripped as in pressing(s) #2
12 [bbbad247] (40/166) Accurately ripped as in pressing(s) #2

Track [ CRC32 ] [W/O NULL] [ LOG ]
– [35FE90DE] [34466B42] W/O NULL
01 [4D624922] [A2FB9F36]
02 [8E908F2D] [4B93E9CC]
03 [936898A4] [641892AE]
04 [63D4F7C5] [44ADD09A]
05 [296D1D9F] [FFA84F9D]
06 [3FE18CFD] [44571887]
07 [73355FBE] [062215AE]
08 [AC908B30] [F84A580B]
09 [8EA0B790] [8D5E5141]
10 [14180919] [75617373]
11 [0C95A62B] [02E7DF7B]
12 [7089E795] [69CF8043]


=======================

All thanks go to the original releaser …

The Doors in my Blog

Download The Doors - 40th Anniversary Mixes [2007, 6CD, ELEKTRA/Rhino 8122-79998]: