Subcategories

The Doors - Bright Midnight: Live In America (2001) [Limited Edition]

Posted By: Andi_Deris
The Doors - Bright Midnight: Live In America (2001) [Limited Edition]

The Doors - Bright Midnight: Live In America (2001) [Limited Edition]
EAC Rip | FLAC: Image+Cue+Log | 487 Mb | MP3 CBR 320 kbps | 175 Mb | Scans | Time: 01:13:41
Elektra/Bright Midnight | R2 78330
Psychedelic Rock, Acid Rock, Blues Rock, Classic Rock

Bright Midnight: Live in America is a live album by the American rock band The Doors released in 2001. It is a compilation of recordings of concerts performed in the United States between July 1969 and August 1970. It was released by Elektra on CD as a limited edition. The CD is the first official publication produced by Bright Midnight Archives, and features an extract from the extensive archival material recorded live, which the band would release in the following years with the label Bright Midnight Archives. It is the equivalent of a CD released in the USA entitled The Bright Midnight Sampler.

The Doors - Bright Midnight: Live In America (2001) [Limited Edition]




Track Listing

01. Light My Fire [Spectrum, Philadelphia 01.05.70] (11:31)
02. Been Down So Long [Cobo Arena, Detroit 08.05.70] (07:23)
03. Back Door Man [Pittsburgh Civic Arena, Pittsburgh 02.05.70] (02:24)
04. Love Hides [Pittsburgh Civic Arena, Pittsburgh 02.05.70] (02:23)
05. Five To One [Pittsburgh Civic Arena, Pittsburgh 02.05.70] (05:11)
06. Touch Me [Aquarius Theatre, Hollywood 21.07.69] (03:33)
07. The Crystal Ship [Aquarius Theatre, Hollywood 21.07.69] (02:58)
08. Break On Through (To The Other Side) [Felt Forum, Madison Square Garden, NY 17.01.70] (04:24)
09. Bellowing [Boston Arena, Boston 10.04.70] (01:31)
10. Roadhouse Blues [Boston Arena, Boston 10.04.70] (05:22)
11. Alabama Song (Whisky Bar) [Felt Forum, Madison Square Garden, NY 17.01.70] (01:55)
12. Love Me Two Times / Baby Please Don't Go / St. James Infirmary [Bakersfield Civic Auditorium, Bakersfield 21.08.70] (08:51)
13. The End / The celebration of the lizard (exerpt) [Cobo Arena, Detroit 08.05.70] (16:16)

Produced by Bruce Botnick

The Band

• Jim Morrison - vocals, harmonica on "The End"
• Ray Manzarek - keyboard bass, organ
• Robby Krieger - electric guitar
• John Densmore - drums

Exact Audio Copy V0.99 prebeta 4 from 23. January 2008

Отчёт EAC об извлечении, выполненном 8. февраля 2009, 16:22

The Doors / Bright Midnight (Live In America)

Дисковод: _NEC DVD_RW ND-2510A Adapter: 0 ID: 2

Режим чтения : Достоверность
Использование точного потока : Да
Отключение кэша аудио : Да
Использование указателей C2 : Нет

Коррекция смещения при чтении : 48
Способность читать области Lead-in и Lead-out : Нет
Заполнение пропущенных сэмплов тишиной : Да
Удаление блоков с тишиной в начале и конце : Нет
При вычислениях CRC использовались нулевые сэмплы : Да
Интерфейс : Встроенный Win32-интерфейс для Win NT/2000

Выходной формат : Внутренние WAV-операции
Формат сэмплов : 44.100 Гц; 16 бит; стерео


TOC извлечённого CD

Трек | Старт | Длительность | Начальный сектор | Конечный сектор
––––––––––––––––––––––––––––––––––-
1 | 0:00.00 | 11:30.55 | 0 | 51804
2 | 11:30.55 | 7:23.15 | 51805 | 85044
3 | 18:53.70 | 2:24.07 | 85045 | 95851
4 | 21:18.02 | 2:23.00 | 95852 | 106576
5 | 23:41.02 | 5:10.50 | 106577 | 129876
6 | 28:51.52 | 3:33.18 | 129877 | 145869
7 | 32:24.70 | 2:57.55 | 145870 | 159199
8 | 35:22.50 | 4:23.42 | 159200 | 178966
9 | 39:46.17 | 1:31.00 | 178967 | 185791
10 | 41:17.17 | 5:21.38 | 185792 | 209904
11 | 46:38.55 | 1:54.50 | 209905 | 218504
12 | 48:33.30 | 8:50.50 | 218505 | 258304
13 | 57:24.05 | 16:15.60 | 258305 | 331489


Характеристики диапазона извлечения и сообщения об ошибках

Выбранный диапазон

Имя файла H:\The Doors - Bright Midnight (Live In America).wav

Пиковый уровень 99.8 %
Качество диапазона 99.9 %
CRC копии 2F2A69BB
Копирование… OK

Ошибок не произошло


AccurateRip: сводка

Трек 1 точное извлечение (доверие 3) [4FF6B142]
Трек 2 точное извлечение (доверие 3) [0FB12B50]
Трек 3 точное извлечение (доверие 3) [86FDE398]
Трек 4 точное извлечение (доверие 4) [EFD64F47]
Трек 5 точное извлечение (доверие 3) [43EF3EA8]
Трек 6 точное извлечение (доверие 3) [2292570E]
Трек 7 точное извлечение (доверие 3) [6C9A28E5]
Трек 8 точное извлечение (доверие 3) [71A9AAEC]
Трек 9 точное извлечение (доверие 3) [9AEE26B3]
Трек 10 точное извлечение (доверие 3) [470399B6]
Трек 11 точное извлечение (доверие 3) [09321414]
Трек 12 точное извлечение (доверие 3) [B94DB2A7]
Трек 13 точное извлечение (доверие 3) [EA5689D5]

Все треки извлечены точно

Конец отчёта


Many thanks to the original uploader: Gh@nz