Subcategories

The Doors: Collection (1967 - 1971) [Vinyl Rip 16/44 & mp3-320]

Posted By: v3122
The Doors: Collection (1967 - 1971) [Vinyl Rip 16/44 & mp3-320]

The Doors: Collection (1967 - 1971)
6 x Vinyl Rip 16/44 | Flac(Image + Cue) > 1459 Mb
MP3 CBR 320Kbps > 662 Mb | Artwork(jpg) Included
2008 | Rhino Entertainment Company | Remastered
Psychedelic Rock / Blues Rock / Classic Rock

The Doors, one of the most influential and controversial rock bands of the 1960s, were formed in Los Angeles in 1965 by UCLA film students Ray Manzarek, keyboards, and Jim Morrison, vocals; with drummer John Densmore and guitarist Robby Krieger. The group never added a bass player, and their sound was dominated by Manzarek's electric organ work and Morrison's deep, sonorous voice, with which he sang and intoned his highly poetic lyrics. The group signed to Elektra Records in 1966 and released its first album, The Doors, featuring the hit "Light My Fire," in 1967.

Like "Light My Fire," the debut album was a massive hit, and endures as one of the most exciting, groundbreaking recordings of the psychedelic era. Blending blues, classical, Eastern music, and pop into sinister but beguiling melodies, the band sounded like no other. With his rich, chilling vocals and somber poetic visions, Morrison explored the depths of the darkest and most thrilling aspects of the psychedelic experience. Their first effort was so stellar, in fact, that the Doors were hard-pressed to match it, and although their next few albums contained a wealth of first-rate material, the group also began running up against the limitations of their recklessly disturbing visions. By their third album, they had exhausted their initial reservoir of compositions, and some of the tracks they hurriedly devised to meet public demand were clearly inferior to, and imitative of, their best early work.

On The Soft Parade, the group experimented with brass sections, with mixed results. Accused (without much merit) by much of the rock underground as pop sellouts, the group charged back hard with the final two albums they recorded with Morrison, on which they drew upon stone-cold blues for much of their inspiration, especially on 1971's L.A. Woman.
From the start, the Doors' focus was the charismatic Morrison, who proved increasingly unstable over the group's brief career. In 1969, Morrison was arrested for indecent exposure during a concert in Miami, an incident that nearly derailed the band. Nevertheless, the Doors managed to turn out a series of successful albums and singles through 1971, when, upon the completion of L.A. Woman, Morrison decamped for Paris. He died there, apparently of a drug overdose. The three surviving Doors tried to carry on without him, but ultimately disbanded. Yet the Doors' music and Morrison's legend continued to fascinate succeeding generations of rock fans: in the mid-'80s, Morrison was as big a star as he'd been in the mid-'60s, and Elektra has sold numerous quantities of the Doors' original albums plus reissues and releases of live material over the years, while publishers have flooded bookstores with Doors and Morrison biographies. In 1991, director Oliver Stone made The Doors, a feature film about the group starring Val Kilmer as Morrison.

The remaining three members of the Doors – Manzarek, Densmore, and Krieger – were involved in various musical activities in the decades following Morrison's death but never saw successes approaching the levels of the original Doors. After the turn of the millennium, Manzarek and Krieger performed live under the name Doors of the 21st Century with singer Ian Astbury of the Cult handling vocals; a legal battle ensued when Densmore filed suit against his former bandmates over use of the Doors name. Ray Manzarek died in May 2013 in Rosenheim, Germany after battling bile duct cancer; he was 74 years old.

by Richie Unterberger, allmusic
The Doors: Collection (1967 - 1971) [Vinyl Rip 16/44 & mp3-320]


The Doors: Collection (1967 - 1971) [Vinyl Rip 16/44 & mp3-320]:

The Doors: Collection (1967 - 1971) [Vinyl Rip 16/44 & mp3-320]

Tracklist VNL01 - The Doors (1967):
US 2008 Rhino Entertainment Company • EKS-74007

01. Break On Through (To The Other Side) [2:31]
02. Soul Kitchen [3:37]
03. The Crystal Ship [2:36]
04. Twentieth Century Fox [2:35]
05. Alabama Song (Whisky Bar) [3:22]
06. Light My Fire [7:12]
07. Back Door Man [3:35]
08. I Looked At You [2:23]
09. End Of The Night [2:54]
10. Take It As It Comes [2:18]
11. The End [11:50]

foobar2000 1.2.9 / Dynamic Range Meter 1.1.1
log date: 2016-12-11 09:41:02

––––––––––––––––––––––––––––––––––––––––
Analyzed: THE DOORS / The Doors (USA, EKS-74007)
––––––––––––––––––––––––––––––––––––––––

DR Peak RMS Duration Track
––––––––––––––––––––––––––––––––––––––––
DR11 -0.37 dB -15.06 dB 2:31 01-Break On Through (To The Other Side)
DR11 -1.60 dB -16.64 dB 3:37 02-Soul Kitchen
DR11 -2.05 dB -16.41 dB 2:36 03-The Crystal Ship
DR11 -0.58 dB -14.22 dB 2:35 04-Twentieth Century Fox
DR12 -1.21 dB -16.39 dB 3:22 05-Alabama Song (Whisky Bar)
DR10 -1.80 dB -13.90 dB 7:12 06-Light My Fire
DR11 -0.57 dB -14.20 dB 3:35 07-Back Door Man
DR11 -1.07 dB -15.32 dB 2:23 08-I Looked At You
DR11 -1.59 dB -17.59 dB 2:54 09-End Of The Night
DR10 -1.01 dB -14.06 dB 2:18 10-Take It As It Comes
DR11 -1.55 dB -17.33 dB 11:50 11-The End
––––––––––––––––––––––––––––––––––––––––

Number of tracks: 11
Official DR value: DR11

Samplerate: 44100 Hz
Channels: 2
Bits per sample: 16
Bitrate: 800 kbps
Codec: FLAC
================================================================================



The Doors: Collection (1967 - 1971) [Vinyl Rip 16/44 & mp3-320]

Tracklist VNL02 - Strange Days (1967):
US 2008 Rhino Entertainment Company • EKS-74014

01. Strange Days [3:11]
02. You're Lost Little Girl [3:06]
03. Love Me Two Times [3:18]
04. Unhappy Girl [2:00]
05. Horse Latitudes [1:36]
06. Moonlight Drive [3:04]
07. People Are Strange [2:13]
08. My Eyes Have Seen You [2:29]
09. I Can't See Your Face In My Mind [3:28]
10. When The Music's Over [11:02]

foobar2000 1.2.9 / Dynamic Range Meter 1.1.1
log date: 2016-12-11 09:41:17

––––––––––––––––––––––––––––––––––––––––
Analyzed: THE DOORS / Strange Days (USA, EKS-74014)
––––––––––––––––––––––––––––––––––––––––

DR Peak RMS Duration Track
––––––––––––––––––––––––––––––––––––––––
DR10 -2.72 dB -15.41 dB 3:11 01-Strange Days
DR11 -2.82 dB -17.28 dB 3:06 02-You're Lost Little Girl
DR10 -3.44 dB -16.79 dB 3:18 03-Love Me Two Times
DR11 -2.93 dB -16.45 dB 2:00 04-Unhappy Girl
DR9 -3.00 dB -18.50 dB 1:36 05-Horse Latitudes
DR10 -2.24 dB -16.39 dB 3:04 06-Moonlight Drive
DR10 -2.93 dB -17.26 dB 2:13 07-People Are Strange
DR10 -2.42 dB -16.30 dB 2:29 08-My Eyes Have Seen You
DR11 -3.45 dB -18.91 dB 3:28 09-I Can't See Your Face In My Mind
DR11 -2.48 dB -17.32 dB 11:02 10-When The Music's Over
––––––––––––––––––––––––––––––––––––––––

Number of tracks: 10
Official DR value: DR10

Samplerate: 44100 Hz
Channels: 2
Bits per sample: 16
Bitrate: 798 kbps
Codec: FLAC
================================================================================



The Doors: Collection (1967 - 1971) [Vinyl Rip 16/44 & mp3-320]

Tracklist VNL03 - Waiting For The Sun (1968):
US 2008 Rhino Entertainment Company • EKS-74024

01. Hello, I Love You [2:17]
02. Love Street [2:53]
03. Not To Touch The Earth [3:56]
04. Summer's Almost Gone [3:23]
05. Wintertime Love [1:54]
06. The Unknown Soldier [3:24]
07. Spanish Caravan [2:59]
08. My Wild Love [2:53]
09. We Could Be So Good Together [2:25]
10. Yes, The River Knows [2:39]
11. Five To One [4:28]

foobar2000 1.2.9 / Dynamic Range Meter 1.1.1
log date: 2016-12-11 09:41:32

––––––––––––––––––––––––––––––––––––––––
Analyzed: THE DOORS / Waiting For The Sun (USA, EKS-74024)
––––––––––––––––––––––––––––––––––––––––

DR Peak RMS Duration Track
––––––––––––––––––––––––––––––––––––––––
DR12 -1.84 dB -16.63 dB 2:17 01-Hello, I Love You
DR11 -3.03 dB -16.57 dB 2:53 02-Love Street
DR11 -1.75 dB -16.93 dB 3:56 03-Not To Touch The Earth
DR12 -1.40 dB -15.75 dB 3:23 04-Summer's Almost Gone
DR11 -2.03 dB -15.64 dB 1:54 05-Wintertime Love
DR10 -2.01 dB -15.85 dB 3:24 06-The Unknown Soldier
DR12 -0.97 dB -16.71 dB 2:59 07-Spanish Caravan
DR14 -1.50 dB -19.22 dB 2:53 08-My Wild Love
DR13 -0.76 dB -16.21 dB 2:25 09-We Could Be So Good Together
DR11 -1.66 dB -17.36 dB 2:39 10-Yes, The River Knows
DR12 -2.26 dB -17.98 dB 4:28 11-Five To One
––––––––––––––––––––––––––––––––––––––––

Number of tracks: 11
Official DR value: DR12

Samplerate: 44100 Hz
Channels: 2
Bits per sample: 16
Bitrate: 756 kbps
Codec: FLAC
================================================================================



The Doors: Collection (1967 - 1971) [Vinyl Rip 16/44 & mp3-320]

Tracklist VNL04 - The Soft Parade (1969):
US 2008 Rhino Entertainment Company • EKS-75005

01. Tell All The People [3:21]
02. Touch Me [3:12]
03. Shaman's Blues [4:55]
04. Do It [3:03]
05. Easy Ride [2:42]
06. Wild Child [2:37]
07. Runnin' Blue [2:29]
08. Wishful Sinful [2:59]
09. The Soft Parade [8:42]

foobar2000 1.2.9 / Dynamic Range Meter 1.1.1
log date: 2016-12-11 09:02:51

––––––––––––––––––––––––––––––––––––––––
Analyzed: THE DOORS / The Soft Parade (USA, EKS-75005)
––––––––––––––––––––––––––––––––––––––––

DR Peak RMS Duration Track
––––––––––––––––––––––––––––––––––––––––
DR12 -1.70 dB -16.63 dB 3:21 01-Tell All The People
DR12 -1.25 dB -16.72 dB 3:12 02-Touch Me
DR14 -0.75 dB -16.40 dB 4:55 03-Shaman's Blues
DR12 -2.12 dB -16.10 dB 3:03 04-Do It
DR12 -1.97 dB -16.73 dB 2:42 05-Easy Ride
DR16 -0.31 dB -17.97 dB 2:37 06-Wild Child
DR14 -1.37 dB -17.71 dB 2:29 07-Runnin' Blue
DR12 -3.13 dB -18.64 dB 2:59 08-Wishful Sinful
DR14 -1.17 dB -18.52 dB 8:42 09-The Soft Parade
––––––––––––––––––––––––––––––––––––––––

Number of tracks: 9
Official DR value: DR13

Samplerate: 44100 Hz
Channels: 2
Bits per sample: 16
Bitrate: 808 kbps
Codec: FLAC
================================================================================



The Doors: Collection (1967 - 1971) [Vinyl Rip 16/44 & mp3-320]

Tracklist VNL05 - Morrison Hotel (1970):
US 2008 Rhino Entertainment Company • EKS-75007

01. Roadhouse Blues [4:05]
02. Waiting For The Sun [4:01]
03. You Make Me Real [2:54]
04. Peace Frog [2:51]
05. Blue Sunday [2:14]
06. Ship Of Fools [3:09]
07. Land Ho! [4:11]
08. The Spy [4:19]
09. Queen Of The Highway [2:49]
10. Indian Summer [2:37]
11. Maggie M'Gill [4:25]

foobar2000 1.2.9 / Dynamic Range Meter 1.1.1
log date: 2016-12-11 09:41:51

––––––––––––––––––––––––––––––––––––––––
Analyzed: THE DOORS / Morrison Hotel (USA, EKS-75007)
––––––––––––––––––––––––––––––––––––––––

DR Peak RMS Duration Track
––––––––––––––––––––––––––––––––––––––––
DR11 -1.23 dB -15.16 dB 4:05 01-Roadhouse Blues
DR12 -0.64 dB -15.74 dB 4:01 02-Waiting For The Sun
DR12 -0.90 dB -15.79 dB 2:54 03-You Make Me Real
DR13 -0.33 dB -16.53 dB 2:51 04-Peace Frog
DR12 -2.07 dB -19.43 dB 2:14 05-Blue Sunday
DR11 -1.45 dB -15.34 dB 3:09 06-Ship Of Fools
DR11 -1.38 dB -15.94 dB 4:11 07-Land Ho!
DR14 -0.85 dB -18.83 dB 4:19 08-The Spy
DR12 -0.10 dB -15.84 dB 2:49 09-Queen Of The Highway
DR11 -5.08 dB -20.27 dB 2:37 10-Indian Summer
DR13 -2.95 dB -17.69 dB 4:25 11-Maggie M'Gill
––––––––––––––––––––––––––––––––––––––––

Number of tracks: 11
Official DR value: DR12

Samplerate: 44100 Hz
Channels: 2
Bits per sample: 16
Bitrate: 786 kbps
Codec: FLAC
================================================================================



The Doors: Collection (1967 - 1971) [Vinyl Rip 16/44 & mp3-320]

Tracklist VNL06 - L.A. Woman (1971):
US 2008 Rhino Entertainment Company • EKS-75011

01. The Changeling [4:24]
02. Love Her Madly [3:22]
03. Been Down So Long [4:43]
04. Cars Hiss By My Window [4:13]
05. L.A. Woman [7:51]
06. L'America [4:39]
07. Hyacinth House [3:13]
08. Crawling King Snake [5:03]
09. The Wasp (Texas Radio And The Big Beat) [4:17]
10. Riders On The Storm [7:15]

foobar2000 1.2.9 / Dynamic Range Meter 1.1.1
log date: 2016-12-11 09:42:07

––––––––––––––––––––––––––––––––––––––––
Analyzed: THE DOORS / L.A. Woman (USA, EKS-75011)
––––––––––––––––––––––––––––––––––––––––

DR Peak RMS Duration Track
––––––––––––––––––––––––––––––––––––––––
DR12 -3.86 dB -18.61 dB 4:24 01-The Changeling
DR14 -1.95 dB -18.48 dB 3:22 02-Love Her Madly
DR13 -1.79 dB -17.69 dB 4:43 03-Been Down So Long
DR14 -5.72 dB -22.93 dB 4:13 04-Cars Hiss By My Window
DR13 -2.62 dB -18.24 dB 7:51 05-L.A. Woman
DR13 -3.61 dB -19.38 dB 4:39 06-L'America
DR13 -4.69 dB -19.69 dB 3:13 07-Hyacinth House
DR14 -2.34 dB -19.97 dB 5:03 08-Crawling King Snake
DR14 -2.07 dB -19.09 dB 4:17 09-The Wasp (Texas Radio And The Big Beat)
DR15 -1.04 dB -20.76 dB 7:15 10-Riders On The Storm
––––––––––––––––––––––––––––––––––––––––

Number of tracks: 10
Official DR value: DR13

Samplerate: 44100 Hz
Channels: 2
Bits per sample: 16
Bitrate: 750 kbps
Codec: FLAC
================================================================================




All thanks goes to Misantrop & KoGGaN