Subcategories
Please register here if you want to download anything!

If domain in your address bar is different from the list below
PLEASE LEAVE THAT SITE IMMEDIATELY
❗IT'S A DANGEROUS FAKE❗



Spicy Magazines for Men! ;-)

The Doors - The Complete Studio Recordings [1999, 7CD Box Set, ELEKTRA 62434-2A~G]

Posted By: v3122
The Doors - The Complete Studio Recordings [1999, 7CD Box Set, ELEKTRA 62434-2A~G]

The Doors - The Complete Studio Recordings [1999, 7CD Box Set, ELEKTRA 62434-2A~G]
Rock | EAC Rip | Flac(Image) + Cue + Log | MP3 CBR 320Kbps | Scans -> 39 Mb
Elektra | 62434-2A~G | ~1996 + 780 Mb
24-bit Remastered

The Complete Studio Recordings is a seven compact disc box set by American rock group The Doors, released by Elektra on November 9, 1999. It contains six of the original eight Doors albums, digitally remastered with 24 bit, with the inclusion of stray previously unreleased tracks that had surfaced on the The Doors: Box Set series, on disc seven.

Wiki

The Doors - The Complete Studio Recordings [1999, 7CD Box Set, ELEKTRA 62434-2A~G]
The Doors - The Complete Studio Recordings [1999, 7CD Box Set, ELEKTRA 62434-2A~G]

The Doors:

Formed: 1965 07, Los Angeles, CA
Disbanded: 1973
Genres: Rock
Representative Albums: "Legacy: The Absolute Best", "Strange Days/L.A. Woman", "The Doors/Waiting for the Sun"
Representative Songs: "Light My Fire", "Roadhouse Blues", "The End"

The Doors, one of the most influential and controversial rock bands of the 1960s, were formed in Los Angeles in 1965 by UCLA film students Ray Manzarek, keyboards, and Jim Morrison, vocals; with drummer John Densmore and guitarist Robby Krieger. The group never added a bass player, and their sound was dominated by Manzarek's electric organ work and Morrison's deep, sonorous voice, with which he sang and intoned his highly poetic lyrics. The group signed to Elektra Records in 1966 and released its first album, The Doors, featuring the hit "Light My Fire," in 1967.

Like "Light My Fire," the debut album was a massive hit, and endures as one of the most exciting, groundbreaking recordings of the psychedelic era. Blending blues, classical, Eastern music, and pop into sinister but beguiling melodies, the band sounded like no other. With his rich, chilling vocals and somber poetic visions, Morrison explored the depths of the darkest and most thrilling aspects of the psychedelic experience. Their first effort was so stellar, in fact, that the Doors were hard-pressed to match it, and although their next few albums contained a wealth of first-rate material, the group also began running up against the limitations of their recklessly disturbing visions. By their third album, they had exhausted their initial reservoir of compositions, and some of the tracks they hurriedly devised to meet public demand were clearly inferior to, and imitative of, their best early work.

On The Soft Parade, the group experimented with brass sections, with mixed results. Accused (without much merit) by much of the rock underground as pop sellouts, the group charged back hard with the final two albums they recorded with Morrison, on which they drew upon stone-cold blues for much of their inspiration, especially on 1971's L.A. Woman.

From the start, the Doors' focus was the charismatic Morrison, who proved increasingly unstable over the group's brief career. In 1969, Morrison was arrested for indecent exposure during a concert in Miami, an incident that nearly derailed the band. Nevertheless, the Doors managed to turn out a series of successful albums and singles through 1971, when, upon the completion of L.A. Woman, Morrison decamped for Paris. He died there, apparently of a drug overdose. The three surviving Doors tried to carry on without him, but ultimately disbanded. Yet the Doors' music and Morrison's legend continued to fascinate succeeding generations of rock fans: In the mid-'80s, Morrison was as big a star as he'd been in the mid-'60s, and Elektra has sold numerous quantities of the Doors' original albums plus reissues and releases of live material over the years, while publishers have flooded bookstores with Doors and Morrison biographies. In 1991, director Oliver Stone made The Doors, a feature film about the group starring Val Kilmer as Morrison.

~ William Ruhlmann & Richie Unterberger, Rovi

The Doors - The Complete Studio Recordings [1999, 7CD Box Set, ELEKTRA 62434-2A~G]:

The Doors - The Complete Studio Recordings [1999, 7CD Box Set, ELEKTRA 62434-2A~G]

CD01: The Doors - The Doors (1967)
Rock | EAC Rip | Flac(Image) + Cue + Log | MP3 CBR 320Kbps | 11 Tracks
Elektra | 62434-2A | ~284 + 109 Mb

The Doors - The Complete Studio Recordings [1999, 7CD Box Set, ELEKTRA 62434-2A~G]

Tracklist:

01. Break On Through (To The Other Side) [02:27]
02. Soul Kitchen [03:35]
03. The Crystal Ship [02:34]
04. Twentieth Century Fox [02:35]
05. Alabama Song (Whiskey Bar) [03:19]
06. Light My Fire [07:09]
07. Back Door Man [03:35]
08. I Looked At You [02:22]
09. End Of The Night [02:52]
10. Take It As It Comes [02:17]
11. The End [11:46]

Exact Audio Copy V0.99 prebeta 5 from 4. May 2009

EAC extraction logfile from 29. May 2010, 22:27

The Doors / The Doors

Used drive : HP DVD Writer 1040r Adapter: 3 ID: 0

Read mode : Secure
Utilize accurate stream : Yes
Defeat audio cache : Yes
Make use of C2 pointers : No

Read offset correction : 6
Overread into Lead-In and Lead-Out : No
Fill up missing offset samples with silence : Yes
Delete leading and trailing silent blocks : No
Null samples used in CRC calculations : Yes
Used interface : Native Win32 interface for Win NT & 2000

Used output format : User Defined Encoder
Selected bitrate : 1024 kBit/s
Quality : High
Add ID3 tag : No
Command line compressor : C:\Program Files (x86)\Exact Audio Copy\FLAC\FLAC.EXE
Additional command line options : -6 -V -T "ARTIST=%a" -T "TITLE=%t" -T "ALBUM=%g" -T "DATE=%y" -T "TRACKNUMBER=%n" -T "GENRE=%m" -T "COMMENT=%e" %s -o %d


TOC of the extracted CD

Track | Start | Length | Start sector | End sector
––––––––––––––––––––––––––––-
1 | 0:00.32 | 2:29.15 | 32 | 11221
2 | 2:29.47 | 3:35.03 | 11222 | 27349
3 | 6:04.50 | 2:34.62 | 27350 | 38961
4 | 8:39.37 | 2:33.65 | 38962 | 50501
5 | 11:13.27 | 3:20.00 | 50502 | 65501
6 | 14:33.27 | 7:08.35 | 65502 | 97636
7 | 21:41.62 | 3:34.13 | 97637 | 113699
8 | 25:16.00 | 2:22.02 | 113700 | 124351
9 | 27:38.02 | 2:52.48 | 124352 | 137299
10 | 30:30.50 | 2:17.00 | 137300 | 147574
11 | 32:47.50 | 11:43.40 | 147575 | 200339


Range status and errors

Selected range

Filename C:\BAT\The Doors - The Doors.wav

Peak level 98.9 %
Range quality 100.0 %
Test CRC 670B8808
Copy CRC 670B8808
Copy OK

No errors occurred


AccurateRip summary

Track 1 accurately ripped (confidence 52) [CCD6E871]
Track 2 accurately ripped (confidence 52) [5A369B14]
Track 3 accurately ripped (confidence 51) [57BE1579]
Track 4 accurately ripped (confidence 51) [C5AAD31E]
Track 5 accurately ripped (confidence 52) [EAB1108A]
Track 6 accurately ripped (confidence 52) [7F8F17DF]
Track 7 accurately ripped (confidence 51) [E06201BC]
Track 8 accurately ripped (confidence 51) [61EE2E9B]
Track 9 accurately ripped (confidence 51) [576D3544]
Track 10 accurately ripped (confidence 51) [73F40888]
Track 11 accurately ripped (confidence 46) [D20CF607]

All tracks accurately ripped

End of status report

AUDIOCHECKER v2.0 beta (build 457) - by Dester - opdester@freemail.hu
~~~~~~~~~~~~~~~~~~~~~~~~~~~~~~~~~~
-=== DO NOT EDIT THIS FILE! ===-

Path: …\1967a - The Doors [ELEKTRA EKS 62434-2A]

01 -=- The Doors - The Doors.flac -=- CDDA (100%)

121809732

[Verification date: 26.11.2010 15:48:45]
[Disc ID: 000f7aca-00899ca0-900a6f0b]
Pregap length 00:00:32.
HDCD: peak extend: none, transient filter: some, gain: none
Track [ CRC ] Status
01 [ccd6e871] (59/102) Accurately ripped as in pressing(s) #1
02 [5a369b14] (59/102) Accurately ripped as in pressing(s) #1
03 [57be1579] (58/101) Accurately ripped as in pressing(s) #1
04 [c5aad31e] (58/100) Accurately ripped as in pressing(s) #1
05 [eab1108a] (60/102) Accurately ripped as in pressing(s) #1
06 [7f8f17df] (60/103) Accurately ripped as in pressing(s) #1
07 [e06201bc] (58/101) Accurately ripped as in pressing(s) #1
08 [61ee2e9b] (58/101) Accurately ripped as in pressing(s) #1
09 [576d3544] (58/100) Accurately ripped as in pressing(s) #1
10 [73f40888] (58/101) Accurately ripped as in pressing(s) #1
11 [d20cf607] (53/93) Accurately ripped as in pressing(s) #1
Offsetted by -1785:
01 [a1f9ac76] (25/102) Partial match to pressing(s) #2
02 [4ff2bf87] (00/102) No matches
03 [072e7e73] (00/101) No matches
04 [f23f908d] (00/100) No matches
05 [ca47a2c5] (00/102) No matches
06 [52801a71] (00/103) No matches
07 [b0f8ab9f] (00/101) No matches
08 [e73fb76f] (00/101) No matches
09 [64626eae] (00/100) No matches
10 [b72693b3] (00/101) No matches
11 [84c1c742] (00/93) No matches
Offsetted by -1611:
01 [f47fb117] (00/102) No matches
02 [fabb8a0f] (25/102) Partial match to pressing(s) #2
03 [89258dd8] (00/101) No matches
04 [36db7412] (00/100) No matches
05 [1c3a759d] (00/102) No matches
06 [26f5dc56] (00/103) No matches
07 [a3d1145b] (00/101) No matches
08 [94759ced] (00/101) No matches
09 [8f278ccb] (00/100) No matches
10 [11f0165d] (00/101) No matches
11 [4b648f57] (00/93) No matches
Offsetted by -1360:
01 [6c55ccb1] (00/102) No matches
02 [d3de6ab7] (00/102) No matches
03 [e6968da8] (25/101) Partial match to pressing(s) #2
04 [966a8eba] (00/100) No matches
05 [748cd713] (00/102) No matches
06 [f0ad68d8] (00/103) No matches
07 [9eff28a7] (00/101) No matches
08 [6a73d166] (00/101) No matches
09 [a4dc3363] (00/100) No matches
10 [c4371e07] (00/101) No matches
11 [506bbc92] (00/93) No matches
Offsetted by -1179:
01 [cd6c4927] (00/102) No matches
02 [fa87e70e] (00/102) No matches
03 [dc92bef9] (00/101) No matches
04 [5f94d3f1] (24/100) Partial match to pressing(s) #2
05 [70e9aee5] (00/102) No matches
06 [8e3e4786] (00/103) No matches
07 [7be611ba] (00/101) No matches
08 [2c7ffcf0] (00/101) No matches
09 [0d3ee54c] (00/100) No matches
10 [e6e799ee] (00/101) No matches
11 [cae11d4b] (00/93) No matches
Offsetted by -1000:
01 [a9bfe660] (00/102) No matches
02 [af511afc] (00/102) No matches
03 [e92f87c0] (00/101) No matches
04 [90d7d135] (00/100) No matches
05 [2b450c1c] (24/102) Partial match to pressing(s) #2
06 [94485947] (00/103) No matches
07 [664bb7c7] (00/101) No matches
08 [90f82603] (00/101) No matches
09 [0325471f] (00/100) No matches
10 [e7455695] (00/101) No matches
11 [8671e32b] (00/93) No matches
Offsetted by -766:
01 [e00d4d70] (00/102) No matches
02 [e15c245a] (00/102) No matches
03 [643206e0] (00/101) No matches
04 [cad579af] (00/100) No matches
05 [1e6e943e] (00/102) No matches
06 [48c05131] (25/103) Partial match to pressing(s) #2
07 [eb9afc00] (00/101) No matches
08 [a8d99927] (00/101) No matches
09 [f72b54f4] (00/100) No matches
10 [aba00199] (00/101) No matches
11 [98c4a554] (00/93) No matches
Offsetted by -669:
01 [fb25e03c] (04/102) Accurately ripped as in pressing(s) #4
02 [16583e82] (04/102) Accurately ripped as in pressing(s) #4
03 [b5786e1f] (04/101) Accurately ripped as in pressing(s) #4
04 [a6ed4116] (04/100) Accurately ripped as in pressing(s) #4
05 [33f248ab] (04/102) Accurately ripped as in pressing(s) #4
06 [eeb19310] (04/103) Accurately ripped as in pressing(s) #4
07 [ad68dd0b] (04/101) Accurately ripped as in pressing(s) #4
08 [929d2649] (04/101) Accurately ripped as in pressing(s) #4
09 [daaeb212] (04/100) Accurately ripped as in pressing(s) #4
10 [bfac35fa] (04/101) Accurately ripped as in pressing(s) #4
11 [bc37f2b7] (04/93) Accurately ripped as in pressing(s) #4
Offsetted by -659:
01 [6ba9ad95] (02/102) Accurately ripped as in pressing(s) #5
02 [ff0e1e24] (02/102) Accurately ripped as in pressing(s) #5
03 [936b1773] (02/101) Accurately ripped as in pressing(s) #5
04 [5604231f] (02/100) Accurately ripped as in pressing(s) #5
05 [9275a02c] (02/102) Accurately ripped as in pressing(s) #5
06 [c13cb47d] (02/103) Accurately ripped as in pressing(s) #5
07 [7983d18b] (02/101) Accurately ripped as in pressing(s) #5
08 [35b32c7e] (02/101) Accurately ripped as in pressing(s) #5
09 [a8366384] (02/100) Accurately ripped as in pressing(s) #5
10 [9ede7c49] (02/101) Accurately ripped as in pressing(s) #5
11 [fec35b76] (02/93) Accurately ripped as in pressing(s) #5
Offsetted by -523:
01 [a50ee4a9] (12/102) Accurately ripped as in pressing(s) #3
02 [c53fb12e] (12/102) Accurately ripped as in pressing(s) #3
03 [a2f31392] (12/101) Accurately ripped as in pressing(s) #3
04 [d664160c] (12/100) Accurately ripped as in pressing(s) #3
05 [ff8541a5] (12/102) Accurately ripped as in pressing(s) #3
06 [92f8235c] (12/103) Accurately ripped as in pressing(s) #3
07 [db4102ce] (12/101) Accurately ripped as in pressing(s) #3
08 [16d33a4c] (12/101) Accurately ripped as in pressing(s) #3
09 [88b18735] (11/100) Accurately ripped as in pressing(s) #3
10 [91161ddc] (12/101) Accurately ripped as in pressing(s) #3
11 [6f8188ab] (10/93) Accurately ripped as in pressing(s) #3
Offsetted by -266:
01 [191e53e4] (00/102) No matches
02 [f72940a7] (00/102) No matches
03 [a2ee8a8a] (00/101) No matches
04 [fcc997cb] (00/100) No matches
05 [2f821a92] (00/102) No matches
06 [cea0c587] (00/103) No matches
07 [183af1fa] (25/101) Partial match to pressing(s) #2
08 [151b4800] (00/101) No matches
09 [d9da91bc] (00/100) No matches
10 [dfac85c2] (00/101) No matches
11 [ef17d3be] (00/93) No matches
Offsetted by -16:
01 [66543ce1] (00/102) No matches
02 [17b7661d] (00/102) No matches
03 [16541084] (00/101) No matches
04 [7a8e9ad8] (00/100) No matches
05 [1464405c] (00/102) No matches
06 [f971ed7e] (00/103) No matches
07 [24b37e29] (00/101) No matches
08 [069b5604] (25/101) Partial match to pressing(s) #2
09 [5d95423e] (00/100) No matches
10 [4f4e7073] (00/101) No matches
11 [f88fdd3f] (00/93) No matches
More than 10 offsets match!

Track [ CRC32 ] [W/O NULL] [ LOG ]
– [670B8808] [C9F3F252] CRC32
01 [4AC25342] [F630DEC7]
02 [B3A0BDBB] [E0A727D5]
03 [9AF0A306] [1F712FDE]
04 [4A601E5F] [01AD93A2]
05 [92EEA4D2] [FB5809B9]
06 [B4933B46] [ED59B6A5]
07 [80F52E07] [71CD9091]
08 [F34F2C38] [330FE31A]
09 [1EAB7B60] [83B16A39]
10 [6E90C83A] [073159BE]
11 [6B5C748B] [CBA13AA2]

–––––––––––––––––––––––––––––––––

The Doors - The Complete Studio Recordings [1999, 7CD Box Set, ELEKTRA 62434-2A~G]

CD02: The Doors - Strange Days (1967)
Rock | EAC Rip | Flac(Image) + Cue + Log | MP3 CBR 320Kbps | 10 Tracks
Elektra | 62434-2B | ~234 + 86 Mb

The Doors - The Complete Studio Recordings [1999, 7CD Box Set, ELEKTRA 62434-2A~G]

Tracklist:

01. Strange Days [03:06]
02. You're Lost Little Girl [03:04]
03. Love Me Two Times [03:18]
04. Unhappy Girl [01:58]
05. Horse Latitudes [01:39]
06. Moonlight Drive [03:01]
07. People Are Strange [02:13]
08. My Eyes Have Seen You [02:29]
09. I Can't See Your Face In My Mind [03:26]
10. When The Music's Over [11:03]

Exact Audio Copy V0.99 prebeta 5 from 4. May 2009

EAC extraction logfile from 29. May 2010, 20:19

The Doors / Strange Days

Used drive : HP DVD Writer 1040r Adapter: 3 ID: 0

Read mode : Secure
Utilize accurate stream : Yes
Defeat audio cache : Yes
Make use of C2 pointers : No

Read offset correction : 6
Overread into Lead-In and Lead-Out : No
Fill up missing offset samples with silence : Yes
Delete leading and trailing silent blocks : No
Null samples used in CRC calculations : Yes
Used interface : Native Win32 interface for Win NT & 2000

Used output format : User Defined Encoder
Selected bitrate : 1024 kBit/s
Quality : High
Add ID3 tag : No
Command line compressor : C:\Program Files (x86)\Exact Audio Copy\FLAC\FLAC.EXE
Additional command line options : -6 -V -T "ARTIST=%a" -T "TITLE=%t" -T "ALBUM=%g" -T "DATE=%y" -T "TRACKNUMBER=%n" -T "GENRE=%m" -T "COMMENT=%e" %s -o %d


TOC of the extracted CD

Track | Start | Length | Start sector | End sector
––––––––––––––––––––––––––––-
1 | 0:00.32 | 3:09.20 | 32 | 14226
2 | 3:09.52 | 3:03.15 | 14227 | 27966
3 | 6:12.67 | 3:16.65 | 27967 | 42731
4 | 9:29.57 | 2:00.18 | 42732 | 51749
5 | 11:30.00 | 1:35.15 | 51750 | 58889
6 | 13:05.15 | 3:04.07 | 58890 | 72696
7 | 16:09.22 | 2:12.23 | 72697 | 82619
8 | 18:21.45 | 2:29.45 | 82620 | 93839
9 | 20:51.15 | 3:26.72 | 93840 | 109361
10 | 24:18.12 | 10:59.28 | 109362 | 158814


Range status and errors

Selected range

Filename C:\BAT\The Doors - Strange Days.wav

Peak level 98.9 %
Range quality 100.0 %
Test CRC DEAC5D27
Copy CRC DEAC5D27
Copy OK

No errors occurred


AccurateRip summary

Track 1 accurately ripped (confidence 40) [2F3BDEE5]
Track 2 accurately ripped (confidence 40) [F2650ED6]
Track 3 accurately ripped (confidence 40) [A70ED217]
Track 4 accurately ripped (confidence 40) [DF06B0E9]
Track 5 accurately ripped (confidence 40) [4A7D28B6]
Track 6 accurately ripped (confidence 40) [129F35E6]
Track 7 accurately ripped (confidence 40) [EF22B5A4]
Track 8 accurately ripped (confidence 40) [BB7B9EAE]
Track 9 accurately ripped (confidence 40) [3501B2F3]
Track 10 accurately ripped (confidence 39) [4A56CB93]

All tracks accurately ripped

End of status report

AUDIOCHECKER v2.0 beta (build 457) - by Dester - opdester@freemail.hu
~~~~~~~~~~~~~~~~~~~~~~~~~~~~~~~~~~
-=== DO NOT EDIT THIS FILE! ===-

Path: …\1967b - Strange Days [ELEKTRA EKS 62434-2B]

01 -=- The Doors - Strange Days.flac -=- CDDA (100%)

187845604

[Verification date: 26.11.2010 15:49:33]
[Disc ID: 000ae0e4-0057be75-7b08450a]
Pregap length 00:00:32.
HDCD: peak extend: none, transient filter: some, gain: none
Track [ CRC ] Status
01 [2f3bdee5] (45/76) Accurately ripped as in pressing(s) #1
02 [f2650ed6] (45/76) Accurately ripped as in pressing(s) #1
03 [a70ed217] (45/76) Accurately ripped as in pressing(s) #1
04 [df06b0e9] (45/76) Accurately ripped as in pressing(s) #1
05 [4a7d28b6] (45/75) Accurately ripped as in pressing(s) #1
06 [129f35e6] (45/75) Accurately ripped as in pressing(s) #1
07 [ef22b5a4] (46/77) Accurately ripped as in pressing(s) #1
08 [bb7b9eae] (45/76) Accurately ripped as in pressing(s) #1
09 [3501b2f3] (45/76) Accurately ripped as in pressing(s) #1
10 [4a56cb93] (45/76) Accurately ripped as in pressing(s) #1
Offsetted by -669:
01 [6c512448] (03/76) Accurately ripped as in pressing(s) #3
02 [56be98f7] (03/76) Accurately ripped as in pressing(s) #3
03 [398098a0] (03/76) Accurately ripped as in pressing(s) #3
04 [6a1c4489] (03/76) Accurately ripped as in pressing(s) #3
05 [f65595a6] (02/75) Accurately ripped as in pressing(s) #3
06 [0592afad] (02/75) Accurately ripped as in pressing(s) #3
07 [3c9b06a9] (03/77) Accurately ripped as in pressing(s) #3
08 [a425188b] (03/76) Accurately ripped as in pressing(s) #3
09 [63c08bbf] (03/76) Accurately ripped as in pressing(s) #3
10 [99cb2eac] (03/76) Accurately ripped as in pressing(s) #3
Offsetted by -659:
01 [3406e552] (02/76) Accurately ripped as in pressing(s) #4
02 [f3e1fa5b] (02/76) Accurately ripped as in pressing(s) #4
03 [8b65782e] (02/76) Accurately ripped as in pressing(s) #4
04 [fe0442e0] (02/76) Accurately ripped as in pressing(s) #4
05 [8e8df87d] (02/75) Accurately ripped as in pressing(s) #4
06 [eff9a0fd] (02/75) Accurately ripped as in pressing(s) #4
07 [59f4a0c1] (02/77) Accurately ripped as in pressing(s) #4
08 [8e7d63b3] (02/76) Accurately ripped as in pressing(s) #4
09 [b4fdfe7b] (02/76) Accurately ripped as in pressing(s) #4
10 [1ab78edd] (02/76) Accurately ripped as in pressing(s) #4
Offsetted by 409:
01 [2d415445] (26/76) Partial match to pressing(s) #2
02 [c2437e5c] (00/76) No matches
03 [f946bea0] (00/76) No matches
04 [0a177b3f] (00/76) No matches
05 [02e39e8c] (00/75) No matches
06 [fd2daa6b] (00/75) No matches
07 [fde5dd36] (00/77) No matches
08 [dda4991b] (00/76) No matches
09 [e33d02f2] (00/76) No matches
10 [29e03ddb] (00/76) No matches
Offsetted by 630:
01 [5df82dbc] (00/76) No matches
02 [e5ef5be0] (26/76) Partial match to pressing(s) #2
03 [cb41bc9f] (00/76) No matches
04 [cacb7f29] (00/76) No matches
05 [2ffb26a2] (00/75) No matches
06 [32982269] (00/75) No matches
07 [b6188c58] (00/77) No matches
08 [8dbe260b] (00/76) No matches
09 [eff4ac10] (00/76) No matches
10 [e701ed99] (00/76) No matches
Offsetted by 844:
01 [f7e87c4c] (00/76) No matches
02 [3f3d1f4b] (00/76) No matches
03 [8468743c] (26/76) Partial match to pressing(s) #2
04 [daaadf12] (00/76) No matches
05 [4ac4d003] (00/75) No matches
06 [54698ef3] (00/75) No matches
07 [db7062b4] (00/77) No matches
08 [17d354a1] (00/76) No matches
09 [77f99b39] (00/76) No matches
10 [3b94c958] (00/76) No matches
Offsetted by 1074:
01 [3d852150] (00/76) No matches
02 [48f4e966] (00/76) No matches
03 [f2c80a18] (00/76) No matches
04 [3c85205f] (26/76) Partial match to pressing(s) #2
05 [728dbf6c] (00/75) No matches
06 [cbf84984] (00/75) No matches
07 [7b7b08fb] (00/77) No matches
08 [1ba834b8] (00/76) No matches
09 [12af3112] (00/76) No matches
10 [d6b018fb] (00/76) No matches
Offsetted by 1214:
01 [5e9b303e] (00/76) No matches
02 [387845d7] (00/76) No matches
03 [c1ff6d59] (00/76) No matches
04 [5a6c855a] (00/76) No matches
05 [ff55e9a8] (26/75) Partial match to pressing(s) #2
06 [320cbf3e] (00/75) No matches
07 [adbd4e36] (00/77) No matches
08 [0cdff9e1] (00/76) No matches
09 [8b030a70] (00/76) No matches
10 [e3dfb785] (00/76) No matches
Offsetted by 1325:
01 [0a45680c] (00/76) No matches
02 [8b33ddd9] (00/76) No matches
03 [1c2825c2] (00/76) No matches
04 [643edf75] (00/76) No matches
05 [f9ffe5a9] (00/75) No matches
06 [1b71ea61] (26/75) Partial match to pressing(s) #2
07 [f28f7935] (00/77) No matches
08 [62214205] (00/76) No matches
09 [bc6febc6] (00/76) No matches
10 [a5cb5527] (00/76) No matches
Offsetted by 1540:
01 [1382e8c3] (00/76) No matches
02 [faa1368e] (00/76) No matches
03 [bee4996f] (00/76) No matches
04 [b7870e9e] (00/76) No matches
05 [fd0fa04d] (00/75) No matches
06 [e643dc81] (00/75) No matches
07 [4b8464f9] (26/77) Partial match to pressing(s) #2
08 [29cdb080] (00/76) No matches
09 [67f8a237] (00/76) No matches
10 [74f32264] (00/76) No matches
Offsetted by 1694:
01 [94333f4a] (00/76) No matches
02 [9542757d] (00/76) No matches
03 [35b24f34] (00/76) No matches
04 [ce7476bb] (00/76) No matches
05 [a83d72aa] (00/75) No matches
06 [04a8c3f5] (00/75) No matches
07 [d757ef2a] (00/77) No matches
08 [ceb72d86] (26/76) Partial match to pressing(s) #2
09 [dbfca279] (00/76) No matches
10 [5d4350b2] (00/76) No matches
Offsetted by 1868:
01 [d7927e26] (00/76) No matches
02 [e17688af] (00/76) No matches
03 [70a53ed0] (00/76) No matches
04 [20e5fcfb] (00/76) No matches
05 [bf395360] (00/75) No matches
06 [d587542d] (00/75) No matches
07 [3cd848fd] (00/77) No matches
08 [bf091aa9] (00/76) No matches
09 [d52fe893] (26/76) Partial match to pressing(s) #2
10 [e2f339eb] (00/76) No matches
More than 10 offsets match!

Track [ CRC32 ] [W/O NULL] [ LOG ]
– [DEAC5D27] [F1F5C09D] CRC32
01 [D9EF1033] [CC79B6BA]
02 [965CE9B4] [E3047F5A]
03 [C19E7A9F] [7A53C651]
04 [583B1168] [B9FE58C1]
05 [1761DED4] [B1C18F17]
06 [800EB446] [C9659E75]
07 [F573664B] [09E128B8]
08 [78EC1BCB] [F2990C1F]
09 [325253CD] [A1305F0E]
10 [8CF73151] [EE66B1A6]

–––––––––––––––––––––––––––––––––

The Doors - The Complete Studio Recordings [1999, 7CD Box Set, ELEKTRA 62434-2A~G]

CD03: The Doors - Waiting For The Sun (1968)
Rock | EAC Rip | Flac(Image) + Cue + Log | MP3 CBR 320Kbps | 11 Tracks
Elektra | 62434-2C | ~ 215 + 80 Mb

The Doors - The Complete Studio Recordings [1999, 7CD Box Set, ELEKTRA 62434-2A~G]

Tracklist:

01. Hello, I Love You [02:15]
02. Love Street [02:52]
03. Not to Touch the Earth [03:56]
04. Summer's Almost Gone [03:22]
05. Wintertime Love [01:54]
06. The Unknown Soldier [03:23]
07. Spanish Caravan [03:02]
08. My Wild Love [02:53]
09. We Could Be So Good Together [02:24]
10. Yes, The River Knows [02:37]
11. Five to One [04:28]

Exact Audio Copy V0.99 prebeta 5 from 4. May 2009

EAC extraction logfile from 29. May 2010, 19:41

The Doors / Waiting for the Sun

Used drive : HP DVD Writer 1040r Adapter: 3 ID: 0

Read mode : Secure
Utilize accurate stream : Yes
Defeat audio cache : Yes
Make use of C2 pointers : No

Read offset correction : 6
Overread into Lead-In and Lead-Out : No
Fill up missing offset samples with silence : Yes
Delete leading and trailing silent blocks : No
Null samples used in CRC calculations : Yes
Used interface : Native Win32 interface for Win NT & 2000

Used output format : User Defined Encoder
Selected bitrate : 1024 kBit/s
Quality : High
Add ID3 tag : No
Command line compressor : C:\Program Files (x86)\Exact Audio Copy\FLAC\FLAC.EXE
Additional command line options : -6 -V -T "ARTIST=%a" -T "TITLE=%t" -T "ALBUM=%g" -T "DATE=%y" -T "TRACKNUMBER=%n" -T "GENRE=%m" -T "COMMENT=%e" %s -o %d


TOC of the extracted CD

Track | Start | Length | Start sector | End sector
––––––––––––––––––––––––––––-
1 | 0:00.32 | 2:16.25 | 32 | 10256
2 | 2:16.57 | 2:52.20 | 10257 | 23176
3 | 5:09.02 | 3:55.25 | 23177 | 40826
4 | 9:04.27 | 3:22.13 | 40827 | 55989
5 | 12:26.40 | 1:54.00 | 55990 | 64539
6 | 14:20.40 | 3:25.32 | 64540 | 79946
7 | 17:45.72 | 2:59.30 | 79947 | 93401
8 | 20:45.27 | 2:52.45 | 93402 | 106346
9 | 23:37.72 | 2:24.28 | 106347 | 117174
10 | 26:02.25 | 2:37.55 | 117175 | 129004
11 | 28:40.05 | 4:26.17 | 129005 | 148971


Range status and errors

Selected range

Filename C:\BAT\The Doors - Waiting for the Sun.wav

Peak level 98.9 %
Range quality 100.0 %
Test CRC 289561A4
Copy CRC 289561A4
Copy OK

No errors occurred


AccurateRip summary

Track 1 accurately ripped (confidence 49) [EA1429E6]
Track 2 accurately ripped (confidence 48) [31A134BE]
Track 3 accurately ripped (confidence 48) [A99091A9]
Track 4 accurately ripped (confidence 46) [E7E38AD7]
Track 5 accurately ripped (confidence 48) [C6543618]
Track 6 accurately ripped (confidence 48) [18F1EE29]
Track 7 accurately ripped (confidence 47) [46BD5445]
Track 8 accurately ripped (confidence 46) [E49029B7]
Track 9 accurately ripped (confidence 47) [80AF15ED]
Track 10 accurately ripped (confidence 47) [3904D959]
Track 11 accurately ripped (confidence 44) [8FA9597E]

All tracks accurately ripped

End of status report

AUDIOCHECKER v2.0 beta (build 457) - by Dester - opdester@freemail.hu
~~~~~~~~~~~~~~~~~~~~~~~~~~~~~~~~~~
-=== DO NOT EDIT THIS FILE! ===-

Path: …\1968 - Waiting for the Sun [ELEKTRA EKS 62434-2C]

01 -=- The Doors - Waiting for the Sun.flac -=- CDDA (100%)

159823348

[Verification date: 26.11.2010 15:50:14]
[Disc ID: 000d4527-00736704-8c07c20b]
Pregap length 00:00:32.
HDCD: peak extend: none, transient filter: some, gain: none
Track [ CRC ] Status
01 [ea1429e6] (57/101) Accurately ripped as in pressing(s) #1
02 [31a134be] (56/100) Accurately ripped as in pressing(s) #1
03 [a99091a9] (56/100) Accurately ripped as in pressing(s) #1
04 [e7e38ad7] (53/97) Accurately ripped as in pressing(s) #1
05 [c6543618] (55/99) Accurately ripped as in pressing(s) #1
06 [18f1ee29] (55/99) Accurately ripped as in pressing(s) #1
07 [46bd5445] (54/98) Accurately ripped as in pressing(s) #1
08 [e49029b7] (53/97) Accurately ripped as in pressing(s) #1
09 [80af15ed] (54/98) Accurately ripped as in pressing(s) #1
10 [3904d959] (54/98) Accurately ripped as in pressing(s) #1
11 [8fa9597e] (50/96) Accurately ripped as in pressing(s) #1
Offsetted by -1359:
01 [8eefa075] (08/101) Accurately ripped as in pressing(s) #3
02 [d5ff9806] (08/100) Accurately ripped as in pressing(s) #3
03 [b09baef1] (08/100) Accurately ripped as in pressing(s) #3
04 [903f2edf] (08/97) Accurately ripped as in pressing(s) #3
05 [3cf6dd06] (08/99) Accurately ripped as in pressing(s) #3
06 [7c9e5ab8] (08/99) Accurately ripped as in pressing(s) #3
07 [81ba01fd] (08/98) Accurately ripped as in pressing(s) #3
08 [da9b47d4] (08/97) Accurately ripped as in pressing(s) #3
09 [ac9052cf] (08/98) Accurately ripped as in pressing(s) #3
10 [49cecc42] (08/98) Accurately ripped as in pressing(s) #3
11 [d7859a39] (08/96) Accurately ripped as in pressing(s) #3
Offsetted by -1212:
01 [ad2b9b61] (04/101) Accurately ripped as in pressing(s) #4
02 [cfe2ef40] (04/100) Accurately ripped as in pressing(s) #4
03 [2df69fd0] (04/100) Accurately ripped as in pressing(s) #4
04 [284292d2] (04/97) Accurately ripped as in pressing(s) #4
05 [8a29f9e9] (04/99) Accurately ripped as in pressing(s) #4
06 [0d5cb236] (04/99) Accurately ripped as in pressing(s) #4
07 [7904318c] (04/98) Accurately ripped as in pressing(s) #4
08 [8838cc7a] (04/97) Accurately ripped as in pressing(s) #4
09 [ef9853cb] (04/98) Accurately ripped as in pressing(s) #4
10 [d84fab89] (04/98) Accurately ripped as in pressing(s) #4
11 [95dcffd3] (04/96) Accurately ripped as in pressing(s) #4
Offsetted by -943:
01 [df3dd6a4] (02/101) Accurately ripped as in pressing(s) #6
02 [8daa7795] (02/100) Accurately ripped as in pressing(s) #6
03 [ee813e06] (02/100) Accurately ripped as in pressing(s) #6
04 [44eb78d4] (02/97) Accurately ripped as in pressing(s) #6
05 [46eb15c4] (02/99) Accurately ripped as in pressing(s) #6
06 [51b6d6d3] (02/99) Accurately ripped as in pressing(s) #6
07 [9fb491c2] (02/98) Accurately ripped as in pressing(s) #6
08 [52a105fb] (02/97) Accurately ripped as in pressing(s) #6
09 [db52354e] (02/98) Accurately ripped as in pressing(s) #6
10 [7e6f80d5] (02/98) Accurately ripped as in pressing(s) #6
11 [61d51943] (02/96) Accurately ripped as in pressing(s) #7
Offsetted by -669:
01 [5bbe834d] (02/101) Accurately ripped as in pressing(s) #5
02 [9ceaf9a8] (02/100) Accurately ripped as in pressing(s) #5
03 [cac92de6] (02/100) Accurately ripped as in pressing(s) #5
04 [e903ed98] (02/97) Accurately ripped as in pressing(s) #5
05 [64b213ae] (02/99) Accurately ripped as in pressing(s) #5
06 [9e4a0232] (02/99) Accurately ripped as in pressing(s) #5
07 [299dc284] (02/98) Accurately ripped as in pressing(s) #5
08 [8aa748ff] (02/97) Accurately ripped as in pressing(s) #5
09 [9463c7b1] (02/98) Accurately ripped as in pressing(s) #5
10 [98454c7a] (02/98) Accurately ripped as in pressing(s) #5
11 [b4600116] (02/96) Accurately ripped as in pressing(s) #5
Offsetted by 671:
01 [a9838d1a] (28/101) Partial match to pressing(s) #2
02 [f7c414cd] (00/100) No matches
03 [33be16f8] (00/100) No matches
04 [34277c17] (00/97) No matches
05 [d0676adf] (00/99) No matches
06 [9ad930e5] (00/99) No matches
07 [0190a307] (00/98) No matches
08 [c24b707e] (00/97) No matches
09 [a84cdf03] (00/98) No matches
10 [7eff2fa3] (00/98) No matches
11 [8962aab8] (00/96) No matches
Offsetted by 832:
01 [ee279bec] (00/101) No matches
02 [f1d776cf] (28/100) Partial match to pressing(s) #2
03 [ed4259d9] (00/100) No matches
04 [709d95f7] (00/97) No matches
05 [0e1bc90d] (00/99) No matches
06 [0aa1270d] (00/99) No matches
07 [cf8af2cb] (00/98) No matches
08 [dd00910f] (00/97) No matches
09 [fbc7af08] (00/98) No matches
10 [7f750604] (00/98) No matches
11 [8d4497d2] (00/96) No matches
Offsetted by 1036:
01 [9dc72d00] (00/101) No matches
02 [c8ff2427] (00/100) No matches
03 [dcedf08d] (28/100) Partial match to pressing(s) #2
04 [a409d3b8] (00/97) No matches
05 [8ad11c8c] (00/99) No matches
06 [d5ed6c59] (00/99) No matches
07 [cfd68f08] (00/98) No matches
08 [f32f347a] (00/97) No matches
09 [c7477ca1] (00/98) No matches
10 [747c21f2] (00/98) No matches
11 [ff94f459] (00/96) No matches
Offsetted by 1313:
01 [9100f87d] (00/101) No matches
02 [3e1f3b9e] (00/100) No matches
03 [6d508cc1] (00/100) No matches
04 [a010a8ac] (28/97) Partial match to pressing(s) #2
05 [6ce8b2fa] (00/99) No matches
06 [6e8bc803] (00/99) No matches
07 [97d1207a] (00/98) No matches
08 [07505a37] (00/97) No matches
09 [bc9ee589] (00/98) No matches
10 [7a70ea80] (00/98) No matches
11 [6d01f193] (00/96) No matches
Offsetted by 1552:
01 [b06b1793] (00/101) No matches
02 [7a8dd767] (00/100) No matches
03 [115460d4] (00/100) No matches
04 [1202777a] (00/97) No matches
05 [0bdf8137] (28/99) Partial match to pressing(s) #2
06 [4be4ea45] (00/99) No matches
07 [7f099813] (00/98) No matches
08 [66d6d95b] (00/97) No matches
09 [425ddfa3] (00/98) No matches
10 [60064158] (00/98) No matches
11 [e3cc2a3d] (00/96) No matches
Offsetted by 1686:
01 [96118c91] (00/101) No matches
02 [0f0b0d6a] (00/100) No matches
03 [d98ff73e] (00/100) No matches
04 [e54b2f83] (00/97) No matches
05 [12707612] (00/99) No matches
06 [953c0695] (28/99) Partial match to pressing(s) #2
07 [8ba49acc] (00/98) No matches
08 [7e717158] (00/97) No matches
09 [0dcc4df0] (00/98) No matches
10 [74a5b51e] (00/98) No matches
11 [b9f70aea] (00/96) No matches
Offsetted by 1927:
01 [4675f3a6] (00/101) No matches
02 [d959848e] (00/100) No matches
03 [ce5bebaf] (00/100) No matches
04 [6a0a9658] (00/97) No matches
05 [638d9590] (00/99) No matches
06 [dbd3fce9] (00/99) No matches
07 [25f5324c] (28/98) Partial match to pressing(s) #2
08 [f211ff6d] (00/97) No matches
09 [3f7e15b2] (00/98) No matches
10 [506abd96] (00/98) No matches
11 [4477c33a] (00/96) No matches
More than 10 offsets match!

Track [ CRC32 ] [W/O NULL] [ LOG ]
– [289561A4] [7CF059E6] CRC32
01 [F741B1B0] [276AAA1A]
02 [4FCC7340] [FF92218F]
03 [626751EA] [35F06DA2]
04 [F0D15423] [2C0F1FFB]
05 [8B04AB8A] [4177E3EC]
06 [6286DFD5] [F666C021]
07 [FF810BA0] [C24B8E0D]
08 [C715221B] [BF0A9D95]
09 [536FF34C] [6AF2408F]
10 [06B190BD] [CEB08A93]
11 [5BD9B74D] [1156DEA1]

–––––––––––––––––––––––––––––––––

The Doors - The Complete Studio Recordings [1999, 7CD Box Set, ELEKTRA 62434-2A~G]

CD04: The Doors - The Soft Parade (1969)
Rock | EAC Rip | Flac(Image) + Cue + Log | MP3 CBR 320Kbps | 9 Tracks
Elektra | 62434-2D | ~223 + 87 Mb

The Doors - The Complete Studio Recordings [1999, 7CD Box Set, ELEKTRA 62434-2A~G]

Tracklist:

01. Tell All The People [03:21]
02. Touch Me [03:12]
03. Shaman's Blues [04:49]
04. Do It [03:09]
05. Easy Ride [02:41]
06. Wild Child [02:39]
07. Runnin' Blue [02:27]
08. Wishful Sinful [02:57]
09. The Soft Parade [08:39]

Exact Audio Copy V0.99 prebeta 5 from 4. May 2009

EAC extraction logfile from 29. May 2010, 18:37

The Doors / The Soft Parade

Used drive : HP DVD Writer 1040r Adapter: 3 ID: 0

Read mode : Secure
Utilize accurate stream : Yes
Defeat audio cache : Yes
Make use of C2 pointers : No

Read offset correction : 6
Overread into Lead-In and Lead-Out : No
Fill up missing offset samples with silence : Yes
Delete leading and trailing silent blocks : No
Null samples used in CRC calculations : Yes
Used interface : Native Win32 interface for Win NT & 2000

Used output format : User Defined Encoder
Selected bitrate : 1024 kBit/s
Quality : High
Add ID3 tag : No
Command line compressor : C:\Program Files (x86)\Exact Audio Copy\FLAC\FLAC.EXE
Additional command line options : -6 -V -T "ARTIST=%a" -T "TITLE=%t" -T "ALBUM=%g" -T "DATE=%y" -T "TRACKNUMBER=%n" -T "GENRE=%m" -T "COMMENT=%e" %s -o %d


TOC of the extracted CD

Track | Start | Length | Start sector | End sector
––––––––––––––––––––––––––––-
1 | 0:00.32 | 3:21.33 | 32 | 15139
2 | 3:21.65 | 3:12.30 | 15140 | 29569
3 | 6:34.20 | 4:48.35 | 29570 | 51204
4 | 11:22.55 | 3:09.02 | 51205 | 65381
5 | 14:31.57 | 2:43.28 | 65382 | 77634
6 | 17:15.10 | 2:36.55 | 77635 | 89389
7 | 19:51.65 | 2:27.65 | 89390 | 100479
8 | 22:19.55 | 2:58.27 | 100480 | 113856
9 | 25:18.07 | 8:36.63 | 113857 | 152619


Range status and errors

Selected range

Filename C:\BAT\The Doors - The Soft Parade.wav

Peak level 98.9 %
Range quality 100.0 %
Test CRC A8CF997C
Copy CRC A8CF997C
Copy OK

No errors occurred


AccurateRip summary

Track 1 accurately ripped (confidence 40) [09247FB0]
Track 2 accurately ripped (confidence 40) [3471DF4C]
Track 3 accurately ripped (confidence 40) [76CD9628]
Track 4 accurately ripped (confidence 40) [B0EB239D]
Track 5 accurately ripped (confidence 39) [982B3935]
Track 6 accurately ripped (confidence 41) [D42327F0]
Track 7 accurately ripped (confidence 40) [12A482E9]
Track 8 accurately ripped (confidence 40) [CBADE4E3]
Track 9 accurately ripped (confidence 36) [50243D0B]

All tracks accurately ripped

End of status report

AUDIOCHECKER v2.0 beta (build 457) - by Dester - opdester@freemail.hu
~~~~~~~~~~~~~~~~~~~~~~~~~~~~~~~~~~
-=== DO NOT EDIT THIS FILE! ===-

Path: …\1969 - The Soft Parade [ELEKTRA EKS 62434-2D]

01 -=- The Doors - The Soft Parade.flac -=- CDDA (99%)

261770372

[Verification date: 26.11.2010 15:50:56]
[Disc ID: 000a9c0f-004dc655-6707f209]
Pregap length 00:00:32.
HDCD: peak extend: none, transient filter: some, gain: none
Track [ CRC ] Status
01 [09247fb0] (45/49) Accurately ripped as in pressing(s) #1
02 [3471df4c] (45/50) Accurately ripped as in pressing(s) #1
03 [76cd9628] (45/49) Accurately ripped as in pressing(s) #1
04 [b0eb239d] (45/49) Accurately ripped as in pressing(s) #1
05 [982b3935] (44/50) Accurately ripped as in pressing(s) #1
06 [d42327f0] (46/53) Accurately ripped as in pressing(s) #1
07 [12a482e9] (45/49) Accurately ripped as in pressing(s) #1
08 [cbade4e3] (45/50) Accurately ripped as in pressing(s) #1
09 [50243d0b] (41/44) Accurately ripped as in pressing(s) #1
Offsetted by -681:
01 [40d1160c] (04/49) Accurately ripped as in pressing(s) #2
02 [b8f155d2] (05/50) Accurately ripped as in pressing(s) #2
03 [8194db8f] (04/49) Accurately ripped as in pressing(s) #2
04 [bcf034e4] (04/49) Accurately ripped as in pressing(s) #2
05 [22df1a3a] (04/50) Accurately ripped as in pressing(s) #2
06 [d1f922e3] (05/53) Accurately ripped as in pressing(s) #2
07 [04c9ff54] (04/49) Accurately ripped as in pressing(s) #2
08 [7aba2ac5] (05/50) Accurately ripped as in pressing(s) #2
09 [ca155500] (03/44) Accurately ripped as in pressing(s) #2
Offsetted by -669:
01 [ffebedc6] (00/49) No matches
02 [a22ca611] (00/50) No matches
03 [dec6befa] (00/49) No matches
04 [c1df97d5] (00/49) No matches
05 [f1fc4c21] (02/50) Accurately ripped as in pressing(s) #3
06 [5428ceb7] (02/53) Accurately ripped as in pressing(s) #3
07 [036e4ae9] (00/49) No matches
08 [c5fa9f8f] (00/50) No matches
09 [5782f02c] (00/44) No matches

Track [ CRC32 ] [W/O NULL] [ LOG ]
– [A8CF997C] [709B8FB4] CRC32
01 [04645077] [7A4523AC]
02 [AC1CE313] [A526D31F]
03 [49D3983A] [3BBAA3FE]
04 [775F72BE] [A29E4B2D]
05 [78D7F1E4] [996451FE]
06 [EDA12893] [0BB57A70]
07 [4DEA6823] [6738BD8A]
08 [CD68E845] [E3089EF6]
09 [080CFFD9] [3C90D929]

–––––––––––––––––––––––––––––––––

The Doors - The Complete Studio Recordings [1999, 7CD Box Set, ELEKTRA 62434-2A~G]

CD05: The Doors - Hard Rock Cafe/Morrison Hotel (1970)
Rock | EAC Rip | Flac(Image) + Cue + Log | MP3 CBR 320Kbps | 11 Tracks
Elektra | 62434-2E | ~260 + 106 Mb

The Doors - The Complete Studio Recordings [1999, 7CD Box Set, ELEKTRA 62434-2A~G]

Tracklist:

01. Roadhouse Blues [04:03]
02. Waiting for the Sun [04:00]
03. You Make Me Real [02:53]
04. Peace Frog [02:52]
05. Blue Sunday [02:11]
06. Ship of Fools [03:11]
07. Land Ho! [04:09]
08. The Spy [04:16]
09. Queen of the Highway [02:49]
10. Indian Summer [02:34]
11. Maggie M'Gill [04:27]

Exact Audio Copy V0.99 prebeta 5 from 4. May 2009

EAC extraction logfile from 29. May 2010, 19:12

The Doors / Hard Rock Cafe/Morrison Hotel

Used drive : HP DVD Writer 1040r Adapter: 3 ID: 0

Read mode : Secure
Utilize accurate stream : Yes
Defeat audio cache : Yes
Make use of C2 pointers : No

Read offset correction : 6
Overread into Lead-In and Lead-Out : No
Fill up missing offset samples with silence : Yes
Delete leading and trailing silent blocks : No
Null samples used in CRC calculations : Yes
Used interface : Native Win32 interface for Win NT & 2000

Used output format : User Defined Encoder
Selected bitrate : 1024 kBit/s
Quality : High
Add ID3 tag : No
Command line compressor : C:\Program Files (x86)\Exact Audio Copy\FLAC\FLAC.EXE
Additional command line options : -6 -V -T "ARTIST=%a" -T "TITLE=%t" -T "ALBUM=%g" -T "DATE=%y" -T "TRACKNUMBER=%n" -T "GENRE=%m" -T "COMMENT=%e" %s -o %d


TOC of the extracted CD

Track | Start | Length | Start sector | End sector
––––––––––––––––––––––––––––-
1 | 0:00.32 | 4:04.53 | 32 | 18384
2 | 4:05.10 | 4:00.25 | 18385 | 36409
3 | 8:05.35 | 2:53.25 | 36410 | 49409
4 | 10:58.60 | 2:50.00 | 49410 | 62159
5 | 13:48.60 | 2:12.72 | 62160 | 72131
6 | 16:01.57 | 3:08.30 | 72132 | 86261
7 | 19:10.12 | 4:10.33 | 86262 | 105044
8 | 23:20.45 | 4:17.10 | 105045 | 124329
9 | 27:37.55 | 2:47.17 | 124330 | 136871
10 | 30:24.72 | 2:35.58 | 136872 | 148554
11 | 33:00.55 | 4:24.25 | 148555 | 168379


Range status and errors

Selected range

Filename C:\BAT\The Doors - Hard Rock Cafe Morrison Hotel.wav

Peak level 98.9 %
Range quality 100.0 %
Test CRC 3ABBE863
Copy CRC 3ABBE863
Copy OK

No errors occurred


AccurateRip summary

Track 1 accurately ripped (confidence 44) [C360C41A]
Track 2 accurately ripped (confidence 45) [634B4E56]
Track 3 accurately ripped (confidence 45) [A721B82E]
Track 4 accurately ripped (confidence 44) [329A468B]
Track 5 accurately ripped (confidence 44) [1A690930]
Track 6 accurately ripped (confidence 44) [2BDA5C8E]
Track 7 accurately ripped (confidence 44) [65947B48]
Track 8 accurately ripped (confidence 44) [31A5AEE3]
Track 9 accurately ripped (confidence 45) [317620AE]
Track 10 accurately ripped (confidence 44) [CA4EB618]
Track 11 accurately ripped (confidence 41) [F47E89B3]

All tracks accurately ripped

End of status report

AUDIOCHECKER v2.0 beta (build 457) - by Dester - opdester@freemail.hu
~~~~~~~~~~~~~~~~~~~~~~~~~~~~~~~~~~
-=== DO NOT EDIT THIS FILE! ===-

Path: …\1970 - Morrison Hotel [ELEKTRA EKS 62434-2E]

01 -=- The Doors - Hard Rock Cafe Morrison Hotel.flac -=- CDDA (100%)

25613060

[Verification date: 26.11.2010 15:51:29]
[Disc ID: 000f6165-00845a15-9508c50b]
Pregap length 00:00:32.
HDCD: peak extend: none, transient filter: some, gain: none
Track [ CRC ] Status
01 [c360c41a] (50/52) Accurately ripped as in pressing(s) #1
02 [634b4e56] (51/55) Accurately ripped as in pressing(s) #1
03 [a721b82e] (51/55) Accurately ripped as in pressing(s) #1
04 [329a468b] (50/54) Accurately ripped as in pressing(s) #1
05 [1a690930] (50/54) Accurately ripped as in pressing(s) #1
06 [2bda5c8e] (50/54) Accurately ripped as in pressing(s) #1
07 [65947b48] (50/54) Accurately ripped as in pressing(s) #1
08 [31a5aee3] (50/54) Accurately ripped as in pressing(s) #1
09 [317620ae] (51/55) Accurately ripped as in pressing(s) #1
10 [ca4eb618] (50/54) Accurately ripped as in pressing(s) #1
11 [f47e89b3] (47/49) Accurately ripped as in pressing(s) #1
Offsetted by -1327:
01 [84bce00f] (00/52) No matches
02 [d2ee38e8] (02/55) Accurately ripped as in pressing(s) #3
03 [a417fa4c] (02/55) Accurately ripped as in pressing(s) #3
04 [c9cefffb] (02/54) Accurately ripped as in pressing(s) #3
05 [79a61ac2] (02/54) Accurately ripped as in pressing(s) #3
06 [1fb0547c] (02/54) Accurately ripped as in pressing(s) #3
07 [33bf299d] (02/54) Accurately ripped as in pressing(s) #3
08 [a88c1b8b] (02/54) Accurately ripped as in pressing(s) #3
09 [7a0985b3] (02/55) Accurately ripped as in pressing(s) #3
10 [cf21fa5e] (02/54) Accurately ripped as in pressing(s) #3
11 [1128a8c4] (00/49) No matches
Offsetted by -669:
01 [d9f443ba] (02/52) Accurately ripped as in pressing(s) #2
02 [eed0bbd0] (02/55) Accurately ripped as in pressing(s) #2
03 [f5566ea6] (02/55) Accurately ripped as in pressing(s) #2
04 [a85ec311] (02/54) Accurately ripped as in pressing(s) #2
05 [8d2e8dca] (02/54) Accurately ripped as in pressing(s) #2
06 [530fd8f3] (02/54) Accurately ripped as in pressing(s) #2
07 [656971fb] (02/54) Accurately ripped as in pressing(s) #2
08 [0f6a659e] (02/54) Accurately ripped as in pressing(s) #2
09 [70e90333] (02/55) Accurately ripped as in pressing(s) #2
10 [bd2a02df] (02/54) Accurately ripped as in pressing(s) #2
11 [07e4d5f6] (02/49) Accurately ripped as in pressing(s) #2

Track [ CRC32 ] [W/O NULL] [ LOG ]
– [3ABBE863] [E9597906] CRC32
01 [EA3097C9] [D5EC5726]
02 [5CEBB652] [4B798BDD]
03 [88CB4C8B] [D21D62FA]
04 [9EDD9B2A] [F8416FB0]
05 [3FBD037F] [7AC506FD]
06 [F45A9A0F] [E87D2038]
07 [79E72248] [F6FEDB1C]
08 [1D8EC3DA] [F9BF1AAD]
09 [99FA8A6C] [97548775]
10 [D0146101] [DEF854E1]
11 [1A97C8B2] [1F007277]


–––––––––––––––––––––––––––––––––

The Doors - The Complete Studio Recordings [1999, 7CD Box Set, ELEKTRA 62434-2A~G]

CD06: The Doors - L.A. Woman (1971)
Rock | EAC Rip | Flac(Image) + Cue + Log | MP3 CBR 320Kbps | 10 Tracks
Elektra | 62434-2F | ~327 + 120 Mb

The Doors - The Complete Studio Recordings [1999, 7CD Box Set, ELEKTRA 62434-2A~G]

Tracklist:

01. The Changeling [04:19]
02. Love Her Madly [03:21]
03. Been Down So Long [04:42]
04. Cars Hiss By My Window [04:11]
05. L.A. Woman [07:54]
06. L'America [04:37]
07. Hyacinth House [03:13]
08. Crawling King Snake [05:01]
09. The WASP (Texas Radio And The Big Beat) [04:16]
10. Riders On The Storm [07:17]

Exact Audio Copy V0.99 prebeta 5 from 4. May 2009

EAC extraction logfile from 29. May 2010, 20:55

Doors / L.A. Woman

Used drive : HP DVD Writer 1040r Adapter: 3 ID: 0

Read mode : Secure
Utilize accurate stream : Yes
Defeat audio cache : Yes
Make use of C2 pointers : No

Read offset correction : 6
Overread into Lead-In and Lead-Out : No
Fill up missing offset samples with silence : Yes
Delete leading and trailing silent blocks : No
Null samples used in CRC calculations : Yes
Used interface : Native Win32 interface for Win NT & 2000

Used output format : User Defined Encoder
Selected bitrate : 1024 kBit/s
Quality : High
Add ID3 tag : No
Command line compressor : C:\Program Files (x86)\Exact Audio Copy\FLAC\FLAC.EXE
Additional command line options : -6 -V -T "ARTIST=%a" -T "TITLE=%t" -T "ALBUM=%g" -T "DATE=%y" -T "TRACKNUMBER=%n" -T "GENRE=%m" -T "COMMENT=%e" %s -o %d


TOC of the extracted CD

Track | Start | Length | Start sector | End sector
––––––––––––––––––––––––––––-
1 | 0:00.32 | 4:21.48 | 32 | 19654
2 | 4:22.05 | 3:20.65 | 19655 | 34719
3 | 7:42.70 | 4:41.17 | 34720 | 55811
4 | 12:24.12 | 4:12.13 | 55812 | 74724
5 | 16:36.25 | 7:53.02 | 74725 | 110201
6 | 24:29.27 | 4:38.28 | 110202 | 131079
7 | 29:07.55 | 3:12.02 | 131080 | 145481
8 | 32:19.57 | 5:00.60 | 145482 | 168041
9 | 37:20.42 | 4:15.40 | 168042 | 187206
10 | 41:36.07 | 7:15.25 | 187207 | 219856


Range status and errors

Selected range

Filename C:\BAT\Doors - L.A. Woman.wav

Peak level 98.9 %
Range quality 100.0 %
Test CRC 248DCEED
Copy CRC 248DCEED
Copy OK

No errors occurred


AccurateRip summary

Track 1 accurately ripped (confidence 54) [60B7B3A7]
Track 2 accurately ripped (confidence 54) [07F75658]
Track 3 accurately ripped (confidence 54) [5A2A125F]
Track 4 accurately ripped (confidence 54) [54055129]
Track 5 accurately ripped (confidence 54) [44A6211F]
Track 6 accurately ripped (confidence 53) [9BE32D1E]
Track 7 accurately ripped (confidence 52) [7DB8D502]
Track 8 accurately ripped (confidence 54) [BC7EF17E]
Track 9 accurately ripped (confidence 54) [57796921]
Track 10 accurately ripped (confidence 51) [956BE7B8]

All tracks accurately ripped

End of status report

AUDIOCHECKER v2.0 beta (build 457) - by Dester - opdester@freemail.hu
~~~~~~~~~~~~~~~~~~~~~~~~~~~~~~~~~~
-=== DO NOT EDIT THIS FILE! ===-

Path: …\1971 - L.A. Woman [ELEKTRA EKS 62434-2F]

01 -=- Doors - L.A. Woman.flac -=- CDDA (100%)

185617572

[Verification date: 26.11.2010 15:52:12]
[Disc ID: 00117fbe-008db0f6-990b730a]
Pregap length 00:00:32.
HDCD: peak extend: none, transient filter: some, gain: none
Track [ CRC ] Status
01 [60b7b3a7] (58/91) Accurately ripped as in pressing(s) #1
02 [07f75658] (58/91) Accurately ripped as in pressing(s) #1
03 [5a2a125f] (58/91) Accurately ripped as in pressing(s) #1
04 [54055129] (58/91) Accurately ripped as in pressing(s) #1
05 [44a6211f] (58/91) Accurately ripped as in pressing(s) #1
06 [9be32d1e] (57/90) Accurately ripped as in pressing(s) #1
07 [7db8d502] (56/89) Accurately ripped as in pressing(s) #1
08 [bc7ef17e] (58/91) Accurately ripped as in pressing(s) #1
09 [57796921] (58/91) Accurately ripped as in pressing(s) #1
10 [956be7b8] (55/87) Accurately ripped as in pressing(s) #1
Offsetted by -523:
01 [218f704f] (06/91) Accurately ripped as in pressing(s) #3
02 [17abd249] (06/91) Accurately ripped as in pressing(s) #3
03 [4bd88d04] (06/91) Accurately ripped as in pressing(s) #3
04 [04570d68] (06/91) Accurately ripped as in pressing(s) #3
05 [c0dfc478] (06/91) Accurately ripped as in pressing(s) #3
06 [a092c401] (06/90) Accurately ripped as in pressing(s) #3
07 [0fa66064] (06/89) Accurately ripped as in pressing(s) #3
08 [4c6fcf5e] (06/91) Accurately ripped as in pressing(s) #3
09 [2dc5a8f9] (06/91) Accurately ripped as in pressing(s) #3
10 [f7788dd1] (05/87) Accurately ripped as in pressing(s) #3
Offsetted by 347:
01 [1558e4cb] (27/91) Partial match to pressing(s) #2
02 [b93c46cf] (00/91) No matches
03 [2298c57a] (00/91) No matches
04 [aa9593b9] (00/91) No matches
05 [df40f0b1] (00/91) No matches
06 [642bfc92] (00/90) No matches
07 [7d28b9cd] (00/89) No matches
08 [edfc77d9] (00/91) No matches
09 [58ca60c5] (00/91) No matches
10 [6e41127b] (00/87) No matches
Offsetted by 650:
01 [93c7caa1] (00/91) No matches
02 [fbd35c74] (27/91) Partial match to pressing(s) #2
03 [70964a31] (00/91) No matches
04 [1d661ece] (00/91) No matches
05 [eb47fd5d] (00/91) No matches
06 [d9782a1c] (00/90) No matches
07 [2c0510f2] (00/89) No matches
08 [b2444d71] (00/91) No matches
09 [a6d36ebb] (00/91) No matches
10 [86b9b59a] (00/87) No matches
Offsetted by 882:
01 [65301a2c] (00/91) No matches
02 [06de4e82] (00/91) No matches
03 [83e2dfc7] (27/91) Partial match to pressing(s) #2
04 [76b96a66] (00/91) No matches
05 [303ed705] (00/91) No matches
06 [eee3d23e] (00/90) No matches
07 [c40c7e0b] (00/89) No matches
08 [4e41dc47] (00/91) No matches
09 [52e2d4a7] (00/91) No matches
10 [7da39a4a] (00/87) No matches
Offsetted by 1206:
01 [13613647] (00/91) No matches
02 [e5f254e3] (00/91) No matches
03 [031146d0] (00/91) No matches
04 [0b4ad3e5] (27/91) Partial match to pressing(s) #2
05 [7b1d2d77] (00/91) No matches
06 [be8b33aa] (00/90) No matches
07 [e4505bd7] (00/89) No matches
08 [cd8c96b5] (00/91) No matches
09 [06550de9] (00/91) No matches
10 [56e0118e] (00/87) No matches
Offsetted by 1498:
01 [559da1d5] (00/91) No matches
02 [2964402a] (00/91) No matches
03 [4d83866f] (00/91) No matches
04 [6fcb5483] (00/91) No matches
05 [4bd55b10] (27/91) Partial match to pressing(s) #2
06 [5194b793] (00/90) No matches
07 [b54da650] (00/89) No matches
08 [917d7b1f] (00/91) No matches
09 [72cf608c] (00/91) No matches
10 [bc8225a9] (00/87) No matches
Offsetted by 2045:
01 [97696272] (00/91) No matches
02 [0043ca99] (00/91) No matches
03 [20314af4] (00/91) No matches
04 [ed4f8241] (00/91) No matches
05 [33695e28] (00/91) No matches
06 [b7af6c1e] (27/90) Partial match to pressing(s) #2
07 [fbf63631] (00/89) No matches
08 [040471e5] (00/91) No matches
09 [c6cec000] (00/91) No matches
10 [80e2ce44] (00/87) No matches
Offsetted by 2366:
01 [ef089a54] (00/91) No matches
02 [708ba042] (00/91) No matches
03 [2f949b88] (00/91) No matches
04 [eb1f0ca0] (00/91) No matches
05 [bbe4b008] (00/91) No matches
06 [615c19af] (00/90) No matches
07 [909709a5] (27/89) Partial match to pressing(s) #2
08 [1d714e14] (00/91) No matches
09 [5183692e] (00/91) No matches
10 [849b5714] (00/87) No matches
Offsetted by 2589:
01 [07003da7] (00/91) No matches
02 [a7ee832a] (00/91) No matches
03 [a1404a8e] (00/91) No matches
04 [79831f67] (00/91) No matches
05 [9dbd7b58] (00/91) No matches
06 [19ca1c42] (00/90) No matches
07 [e9d50499] (00/89) No matches
08 [a5980070] (27/91) Partial match to pressing(s) #2
09 [1b58a515] (00/91) No matches
10 [d9a7e58d] (00/87) No matches
Offsetted by 2936:
01 [7212a89d] (00/91) No matches
02 [689df17f] (00/91) No matches
03 [e5c77aac] (00/91) No matches
04 [3bc29d97] (00/91) No matches
05 [6659ace6] (00/91) No matches
06 [07e003de] (00/90) No matches
07 [a238d79c] (00/89) No matches
08 [9b816291] (00/91) No matches
09 [e1a19382] (27/91) Partial match to pressing(s) #2
10 [d534c2ca] (00/87) No matches

Track [ CRC32 ] [W/O NULL] [ LOG ]
– [248DCEED] [84E5BFFD] CRC32
01 [2017F26A] [04465CAD]
02 [CE7A0041] [A474F596]
03 [F56905E5] [89314C7B]
04 [AA51EC03] [E6793F55]
05 [0D27667E] [2D30A590]
06 [C5540CDF] [9CC5938F]
07 [2913C5F6] [FCB4E469]
08 [1745F910] [C6E2ABBE]
09 [BBA6A113] [40DD5DE9]
10 [B96CF930] [B3FEA114]

–––––––––––––––––––––––––––––––––

The Doors - The Complete Studio Recordings [1999, 7CD Box Set, ELEKTRA 62434-2A~G]

CD07: The Doors - Essential Rarities (1999)
Rock | EAC Rip | Flac(Image) + Cue + Log | MP3 CBR 320Kbps | 15 Tracks
Elektra | 62434-2G | ~455 + 188 Mb

The Doors - The Complete Studio Recordings [1999, 7CD Box Set, ELEKTRA 62434-2A~G]

Tracklist:

1. Hello to the cities [live at Ed Sullivan Show '67 & Cobo Hall, Detroit '70]
2. Break on through [live at the Isle of Wight Festival, England 1970]
3. Roadhouse blues [live at Madison Square Garden, New York 1970]
4. Hyacinth blues [demo] [rec. at Robby Krieger's home studio 1969]
5. Who scared you [rec. at ELEKTRA Studios 1969]
6. Whiskey, mystics and man [rec. at ELEKTRA Studios 1970]
7. I will never be untrue [live at the Aquarius Theater, Hollywood 1969]
8. Moonlight drive [demo] [rec. at World Pacific Studios 1965]
9. Queen of the highway (alt. version) [rec. at ELEKTRA Studios 1969]
10. Someday soon [live at the Seattle Center 1970]
11. Hello, I love you [demo] [rec. at World Pacific Studios 1965]
12. Orange county suite [rec. at ELEKTRA Studios 1970]
13. The soft parade [live on PBS Television, New York 1969]
14. The end [live at Madison Square Garden, New York 1970]
15. Woman is a devil [rec. at ELEKTRA Studios 1969]

Exact Audio Copy V0.99 prebeta 5 from 4. May 2009

EAC extraction logfile from 29. May 2010, 21:41

The Doors / Essential Rarities (The Best Of The '97 Box Set)

Used drive : HP DVD Writer 1040r Adapter: 3 ID: 0

Read mode : Secure
Utilize accurate stream : Yes
Defeat audio cache : Yes
Make use of C2 pointers : No

Read offset correction : 6
Overread into Lead-In and Lead-Out : No
Fill up missing offset samples with silence : Yes
Delete leading and trailing silent blocks : No
Null samples used in CRC calculations : Yes
Used interface : Native Win32 interface for Win NT & 2000

Used output format : User Defined Encoder
Selected bitrate : 1024 kBit/s
Quality : High
Add ID3 tag : No
Command line compressor : C:\Program Files (x86)\Exact Audio Copy\FLAC\FLAC.EXE
Additional command line options : -6 -V -T "ARTIST=%a" -T "TITLE=%t" -T "ALBUM=%g" -T "DATE=%y" -T "TRACKNUMBER=%n" -T "GENRE=%m" -T "COMMENT=%e" %s -o %d


TOC of the extracted CD

Track | Start | Length | Start sector | End sector
––––––––––––––––––––––––––––-
1 | 0:00.00 | 0:57.22 | 0 | 4296
2 | 0:57.22 | 4:44.33 | 4297 | 25629
3 | 5:41.55 | 4:31.47 | 25630 | 46001
4 | 10:13.27 | 2:38.35 | 46002 | 57886
5 | 12:51.62 | 3:55.25 | 57887 | 75536
6 | 16:47.12 | 2:23.45 | 75537 | 86306
7 | 19:10.57 | 3:58.43 | 86307 | 104199
8 | 23:09.25 | 2:31.12 | 104200 | 115536
9 | 25:40.37 | 3:35.60 | 115537 | 131721
10 | 29:16.22 | 3:49.33 | 131722 | 148929
11 | 33:05.55 | 2:31.60 | 148930 | 160314
12 | 35:37.40 | 5:44.62 | 160315 | 186176
13 | 41:22.27 | 10:09.18 | 186177 | 231869
14 | 51:31.45 | 17:46.40 | 231870 | 311859
15 | 69:18.10 | 4:08.00 | 311860 | 330459
16 | 75:58.10 | 0:57.70 | 341860 | 346204


Range status and errors

Selected range

Filename C:\BAT\The Doors - Essential Rarities (The Best Of The '97 Box Set).wav

Peak level 99.0 %
Range quality 100.0 %
Test CRC 7A2D0395
Copy CRC 7A2D0395
Copy OK

No errors occurred


AccurateRip summary

Track 1 accurately ripped (confidence 50) [0F064609]
Track 2 accurately ripped (confidence 50) [EA119AC7]
Track 3 accurately ripped (confidence 50) [470BA3CD]
Track 4 accurately ripped (confidence 51) [AA884466]
Track 5 accurately ripped (confidence 50) [F84F3B51]
Track 6 accurately ripped (confidence 50) [610E0B00]
Track 7 accurately ripped (confidence 51) [3DBE4DEF]
Track 8 accurately ripped (confidence 50) [AF19110A]
Track 9 accurately ripped (confidence 50) [7FE6B025]
Track 10 accurately ripped (confidence 50) [335B9DD7]
Track 11 accurately ripped (confidence 50) [B06B2D3A]
Track 12 accurately ripped (confidence 50) [C60C1ED4]
Track 13 accurately ripped (confidence 49) [309084C3]
Track 14 accurately ripped (confidence 49) [FD6A5267]
Track 15 accurately ripped (confidence 46) [2D8AE6F6]

All tracks accurately ripped

End of status report

AUDIOCHECKER v2.0 beta (build 457) - by Dester - opdester@freemail.hu
~~~~~~~~~~~~~~~~~~~~~~~~~~~~~~~~~~
-=== DO NOT EDIT THIS FILE! ===-

Path: …\1999 - Essential Rarities [ELEKTRA 62434-2G]

01 -=- The Doors - Essential Rarities (The Best Of The '97 Box Set).flac -=- CDDA (99%)

189367252

[Verification date: 26.11.2010 15:53:09]
[Disc ID: 001f035c-017210cf-dc120810]
HDCD: peak extend: none, transient filter: some, gain: none
Track [ CRC ] Status
01 [0f064609] (65/65) Accurately ripped as in pressing(s) #1
02 [ea119ac7] (65/65) Accurately ripped as in pressing(s) #1
03 [470ba3cd] (65/65) Accurately ripped as in pressing(s) #1
04 [aa884466] (66/66) Accurately ripped as in pressing(s) #1
05 [f84f3b51] (65/65) Accurately ripped as in pressing(s) #1
06 [610e0b00] (65/65) Accurately ripped as in pressing(s) #1
07 [3dbe4def] (66/66) Accurately ripped as in pressing(s) #1
08 [af19110a] (65/65) Accurately ripped as in pressing(s) #1
09 [7fe6b025] (65/65) Accurately ripped as in pressing(s) #1
10 [335b9dd7] (65/65) Accurately ripped as in pressing(s) #1
11 [b06b2d3a] (65/65) Accurately ripped as in pressing(s) #1
12 [c60c1ed4] (65/65) Accurately ripped as in pressing(s) #1
13 [309084c3] (64/64) Accurately ripped as in pressing(s) #1
14 [fd6a5267] (64/64) Accurately ripped as in pressing(s) #1
15 [2d8ae6f6] (61/63) Accurately ripped as in pressing(s) #1

Track [ CRC32 ] [W/O NULL] [ LOG ]
– [7A2D0395] [57CCF47B] CRC32
01 [A98FDC80] [3E6DB0E4]
02 [FEB51699] [028EF1E4]
03 [AA1E828C] [318BA005]
04 [D1AE5245] [5229BD91]
05 [723E91F9] [33C4A152]
06 [9DF6855D] [4FB1E7E7]
07 [6E0A0918] [392734CB]
08 [1D2B5AB1] [46E0FABD]
09 [DA36C5B5] [331E9F54]
10 [DE5FA231] [11A4B61A]
11 [78E161AA] [035603D2]
12 [94536F6A] [8ED28AC5]
13 [A84A7587] [3740E481]
14 [B99035CB] [9B3C00D0]
15 [96DE2C7C] [09D161AD]

* * *

All thanks go to the original releaser …

Download The Doors - The Complete Studio Recordings [1999, 7CD Box Set, ELEKTRA 62434-2A~G]: