Subcategories

The Doors - The Doors (1967) [Japan (mini LP) 2007]

Posted By: Andi_Deris
The Doors - The Doors (1967) [Japan (mini LP) 2007]

The Doors - The Doors (1967) [Japan (mini LP) 2007]
EAC Rip | FLAC: Image+Cue+Log | 361 Mb | MP3 CBR 320 kbps | 131 Mb | Scans | Time: 52:10
Warner Music Japan | WPCR-12716
Psychedelic Rock, Blues Rock, Acid Rock, Classic Rock

The Doors is the debut album by the American rock band the Doors, released on January 4, 1967. The album features their breakthrough single "Light My Fire" and the lengthy song "The End" with its Oedipal spoken word section. The Doors was not only one of the albums most central to the progression of psychedelic rock; it is also one of the most acclaimed recordings in all of popular music. In 2012, it was ranked number 42 in Rolling Stone magazine's 500 greatest albums of all time.

The Doors - The Doors (1967) [Japan (mini LP) 2007]




The Doors - The Doors (1967) [Japan (mini LP) 2007]


Track Listing

01. Break On Through (To The Other Side) (02:29)
02. Soul Kitchen (03:34)
03. The Crystal Ship (02:35)
04. Twentieth Century Fox (02:34)
05. Alabama Song (Whisky Bar) (03:18)
06. Light My Fire (07:00)
07. Back Door Man (03:34)
08. I Look At You (02:25)
09. End Of The Night (02:51)
10. Take It As It Comes (02:20)
11. The End (11:41)

Bonus tracks
12. Moonlight Drive (Version 1) (02:42)
13. Moonlight Drive (Version 2) (Previously Unissued) (02:31)
14. Indian Summer (8/19/66 Vocal) (Previously Unissued) (02:36)

Produced by Paul A. Rothchild

The Band

• Jim Morrison - lead vocals
• Ray Manzarek - Vox Continental organ, piano on "The Crystal Ship", "Back Door Man" and "End of The Night", keyboard bass on all the tracks, marxophone on "Alabama Song", backing vocals on "Alabama Song"
• Robby Krieger - lead guitar, bass guitar on "Soul Kitchen" and "Back Door Man", backing vocals on "Alabama Song"
• John Densmore - drums, percussion, backing vocals on "Alabama Song"

*****
• Larry Knechtel (uncredited) - bass guitar on "Twentieth Century Fox", "Light My Fire", "I Looked At You", "Soul Kitchen", and "Take It as It Comes"
• Paul A. Rothchild - backing Vocals on "Alabama Song"

Notes

THE DOORS
Paper Sleeves Collection - 1

Japanese (mini LP) CD with OBI. Limited Edition.
Paper Sleeve CD, Cardboard Sleeve CD.
Inserts: Inner sleeve, Japanese booklet with English & Japanese lyrics.

60-70年代のアメリカン・ロックの歴史の中で独特の魅力を放ち、根強い人気を誇るドアーズ。彼らを一躍有名にした衝撃的デビューアルバム。
全米アルバム・チャート:第2位(1967年作品)


The Doors - The Doors (1967) [Japan (mini LP) 2007]


Exact Audio Copy V0.99 prebeta 4 from 23. January 2008

Отчёт EAC об извлечении, выполненном 19. июня 2009, 10:03

The Doors / The Doors

Дисковод: PLEXTOR DVD-ROM PX-116A2 Adapter: 3 ID: 0

Режим чтения : Достоверность
Использование точного потока : Да
Отключение кэша аудио : Да
Использование указателей C2 : Нет

Коррекция смещения при чтении : 102
Способность читать области Lead-in и Lead-out : Нет
Заполнение пропущенных сэмплов тишиной : Да
Удаление блоков с тишиной в начале и конце : Нет
При вычислениях CRC использовались нулевые сэмплы : Да
Интерфейс : Встроенный Win32-интерфейс для Win NT/2000

Выходной формат : Внутренние WAV-операции
Формат сэмплов : 44.100 Гц; 16 бит; стерео


TOC извлечённого CD

Трек | Старт | Длительность | Начальный сектор | Конечный сектор
––––––––––––––––––––––––––––––––––-
1 | 0:00.00 | 2:28.44 | 0 | 11143
2 | 2:28.44 | 3:33.73 | 11144 | 27191
3 | 6:02.42 | 2:34.45 | 27192 | 38786
4 | 8:37.12 | 2:33.61 | 38787 | 50322
5 | 11:10.73 | 3:17.53 | 50323 | 65150
6 | 14:28.51 | 7:00.22 | 65151 | 96672
7 | 21:28.73 | 3:34.10 | 96673 | 112732
8 | 25:03.08 | 2:24.35 | 112733 | 123567
9 | 27:27.43 | 2:50.64 | 123568 | 136381
10 | 30:18.32 | 2:19.37 | 136382 | 146843
11 | 32:37.69 | 11:41.10 | 146844 | 199428
12 | 44:19.04 | 2:42.25 | 199429 | 211603
13 | 47:01.29 | 2:31.25 | 211604 | 222953
14 | 49:32.54 | 2:36.01 | 222954 | 234654


Характеристики диапазона извлечения и сообщения об ошибках

Выбранный диапазон

Имя файла C:\1_MUSIC\Lossless\The Doors - The Doors\The Doors - The Doors.wav

Пиковый уровень 100.0 %
Качество диапазона 99.9 %
CRC копии CA6CA342
Копирование… OK

Ошибок не произошло


AccurateRip: сводка

Трек 1 точное извлечение (доверие 5) [CC272001]
Трек 2 точное извлечение (доверие 5) [33AF9DCD]
Трек 3 точное извлечение (доверие 5) [04214380]
Трек 4 точное извлечение (доверие 5) [1C0A5B37]
Трек 5 точное извлечение (доверие 5) [31368317]
Трек 6 точное извлечение (доверие 6) [7F2F1D4D]
Трек 7 точное извлечение (доверие 5) [57207CA2]
Трек 8 точное извлечение (доверие 4) [18C9AB1D]
Трек 9 точное извлечение (доверие 4) [B852F5E3]
Трек 10 точное извлечение (доверие 4) [C3A4C836]
Трек 11 точное извлечение (доверие 5) [1186FB64]
Трек 12 точное извлечение (доверие 5) [D02ADFCE]
Трек 13 точное извлечение (доверие 5) [BF971006]
Трек 14 точное извлечение (доверие 5) [BCCC07CB]

Все треки извлечены точно

Конец отчёта


Many thanks to the original uploader: Gh@nz