Tags
Language
Tags

The Doors - Waiting For The Sun (1968) [Warner Music Japan, WPCR-75075]

Posted By: v3122
The Doors - Waiting For The Sun (1968) [Warner Music Japan, WPCR-75075]

The Doors - Waiting For The Sun (1968)
EAC | Flac(Image) + Cue + Log & MP3 CBR 320Kbps
2005 | Warner Music, WPCR-75075 | ~ 200 or 78 Mb | Scans(jpg) -> 44 Mb
Psychedelic Rock / Classic Rock

The Doors' 1967 albums had raised expectations so high that their third effort was greeted as a major disappointment. With a few exceptions, the material was much mellower, and while this yielded some fine melodic ballad rock in "Love Street," "Wintertime Love," "Summer's Almost Gone," and "Yes, the River Knows," there was no denying that the songwriting was not as impressive as it had been on the first two records. On the other hand, there were first-rate tunes such as the spooky "The Unknown Soldier," with antiwar lyrics as uncompromisingly forceful as anything the band did, and the compulsively riff-driven "Hello, I Love You," which nonetheless bore an uncomfortably close resemblance to the Kinks' "All Day and All of the Night." The flamenco guitar of "Spanish Caravan," the all-out weirdness of "Not to Touch the Earth" (which was a snippet of a legendary abandoned opus, "The Celebration of the Lizard"), and the menacing closer "Five to One" were also interesting. In fact, time's been fairly kind to the record, which is quite enjoyable and diverse, just not as powerful a full-length statement as the group's best albums.

by Richie Unterberger, AMG
The Doors - Waiting For The Sun (1968) [Warner Music Japan, WPCR-75075]


The Doors - Waiting For The Sun (1968):

The Doors - Waiting For The Sun (1968) [Warner Music Japan, WPCR-75075]

Tracklist:

01. Hello, I Love You 2:16
02. Love Street 2:52
03. Not To Touch The Earth 3:55
04. Summer's Almost Gone 3:22
05. Wintertime Love 1:54
06. The Unknown Soldier 3:25
07. Spanish Caravan 2:59
08. My Wild Love 2:53
09. We Could Be So Good Together 2:24
10. Yes, The River Knows 2:38
11. Five To One 4:26

Exact Audio Copy V1.0 beta 3 from 29. August 2011

EAC extraction logfile from 30. May 2014, 5:42

The Doors / Waiting For The Sun (WPCR-75075)

Used drive : PLEXTOR DVDR PX-891SA Adapter: 3 ID: 0

Read mode : Secure
Utilize accurate stream : Yes
Defeat audio cache : Yes
Make use of C2 pointers : No

Read offset correction : 6
Overread into Lead-In and Lead-Out : No
Fill up missing offset samples with silence : Yes
Delete leading and trailing silent blocks : No
Null samples used in CRC calculations : Yes
Used interface : Native Win32 interface for Win NT & 2000

Used output format : User Defined Encoder
Selected bitrate : 1024 kBit/s
Quality : High
Add ID3 tag : No
Command line compressor : C:\Program Files\Exact Audio Copy\Flac\flac.exe
Additional command line options : -V -8 -T "Genre=%genre%" -T "Artist=%artist%" -T "Title=%title%" -T "Album=%albumtitle%" -T "Date=%year%" -T "Tracknumber=%tracknr%" -T "Comment=%comment%" %source%


TOC of the extracted CD

Track | Start | Length | Start sector | End sector
––––––––––––––––––––––––––––-
1 | 0:00.00 | 2:16.37 | 0 | 10236
2 | 2:16.37 | 2:52.20 | 10237 | 23156
3 | 5:08.57 | 3:55.25 | 23157 | 40806
4 | 9:04.07 | 3:22.13 | 40807 | 55969
5 | 12:26.20 | 1:54.00 | 55970 | 64519
6 | 14:20.20 | 3:25.30 | 64520 | 79924
7 | 17:45.50 | 2:59.32 | 79925 | 93381
8 | 20:45.07 | 2:52.45 | 93382 | 106326
9 | 23:37.52 | 2:24.28 | 106327 | 117154
10 | 26:02.05 | 2:37.55 | 117155 | 128984
11 | 28:39.60 | 4:26.10 | 128985 | 148944


Range status and errors

Selected range

Filename H:\dafnaplus\Doors\1968 Waiting For The Sun\The Doors - Waiting For The Sun (WPCR-75075).wav

Peak level 98.9 %
Extraction speed 7.6 X
Range quality 100.0 %
Test CRC D5AA25B1
Copy CRC D5AA25B1
Copy OK

No errors occurred


AccurateRip summary

Track 1 accurately ripped (confidence 6) [4857C248] (AR v2)
Track 2 accurately ripped (confidence 6) [48680076] (AR v2)
Track 3 accurately ripped (confidence 6) [EFAA94DD] (AR v2)
Track 4 accurately ripped (confidence 6) [509DAB0B] (AR v2)
Track 5 accurately ripped (confidence 6) [4CBFA330] (AR v2)
Track 6 accurately ripped (confidence 6) [73819C5E] (AR v2)
Track 7 accurately ripped (confidence 6) [C6739190] (AR v2)
Track 8 accurately ripped (confidence 6) [062A508D] (AR v2)
Track 9 accurately ripped (confidence 6) [5D73B708] (AR v2)
Track 10 accurately ripped (confidence 6) [577CEA83] (AR v2)
Track 11 accurately ripped (confidence 6) [EEA8C4DC] (AR v2)

All tracks accurately ripped

End of status report

==== Log checksum 3091ADD95BF5C4800A5C14EEFBC28B78F17F4BEABFF89FCA7E308CDFA06C0FBD ====

foobar2000 1.2.9 / Dynamic Range Meter 1.1.1
log date: 2016-04-23 06:42:41

––––––––––––––––––––––––––––––––––––––––
Analyzed: The Doors / Waiting For The Sun (WPCR-75075)
––––––––––––––––––––––––––––––––––––––––

DR Peak RMS Duration Track
––––––––––––––––––––––––––––––––––––––––
DR9 -0.09 dB -12.18 dB 2:16 01-Hello, I Love You
DR11 -0.10 dB -13.76 dB 2:52 02-Love Street
DR8 -0.09 dB -11.59 dB 3:55 03-Not To Touch The Earth
DR10 -0.10 dB -12.15 dB 3:22 04-Summer's Almost Gone
DR9 -0.09 dB -11.12 dB 1:54 05-Wintertime Love
DR7 -0.09 dB -11.02 dB 3:25 06-The Unknown Soldier
DR9 -0.09 dB -11.78 dB 2:59 07-Spanish Caravan
DR13 -0.09 dB -15.92 dB 2:53 08-My Wild Love
DR9 -0.09 dB -11.70 dB 2:24 09-We Could Be So Good Together
DR10 -0.09 dB -13.28 dB 2:38 10-Yes, The River Knows
DR9 -0.09 dB -12.27 dB 4:26 11-Five To One
––––––––––––––––––––––––––––––––––––––––

Number of tracks: 11
Official DR value: DR10

Samplerate: 44100 Hz
Channels: 2
Bits per sample: 16
Bitrate: 820 kbps
Codec: FLAC

[CUETools log; Date: 31.05.2014 17:31:23; Version: 2.1.5]
HDCD: peak extend: none, transient filter: some, gain: none
[CTDB TOCID: qWIqDdiX_AypwnLf0JAc95s.w8U-] found.
Track | CTDB Status
1 | ( 5/40) Accurately ripped
2 | ( 5/40) Accurately ripped
3 | ( 5/40) Accurately ripped
4 | ( 5/40) Accurately ripped
5 | ( 5/40) Accurately ripped
6 | ( 5/40) Accurately ripped
7 | ( 5/40) Accurately ripped
8 | ( 5/40) Accurately ripped
9 | ( 5/40) Accurately ripped
10 | ( 5/40) Accurately ripped
11 | ( 5/40) Accurately ripped
[AccurateRip ID: 000d4422-0073607f-8a07c10b] found.
Track [ CRC | V2 ] Status
01 [04fa9287|4857c248] (005+006/132) Accurately ripped
02 [c927961e|48680076] (005+006/131) Accurately ripped
03 [7ef4911a|efaa94dd] (005+006/131) Accurately ripped
04 [5ac761f0|509dab0b] (005+006/130) Accurately ripped
05 [39f42d0e|4cbfa330] (005+006/131) Accurately ripped
06 [7c654de0|73819c5e] (005+006/132) Accurately ripped
07 [ac8a1098|c6739190] (005+006/131) Accurately ripped
08 [42d98c53|062a508d] (005+006/131) Accurately ripped
09 [dc0609c8|5d73b708] (005+006/131) Accurately ripped
10 [115205be|577cea83] (005+006/131) Accurately ripped
11 [36460fa5|eea8c4dc] (004+006/130) Accurately ripped

Track Peak [ CRC32 ] [W/O NULL] [ LOG ]
– 98,9 [D5AA25B1] [3D9F56F0] CRC32
01 98,9 [46CE9B83] [F4B19F2D]
02 98,8 [3E821C9E] [CE64CC79]
03 98,9 [E7F40FE8] [AF7C4D84]
04 98,9 [41FC625D] [60BFE5EB]
05 98,9 [14C6D366] [208DF6AA]
06 98,9 [1A76819F] [0FB6A56C]
07 98,9 [32057691] [46E53254]
08 98,9 [4848A40D] [C49A322E]
09 98,9 [B680EAC5] [F2A28751]
10 98,9 [58B8794C] [1E5B48D1]
11 98,9 [21E68399] [464D0B4D]

The Doors - Waiting For The Sun (1968) [Warner Music Japan, WPCR-75075]

All thanks go to dafnaplus

Download The Doors - Waiting For The Sun (1968):