Subcategories

Uli Jon Roth & The Electric Sun - Beyond The Astral Skies (1984) {1993, Japan 1st Press, Burrn! Legendary Masters #8}

Posted By: popsakov
Uli Jon Roth & The Electric Sun - Beyond The Astral Skies (1984) {1993, Japan 1st Press, Burrn! Legendary Masters #8}

Uli Jon Roth & The Electric Sun - Beyond The Astral Skies (1984) {1993, Japan 1st Press, Burrn! Legendary Masters #8}
EAC Rip | FLAC (Img) + Cue + Log ~ 273 Mb | MP3 CBR320 ~ 104 Mb
Scans Included | RAR 5% Recovery
Hard Rock | Toshiba-EMI Ltd. #TOCP-8052

Beyond the Astral Skies is the third and final album by Electric Sun. It was released in 1985 on EMI. Electric Sun was a heavy metal formed by Uli Jon Roth after his departure from the Scorpions in 1978. They recorded three albums between 1979 and 1985. The first album, Earthquake, was released in 1979 and features guitarist/vocalist Roth, bassist Ule Ritgen and drummer Clive Edwards. Edwards departed quickly after recording the first album. Fire Wind came next in 1981, featuring new drummer Sidhatta Gautama. The band toured for a few years afterwards. While the first two albums were a trio format, the third album was more of an ensemble project. Veteran drummer Clive Bunker, formerly of Jethro Tull, appeared, as did Ritgen, vocalist Michael Flexig (have a look below) and guest vocalist Nicky Moore, as well as an array of additional various singers and orchestral musicians. Another feature of the album was the invention of Roth's Sky Guitar. In 1983 drummer and percussionist, Simon Fox worked alongside Clive Bunker. The name Electric Sun was retired in 1986, and Uli Jon Roth continued to pursue his classical-inspired rock under his own name, as well as focus on other artistic areas.
~ Wiki

***************

Uli Jon Roth & The Electric Sun - Beyond The Astral Skies (1984) {1993, Japan 1st Press, Burrn! Legendary Masters #8}

Uli Jon Roth & The Electric Sun - Beyond The Astral Skies (1984) {1993, Japan 1st Press, Burrn! Legendary Masters #8}

Track List:

01. The Night The Master Comes [4:16]
02. What Is Love? [3:25]
03. Why? [4:48]
04. I'll Be There [4:57]
05. Return [3:34]
06. Icebreaker [2:41]
07. I'm A River [4:44]
08. Angel Of Peace [3:45]
09. Eleison [6:51]
10. Son Of Sky [2:23]

Exact Audio Copy V0.99 prebeta 5 from 4. May 2009

Отчёт EAC об извлечении, выполненном 26. августа 2011, 11:32

Uli Jon Roth & The Electric Sun / Beyond The Astral Skies [TOCP-8052]

Дисковод: Optiarc DVD RW AD-7200A Adapter: 1 ID: 0

Режим чтения : Достоверность
Использование точного потока : Да
Отключение кэша аудио : Да
Использование указателей C2 : Нет

Коррекция смещения при чтении : 48
Способность читать области Lead-in и Lead-out : Нет
Заполнение пропущенных сэмплов тишиной : Да
Удаление блоков с тишиной в начале и конце : Нет
При вычислениях CRC использовались нулевые сэмплы : Да
Интерфейс : Встроенный Win32-интерфейс для Win NT/2000

Выходной формат : Пользовательский кодировщик
Выбранный битрейт : 128 kBit/s
Качество : Высокий
Добавление ID3-тэга : Нет
Утилита сжатия : C:\Program Files\Exact Audio Copy\Flac\flac.exe
Дополнительные параметры : -8 -V -T "artist=%a" -T "title=%t" -T "album=%g" -T "date=%y" -T "tracknumber=%n" -T "genre=%m" -T "comment=EAC


TOC извлечённого CD

Трек | Старт | Длительность | Начальный сектор | Конечный сектор
––––––––––––––––––––––––––––––––––-
1 | 0:00.00 | 4:16.27 | 0 | 19226
2 | 4:16.27 | 3:24.73 | 19227 | 34599
3 | 7:41.25 | 4:48.02 | 34600 | 56201
4 | 12:29.27 | 4:56.60 | 56202 | 78461
5 | 17:26.12 | 3:34.13 | 78462 | 94524
6 | 21:00.25 | 2:41.20 | 94525 | 106619
7 | 23:41.45 | 4:44.22 | 106620 | 127941
8 | 28:25.67 | 3:45.30 | 127942 | 144846
9 | 32:11.22 | 6:51.15 | 144847 | 175686
10 | 39:02.37 | 2:22.73 | 175687 | 186409


Характеристики диапазона извлечения и сообщения об ошибках

Выбранный диапазон

Имя файла Y:\Музыка\Uli Jon Roth & The Electric Sun\1984 Beyond The Astral Skies\Uli Jon Roth & The Electric Sun - Beyond The Astral Skies [TOCP-8052].wav

Пиковый уровень 100.0 %
Качество диапазона 100.0 %
CRC теста 56E93C79
CRC копии 56E93C79
Копирование… OK

Ошибок не произошло


AccurateRip: сводка

Трек 1 точное извлечение (доверие 4) [436350DB]
Трек 2 точное извлечение (доверие 4) [57224673]
Трек 3 точное извлечение (доверие 4) [65142EF6]
Трек 4 точное извлечение (доверие 4) [90B6FECD]
Трек 5 точное извлечение (доверие 4) [4A672345]
Трек 6 точное извлечение (доверие 4) [C31465EF]
Трек 7 точное извлечение (доверие 4) [511C32BA]
Трек 8 точное извлечение (доверие 4) [9596291E]
Трек 9 точное извлечение (доверие 4) [4BBC5FEF]
Трек 10 точное извлечение (доверие 4) [D61F69D8]

Все треки извлечены точно

Конец отчёта

[CUETools log; Date: 28.10.2018 5:26:00; Version: 2.1.6]
[CTDB TOCID: 4guuOjR_xs3S8uIJx.UA4sfhBzo-] found.
Track | CTDB Status
1 | (23/23) Accurately ripped
2 | (23/23) Accurately ripped
3 | (23/23) Accurately ripped
4 | (23/23) Accurately ripped
5 | (23/23) Accurately ripped
6 | (23/23) Accurately ripped
7 | (23/23) Accurately ripped
8 | (23/23) Accurately ripped
9 | (23/23) Accurately ripped
10 | (23/23) Accurately ripped
[AccurateRip ID: 000fa20a-007d3c2a-7909b50a] found.
Track [ CRC | V2 ] Status
01 [436350db|ac1fd332] (04+07/13) Accurately ripped
02 [57224673|6eda9e77] (04+07/13) Accurately ripped
03 [65142ef6|2f14000a] (04+06/12) Accurately ripped
04 [90b6fecd|79eaaf4f] (04+06/12) Accurately ripped
05 [4a672345|f6d624af] (04+06/12) Accurately ripped
06 [c31465ef|6181c014] (04+06/12) Accurately ripped
07 [511c32ba|c45ba5ac] (04+06/12) Accurately ripped
08 [9596291e|eaea7c0c] (04+06/12) Accurately ripped
09 [4bbc5fef|f1b15271] (04+06/12) Accurately ripped
10 [d61f69d8|effa0b80] (04+06/12) Accurately ripped
Offsetted by -112:
01 [f2e54698] (00/13) No match (V2 was not tested)
02 [810cb42e] (00/13) No match (V2 was not tested)
03 [8d3d9901] (00/12) No match (V2 was not tested)
04 [03e05da4] (00/12) No match (V2 was not tested)
05 [5b93376f] (00/12) No match (V2 was not tested)
06 [b5022a90] (00/12) No match (V2 was not tested)
07 [1e1214d8] (00/12) No match (V2 was not tested)
08 [5ce9821a] (00/12) No match (V2 was not tested)
09 [4e03734f] (00/12) No match (V2 was not tested)
10 [766595e1] (00/12) No match (V2 was not tested)

Track Peak [ CRC32 ] [W/O NULL] [ LOG ]
– 100,0 [56E93C79] [76CE1319] CRC32
01 99,5 [077A3ECD] [6D3DC0DE]
02 100,0 [15B7567D] [027D4904]
03 100,0 [A681029A] [C3ED415E]
04 100,0 [623E0E0F] [C928850B]
05 100,0 [F3308D90] [15265090]
06 100,0 [0E98BB71] [14339A19]
07 92,1 [111AF582] [CB4FA90E]
08 100,0 [3A7158B2] [B7170CA4]
09 100,0 [EF9D27E3] [7317F757]
10 100,0 [D5EC37F1] [A8552429]

Uli Jon Roth & The Electric Sun - Beyond The Astral Skies (1984) {1993, Japan 1st Press, Burrn! Legendary Masters #8}

All thanks go to ikebana

>>> My Blog <<<

Download from icerbox.com: