Subcategories

The Elmer Snowden Quartet - Harlem Banjo! (1960) Remastered 1990

Posted By: Designol
The Elmer Snowden Quartet - Harlem Banjo! (1960) Remastered 1990

The Elmer Snowden Quartet - Harlem Banjo! (1960) Remastered 1990
EAC | FLAC | Tracks (Cue&Log) ~ 208 Mb | Mp3 (CBR320) ~ 96 Mb | Scans included
Label: Original Jazz Classics/Riverside | # OJCCD-1756-2 (RLP-9348) | 00:38:16
Early Jazz, Dixieland, Swing, Ragtime, Banjo Jazz, Piano Jazz

Banjoist Elmer Snowden only led two albums in the LP era, and his OJC CD reissue is his best showcase. Snowden, who is joined by pianist Cliff Jackson, bassist Tommy Bryant, and drummer Jimmy Crawford, is the lead voice throughout the dozen standards, all of which date from the 1920s or '30s. Snowden's banjo style is a lost art, and this is his definitive recording.

Review by Scott Yanow, Allmusic.com

Banjoist Elmer Snowden only led two albums in the LP era, and his OJC CD reissue is his best showcase. Snowden, who is joined by stride pianist Cliff Jackson, bassist Tommy Bryant and drummer Jimmy Crawford, is the lead voice throughout the dozen standards, all of which date from the 1920s or '30s. Snowden's dixieland banjo style is a lost art, and this is his definitive recording. Highly recomended joyous music.

Review by The Dixieland Man, Amazon.com

The Elmer Snowden Quartet - Harlem Banjo! (1960) Remastered 1990



Banjo – Elmer Snowden
Piano – Cliff Jackson
Bass – Tommy Bryant
Drums – Jimmy Crawford

Plaza Sound Studios, New York City, NY, December 9, 1960

Tracklist:

01. It Don't Mean A Thing (If It Ain't Got That Swing) (2:47)
02. Doin' The New Lowdown (3:33)
03. Runnin' Wild (3:30)
04. Diga Diga Doo (2:26)
05. Them There Eyes (2:54)
06. Tishomingo Blues (4:13)
07. C-Jam Blues (2:59)
08. Sweet Georgia Brown (3:24)
09. Alabamy Bound (2:10)
10. Twelfth Street Rag (3:38)
11. Bugle Call Rag (4:00)
12. Dear Old Southland (2:43)


EAC extraction logfile from 11. June 2007, 18:59 for CD
Elmer Snowden Quartet / Harlem Banjo!

Used drive : SONY CDRWDVD CRX310S Adapter: 0 ID: 1
Read mode : Secure with NO C2, accurate stream, disable cache
Read offset correction : 6
Overread into Lead-In and Lead-Out : No

Used output format : C:\Program Files\Exact Audio Copy\Compressors\FLAC\flac.exe (User Defined Encoder)
192 kBit/s
Additional command line options : -8 -V -T "artist=%a" -T "title=%t" -T "album=%g" -T "date=%y" -T "tracknumber=%n" -T "genre=%m" -T "comment=EAC 0.95 b4 secure / FLAC 1.1.3b q8" %s

Other options :
Fill up missing offset samples with silence : Yes
Delete leading and trailing silent blocks : No
Native Win32 interface for Win NT & 2000


Track 1
Filename K:\New Rips\Elmer Snowden Quartet - Harlem Banjo! (1960) [FLAC]\01 - It Don't Mean A Thing (If It Ain't Got That Swing).wav

Pre-gap length 0:00:02.00

Peak level 83.0 %
Track quality 99.8 %
Test CRC B694B804
Copy CRC B694B804
Copy OK

Track 2
Filename K:\New Rips\Elmer Snowden Quartet - Harlem Banjo! (1960) [FLAC]\02 - Doin' The New Lowdown.wav

Pre-gap length 0:00:01.93

Peak level 94.6 %
Track quality 100.0 %
Test CRC 7E414974
Copy CRC 7E414974
Copy OK

Track 3
Filename K:\New Rips\Elmer Snowden Quartet - Harlem Banjo! (1960) [FLAC]\03 - Runnin' Wild.wav

Pre-gap length 0:00:01.70

Peak level 88.0 %
Track quality 100.0 %
Test CRC 833E6449
Copy CRC 833E6449
Copy OK

Track 4
Filename K:\New Rips\Elmer Snowden Quartet - Harlem Banjo! (1960) [FLAC]\04 - Diga Diga Doo.wav

Pre-gap length 0:00:02.20

Peak level 85.8 %
Track quality 100.0 %
Test CRC F900DE17
Copy CRC F900DE17
Copy OK

Track 5
Filename K:\New Rips\Elmer Snowden Quartet - Harlem Banjo! (1960) [FLAC]\05 - Them There Eyes.wav

Pre-gap length 0:00:02.26

Peak level 96.9 %
Track quality 100.0 %
Test CRC 8AF7D855
Copy CRC 8AF7D855
Copy OK

Track 6
Filename K:\New Rips\Elmer Snowden Quartet - Harlem Banjo! (1960) [FLAC]\06 - Tishomingo Blues.wav

Pre-gap length 0:00:02.33

Peak level 83.7 %
Track quality 100.0 %
Test CRC DB6E085B
Copy CRC DB6E085B
Copy OK

Track 7
Filename K:\New Rips\Elmer Snowden Quartet - Harlem Banjo! (1960) [FLAC]\07 - C-Jam Blues.wav

Pre-gap length 0:00:02.86

Peak level 99.9 %
Track quality 100.0 %
Test CRC 5BC610AB
Copy CRC 5BC610AB
Copy OK

Track 8
Filename K:\New Rips\Elmer Snowden Quartet - Harlem Banjo! (1960) [FLAC]\08 - Sweet Georgia Brown.wav

Pre-gap length 0:00:02.00

Peak level 90.6 %
Track quality 99.9 %
Test CRC D3D9B9BB
Copy CRC D3D9B9BB
Copy OK

Track 9
Filename K:\New Rips\Elmer Snowden Quartet - Harlem Banjo! (1960) [FLAC]\09 - Alabamy Bound.wav

Pre-gap length 0:00:02.10

Peak level 93.7 %
Track quality 100.0 %
Test CRC 7687E470
Copy CRC 7687E470
Copy OK

Track 10
Filename K:\New Rips\Elmer Snowden Quartet - Harlem Banjo! (1960) [FLAC]\10 - Twelfth Street Rag.wav

Pre-gap length 0:00:02.10

Peak level 97.0 %
Track quality 99.9 %
Test CRC E3A8A84C
Copy CRC E3A8A84C
Copy OK

Track 11
Filename K:\New Rips\Elmer Snowden Quartet - Harlem Banjo! (1960) [FLAC]\11 - Bugle Call Rag.wav

Pre-gap length 0:00:02.06

Peak level 91.0 %
Track quality 100.0 %
Test CRC 9ADF423B
Copy CRC 9ADF423B
Copy OK

Track 12
Filename K:\New Rips\Elmer Snowden Quartet - Harlem Banjo! (1960) [FLAC]\12 - Dear Old Southland.wav

Pre-gap length 0:00:02.22

Peak level 96.2 %
Track quality 100.0 %
Test CRC AFBCBBF8
Copy CRC AFBCBBF8
Copy OK

No errors occured


End of status report

[CUETools log; Date: 30.08.2018 2:59:38; Version: 2.1.4]
[CTDB TOCID: blWzIQOlIWUhVQVn2TvCul4uDto-] found.
Track | CTDB Status
1 | (2/2) Accurately ripped
2 | (2/2) Accurately ripped
3 | (2/2) Accurately ripped
4 | (2/2) Accurately ripped
5 | (2/2) Accurately ripped
6 | (2/2) Accurately ripped
7 | (2/2) Accurately ripped
8 | (2/2) Accurately ripped
9 | (2/2) Accurately ripped
10 | (2/2) Accurately ripped
11 | (2/2) Accurately ripped
12 | (2/2) Accurately ripped
[AccurateRip ID: 0010f68a-009ebef4-a208f70c] found.
Track [ CRC | V2 ] Status
01 [59f39fc8|450a05ef] (0+2/2) Accurately ripped
02 [69420854|0449c0fc] (0+2/2) Accurately ripped
03 [f22dac7b|520ef00f] (0+2/2) Accurately ripped
04 [b1f84ff7|5d0630fb] (0+2/2) Accurately ripped
05 [db6809fc|d90099c0] (0+2/2) Accurately ripped
06 [aadbdaae|95bba743] (0+2/2) Accurately ripped
07 [0d6ea3bd|c162abf2] (0+2/2) Accurately ripped
08 [e46a3564|bc320990] (0+2/2) Accurately ripped
09 [0e5e4054|94216036] (0+2/2) Accurately ripped
10 [d2f906c0|44fc92bc] (0+2/2) Accurately ripped
11 [477d0bbb|badadd84] (0+2/2) Accurately ripped
12 [0f10fc45|2c8ee330] (0+2/2) Accurately ripped

Track Peak [ CRC32 ] [W/O NULL] [ LOG ]
– 99,9 [A8A36B39] [A84D4056]
01 83,0 [B694B804] [CD5ABC04] CRC32
02 94,6 [7E414974] [37AEFFC0] CRC32
03 88,0 [833E6449] [B250CC30] CRC32
04 85,8 [F900DE17] [2A4BBD5D] CRC32
05 96,9 [8AF7D855] [D6484993] CRC32
06 83,7 [DB6E085B] [9EFAD13C] CRC32
07 99,9 [5BC610AB] [913410AC] CRC32
08 90,6 [D3D9B9BB] [95224D1C] CRC32
09 93,7 [7687E470] [C81AE4CA] CRC32
10 97,0 [E3A8A84C] [9A30DFF2] CRC32
11 91,0 [9ADF423B] [AFB4CD65] CRC32
12 96,2 [AFBCBBF8] [8D17CED6] CRC32

foobar2000 1.2 / Dynamic Range Meter 1.1.1
log date: 2018-08-30 02:43:09

––––––––––––––––––––––––––––––––––––––––
Analyzed: Elmer Snowden Quartet / Harlem Banjo!
––––––––––––––––––––––––––––––––––––––––

DR Peak RMS Duration Track
––––––––––––––––––––––––––––––––––––––––
DR14 -1.62 dB -20.63 dB 2:47 01-It Don't Mean A Thing (If It Ain't Got That Swing)
DR14 -0.48 dB -18.87 dB 3:33 02-Doin' The New Lowdown
DR14 -1.10 dB -19.77 dB 3:30 03-Runnin' Wild
DR14 -1.33 dB -19.03 dB 2:26 04-Diga Diga Doo
DR14 -0.27 dB -18.58 dB 2:54 05-Them There Eyes
DR15 -1.54 dB -20.71 dB 4:13 06-Tishomingo Blues
DR16 0.00 dB -20.00 dB 2:59 07-C-Jam Blues
DR15 -0.86 dB -21.20 dB 3:24 08-Sweet Georgia Brown
DR14 -0.56 dB -19.00 dB 2:10 09-Alabamy Bound
DR14 -0.26 dB -18.60 dB 3:38 10-Twelfth Street Rag
DR15 -0.81 dB -18.82 dB 4:00 11-Bugle Call Rag
DR14 -0.33 dB -18.86 dB 2:43 12-Dear Old Southland
––––––––––––––––––––––––––––––––––––––––

Number of tracks: 12
Official DR value: DR14

Samplerate: 44100 Hz
Channels: 2
Bits per sample: 16
Bitrate: 719 kbps
Codec: FLAC
================================================================================

The Elmer Snowden Quartet - Harlem Banjo! (1960) Remastered 1990

The Elmer Snowden Quartet - Harlem Banjo! (1960) Remastered 1990

All thanks to original releaser - yowlz

More interesting music in My Blog