Tags
Language
Tags

VA - The Essential 60's Love Album (2006)

Posted By: Rtax
VA - The Essential 60's Love Album (2006)

VA - The Essential 60's Love Album (2006)
EAC Rip | FLAC (tracks, cue, log, scans) - 726 MB | MP3 CBR 320kbps - 326 MB
2:17:33 | Pop, Soul, Pop Rock, Ballad, Folk | Label: Union Square Music Ltd. – METRDCD593

The 60s was the decade of peace and love, and while Bob Dylan, John Lennon and many others would fly the flag for peace, artists like PP Arnold, The Searchers, Petula Clark, The Foundataions, The Overlanders (all featured here) sang about love. In the 60s, the accent was on the younger generation having fun. It was time to let your hair down and have a good time, and this superb 2CD collection brings you the love-seeking ladies and the romantic guys who sang from their heart.

Tracklist

CD 1:
01 - P.P. Arnold - The First Cut Is The Deepest
02 - The Overlanders - Michelle
03 - Jackie Trent - Where Are You Now (My Love)
04 - Chris Farlowe - Out Of Time
05 - The Searchers - Needles And Pins
06 - Petula Clark - For Those In Love
07 - The Foundations - Baby, Now That I've Found You
08 - Jimmy James & The Vagabonds - Red Red Wine
09 - The Tremeloes - Silence Is Golden
10 - Karen Young - Wonderful Summer
11 - Helen Shapiro - Silly Boy (I Love You)
12 - The Small Faces - I'm Only Dreaming
13 - Amen Corner - If Paradise Is Half As Nice
14 - Donovan - Colours
15 - The Ivy League - Funny How Love Can Ne
16 - Sharon Tandy - I've Found Love
17 - Julie Grant - Count On Me
18 - Lance Fortune - Be Mine
19 - Billie Davis - Just Walk In My Shoes
20 - Patti Brook - Heaven Being With You
21 - Cleo Laine - All Of You
22 - Mark Wynter - Venus In Blue Jeans
23 - The Rockin' Berries - He's In Town
24 - Anita Harris - Here, There And Everywhere
25 - Joe Dolan - Make An Island
Exact Audio Copy V1.0 beta 3 from 29. August 2011

EAC extraction logfile from 15. February 2013, 16:30

Various Artists / The Essential 60s Love Album (Disc 1)

Used drive : PIONEER DVD-RW DVRTD10RS Adapter: 0 ID: 1

Read mode : Secure
Utilize accurate stream : Yes
Defeat audio cache : Yes
Make use of C2 pointers : No

Read offset correction : 6
Overread into Lead-In and Lead-Out : No
Fill up missing offset samples with silence : Yes
Delete leading and trailing silent blocks : No
Null samples used in CRC calculations : Yes
Used interface : Native Win32 interface for Win NT & 2000
Gap handling : Appended to previous track

Used output format : User Defined Encoder
Selected bitrate : 1024 kBit/s
Quality : High
Add ID3 tag : No
Command line compressor : C:\Program Files (x86)\Exact Audio Copy\Flac\flac.exe
Additional command line options : -8 -V -T "ARTIST=%artist%" -T "TITLE=%title%" -T "ALBUM=%albumtitle%" -T "DATE=%year%" -T "TRACKNUMBER=%tracknr%" -T "GENRE=%genre%" -T "PERFORMER=%albuminterpret%" -T "COMPOSER=%composer%" %haslyrics%–tag-from-file=LYRICS="%lyricsfile%"%haslyrics% -T "ALBUMARTIST=%albumartist%" -T "DISCNUMBER=%cdnumber%" -T "TOTALDISCS=%totalcds%" -T "TOTALTRACKS=%numtracks%" -T "COMMENT=%comment%" %source% -o %dest%


TOC of the extracted CD

Track | Start | Length | Start sector | End sector
––––––––––––––––––––––––––––-
1 | 0:00.00 | 3:06.07 | 0 | 13956
2 | 3:06.07 | 2:23.44 | 13957 | 24725
3 | 5:29.51 | 2:46.14 | 24726 | 37189
4 | 8:15.65 | 3:30.32 | 37190 | 52971
5 | 11:46.22 | 2:14.10 | 52972 | 63031
6 | 14:00.32 | 2:27.18 | 63032 | 74074
7 | 16:27.50 | 2:36.44 | 74075 | 85818
8 | 19:04.19 | 2:56.22 | 85819 | 99040
9 | 22:00.41 | 3:09.53 | 99041 | 113268
10 | 25:10.19 | 2:45.70 | 113269 | 125713
11 | 27:56.14 | 2:03.02 | 125714 | 134940
12 | 29:59.16 | 2:25.51 | 134941 | 145866
13 | 32:24.67 | 2:43.54 | 145867 | 158145
14 | 35:08.46 | 2:45.48 | 158146 | 170568
15 | 37:54.19 | 2:06.67 | 170569 | 180085
16 | 40:01.11 | 2:15.49 | 180086 | 190259
17 | 42:16.60 | 2:16.06 | 190260 | 200465
18 | 44:32.66 | 1:52.19 | 200466 | 208884
19 | 46:25.10 | 2:30.22 | 208885 | 220156
20 | 48:55.32 | 2:02.56 | 220157 | 229362
21 | 50:58.13 | 2:27.11 | 229363 | 240398
22 | 53:25.24 | 2:08.41 | 240399 | 250039
23 | 55:33.65 | 2:36.61 | 250040 | 261800
24 | 58:10.51 | 3:24.69 | 261801 | 277169
25 | 61:35.45 | 2:59.38 | 277170 | 290632


Track 1

Filename C:\Users\ian\Desktop\VA -The Essential 60s Love Album (2006) [FLAC] {2CD}\The Essential 60s Love Album CD1\01 - P.P. Arnold - The First Cut Is The Deepest.wav

Pre-gap length 0:00:02.00

Peak level 95.7 %
Extraction speed 2.3 X
Track quality 100.0 %
Test CRC 4C7D5417
Copy CRC 4C7D5417
Accurately ripped (confidence 2) [3E5539B5] (AR v1)
Copy OK

Track 2

Filename C:\Users\ian\Desktop\VA -The Essential 60s Love Album (2006) [FLAC] {2CD}\The Essential 60s Love Album CD1\02 - The Overlanders - Michelle.wav

Pre-gap length 0:00:01.98

Peak level 85.0 %
Extraction speed 2.4 X
Track quality 100.0 %
Test CRC C8D88B6B
Copy CRC C8D88B6B
Accurately ripped (confidence 2) [33843024] (AR v1)
Copy OK

Track 3

Filename C:\Users\ian\Desktop\VA -The Essential 60s Love Album (2006) [FLAC] {2CD}\The Essential 60s Love Album CD1\03 - Jackie Trent - Where Are You Now (My Love).wav

Pre-gap length 0:00:01.88

Peak level 98.5 %
Extraction speed 2.6 X
Track quality 100.0 %
Test CRC E84B4CA5
Copy CRC E84B4CA5
Accurately ripped (confidence 2) [8922F758] (AR v1)
Copy OK

Track 4

Filename C:\Users\ian\Desktop\VA -The Essential 60s Love Album (2006) [FLAC] {2CD}\The Essential 60s Love Album CD1\04 - Chris Farlowe - Out Of Time.wav

Pre-gap length 0:00:01.26

Peak level 90.9 %
Extraction speed 2.9 X
Track quality 100.0 %
Test CRC 61388EB1
Copy CRC 61388EB1
Accurately ripped (confidence 2) [692CDECB] (AR v1)
Copy OK

Track 5

Filename C:\Users\ian\Desktop\VA -The Essential 60s Love Album (2006) [FLAC] {2CD}\The Essential 60s Love Album CD1\05 - The Searchers - Needles And Pins.wav

Pre-gap length 0:00:01.30

Peak level 94.0 %
Extraction speed 2.1 X
Track quality 99.9 %
Test CRC 60B2C32A
Copy CRC 60B2C32A
Accurately ripped (confidence 2) [068612FF] (AR v1)
Copy OK

Track 6

Filename C:\Users\ian\Desktop\VA -The Essential 60s Love Album (2006) [FLAC] {2CD}\The Essential 60s Love Album CD1\06 - Petula Clark - For Those In Love.wav

Pre-gap length 0:00:01.32

Peak level 91.1 %
Extraction speed 2.9 X
Track quality 100.0 %
Test CRC 144A13BE
Copy CRC 144A13BE
Accurately ripped (confidence 2) [75C84C6C] (AR v1)
Copy OK

Track 7

Filename C:\Users\ian\Desktop\VA -The Essential 60s Love Album (2006) [FLAC] {2CD}\The Essential 60s Love Album CD1\07 - The Foundations - Baby, Now That I've Found You.wav

Pre-gap length 0:00:01.58

Peak level 95.9 %
Extraction speed 3.1 X
Track quality 100.0 %
Test CRC 49B6EA35
Copy CRC 49B6EA35
Accurately ripped (confidence 2) [7E293FBA] (AR v1)
Copy OK

Track 8

Filename C:\Users\ian\Desktop\VA -The Essential 60s Love Album (2006) [FLAC] {2CD}\The Essential 60s Love Album CD1\08 - Jimmy James & The Vagabonds - Red Red Wine.wav

Pre-gap length 0:00:01.25

Peak level 83.0 %
Extraction speed 2.6 X
Track quality 99.9 %
Test CRC E58B4941
Copy CRC E58B4941
Accurately ripped (confidence 2) [B7223101] (AR v1)
Copy OK

Track 9

Filename C:\Users\ian\Desktop\VA -The Essential 60s Love Album (2006) [FLAC] {2CD}\The Essential 60s Love Album CD1\09 - The Tremeloes - Silence Is Golden.wav

Pre-gap length 0:00:01.65

Peak level 84.2 %
Extraction speed 3.4 X
Track quality 100.0 %
Test CRC 0B3B0A22
Copy CRC 0B3B0A22
Accurately ripped (confidence 2) [D22476C0] (AR v1)
Copy OK

Track 10

Filename C:\Users\ian\Desktop\VA -The Essential 60s Love Album (2006) [FLAC] {2CD}\The Essential 60s Love Album CD1\10 - Karen Young - Wonderful Summer.wav

Pre-gap length 0:00:01.90

Peak level 81.7 %
Extraction speed 3.5 X
Track quality 100.0 %
Test CRC FA6F92C1
Copy CRC FA6F92C1
Accurately ripped (confidence 2) [5DE6A306] (AR v1)
Copy OK

Track 11

Filename C:\Users\ian\Desktop\VA -The Essential 60s Love Album (2006) [FLAC] {2CD}\The Essential 60s Love Album CD1\11 - Helen Shapiro - Silly Boy (I Love You).wav

Pre-gap length 0:00:01.90

Peak level 92.8 %
Extraction speed 3.3 X
Track quality 100.0 %
Test CRC F48968BF
Copy CRC F48968BF
Accurately ripped (confidence 2) [42D781DB] (AR v1)
Copy OK

Track 12

Filename C:\Users\ian\Desktop\VA -The Essential 60s Love Album (2006) [FLAC] {2CD}\The Essential 60s Love Album CD1\12 - The Small Faces - I'm Only Dreaming.wav

Pre-gap length 0:00:01.12

Peak level 88.7 %
Extraction speed 3.6 X
Track quality 100.0 %
Test CRC F9F99F42
Copy CRC F9F99F42
Accurately ripped (confidence 2) [22FFA296] (AR v1)
Copy OK

Track 13

Filename C:\Users\ian\Desktop\VA -The Essential 60s Love Album (2006) [FLAC] {2CD}\The Essential 60s Love Album CD1\13 - Amen Corner - If Paradise Is Half As Nice.wav

Pre-gap length 0:00:00.90

Peak level 94.9 %
Extraction speed 3.8 X
Track quality 100.0 %
Test CRC B39E2409
Copy CRC B39E2409
Accurately ripped (confidence 2) [C72C6227] (AR v1)
Copy OK

Track 14

Filename C:\Users\ian\Desktop\VA -The Essential 60s Love Album (2006) [FLAC] {2CD}\The Essential 60s Love Album CD1\14 - Donovan - Colours.wav

Pre-gap length 0:00:01.21

Peak level 82.8 %
Extraction speed 3.1 X
Track quality 99.9 %
Test CRC 8A0EBAC3
Copy CRC 8A0EBAC3
Accurately ripped (confidence 2) [736CD8D4] (AR v1)
Copy OK

Track 15

Filename C:\Users\ian\Desktop\VA -The Essential 60s Love Album (2006) [FLAC] {2CD}\The Essential 60s Love Album CD1\15 - The Ivy League - Funny How Love Can Ne.wav

Pre-gap length 0:00:01.61

Peak level 93.2 %
Extraction speed 3.7 X
Track quality 100.0 %
Test CRC 6826B18F
Copy CRC 6826B18F
Accurately ripped (confidence 2) [7F2F0868] (AR v1)
Copy OK

Track 16

Filename C:\Users\ian\Desktop\VA -The Essential 60s Love Album (2006) [FLAC] {2CD}\The Essential 60s Love Album CD1\16 - Sharon Tandy - I've Found Love.wav

Pre-gap length 0:00:00.81

Peak level 98.1 %
Extraction speed 3.8 X
Track quality 100.0 %
Test CRC 5FB59916
Copy CRC 5FB59916
Accurately ripped (confidence 2) [7ADC015D] (AR v1)
Copy OK

Track 17

Filename C:\Users\ian\Desktop\VA -The Essential 60s Love Album (2006) [FLAC] {2CD}\The Essential 60s Love Album CD1\17 - Julie Grant - Count On Me.wav

Pre-gap length 0:00:01.60

Peak level 95.8 %
Extraction speed 3.0 X
Track quality 99.9 %
Test CRC 108E42E9
Copy CRC 108E42E9
Accurately ripped (confidence 2) [F73E2E9F] (AR v1)
Copy OK

Track 18

Filename C:\Users\ian\Desktop\VA -The Essential 60s Love Album (2006) [FLAC] {2CD}\The Essential 60s Love Album CD1\18 - Lance Fortune - Be Mine.wav

Pre-gap length 0:00:02.14

Peak level 87.5 %
Extraction speed 3.8 X
Track quality 100.0 %
Test CRC F24782EC
Copy CRC F24782EC
Accurately ripped (confidence 2) [17606D3F] (AR v1)
Copy OK

Track 19

Filename C:\Users\ian\Desktop\VA -The Essential 60s Love Album (2006) [FLAC] {2CD}\The Essential 60s Love Album CD1\19 - Billie Davis - Just Walk In My Shoes.wav

Pre-gap length 0:00:02.52

Peak level 91.8 %
Extraction speed 4.1 X
Track quality 100.0 %
Test CRC 04E095D5
Copy CRC 04E095D5
Accurately ripped (confidence 2) [582DB606] (AR v1)
Copy OK

Track 20

Filename C:\Users\ian\Desktop\VA -The Essential 60s Love Album (2006) [FLAC] {2CD}\The Essential 60s Love Album CD1\20 - Patti Brook - Heaven Being With You.wav

Pre-gap length 0:00:01.72

Peak level 98.5 %
Extraction speed 3.9 X
Track quality 100.0 %
Test CRC 58D5047D
Copy CRC 58D5047D
Accurately ripped (confidence 2) [55C7D84F] (AR v1)
Copy OK

Track 21

Filename C:\Users\ian\Desktop\VA -The Essential 60s Love Album (2006) [FLAC] {2CD}\The Essential 60s Love Album CD1\21 - Cleo Laine - All Of You.wav

Pre-gap length 0:00:01.37

Peak level 88.7 %
Extraction speed 4.2 X
Track quality 100.0 %
Test CRC B7F3EA45
Copy CRC B7F3EA45
Accurately ripped (confidence 2) [5967F3C5] (AR v1)
Copy OK

Track 22

Filename C:\Users\ian\Desktop\VA -The Essential 60s Love Album (2006) [FLAC] {2CD}\The Essential 60s Love Album CD1\22 - Mark Wynter - Venus In Blue Jeans.wav

Pre-gap length 0:00:01.49

Peak level 99.4 %
Extraction speed 4.0 X
Track quality 100.0 %
Test CRC 1F745333
Copy CRC 1F745333
Accurately ripped (confidence 2) [83FFCC63] (AR v1)
Copy OK

Track 23

Filename C:\Users\ian\Desktop\VA -The Essential 60s Love Album (2006) [FLAC] {2CD}\The Essential 60s Love Album CD1\23 - The Rockin' Berries - He's In Town.wav

Pre-gap length 0:00:00.58

Peak level 90.0 %
Extraction speed 2.8 X
Track quality 99.8 %
Test CRC B02B3D20
Copy CRC B02B3D20
Accurately ripped (confidence 2) [733E689B] (AR v1)
Copy OK

Track 24

Filename C:\Users\ian\Desktop\VA -The Essential 60s Love Album (2006) [FLAC] {2CD}\The Essential 60s Love Album CD1\24 - Anita Harris - Here, There And Everywhere.wav

Pre-gap length 0:00:01.37

Peak level 82.0 %
Extraction speed 2.3 X
Track quality 99.7 %
Test CRC 67BB3023
Copy CRC 67BB3023
Accurately ripped (confidence 2) [B515FF80] (AR v1)
Copy OK

Track 25

Filename C:\Users\ian\Desktop\VA -The Essential 60s Love Album (2006) [FLAC] {2CD}\The Essential 60s Love Album CD1\25 - Joe Dolan - Make An Island.wav

Peak level 98.5 %
Extraction speed 1.8 X
Track quality 99.6 %
Test CRC B58DC1B7
Copy CRC B58DC1B7
Accurately ripped (confidence 2) [18785B27] (AR v1)
Copy OK


All tracks accurately ripped

No errors occurred

End of status report

–– CUETools DB Plugin V2.1.3

[CTDB TOCID: RRbEL06Q9qXnVABM8v9g43B_u9g-] found, Submit result: RRbEL06Q9qXnVABM8v9g43B_u9g- has been confirmed
[324f290d] (1/1) Accurately ripped


==== Log checksum 288E3643726E81F0B42BDD5F570FB8978BE2382D945DFCE5048E8723FEEC0144 ====


CD 2:
01 - The Searchers - Sweets For My Sweet
02 - The Tremeloes - Here Comes My Baby
03 - The Foundations - In The Bad, Bad Old Days
04 - Jimmy Justice - When My Little Girl Is Smiling
05 - The Bystanders - 98.6
06 - The Truth - Girl
07 - Mark Wynter - Go Away Little Girl
08 - Cleo Laine - Unforgettable
09 - Helen Shapiro - You'll Get Me Loving You
10 - Antoinette - There He Goes (The Boy I Love)
11 - The Small Faces - Afterglow (Of Your Love)
12 - The Ivy League - Tossin' & Turnin'
13 - P.P. Arnold - Angel Of The Morning
14 - The Paper Dolls - Something Here In My Heart
15 - Consortium - All The Love In The World
16 - Anita Harris - Trains And Boats And Planes
17 - Twice As Much - Sittin' On A Fence
18 - Joe Brown & The Bruvvers - That's What Love Will Do
19 - David Garrick - Lady Jane
20 - Long John Baldry - Let The Heartache Begin
21 - Donovan - Catch The Wind
22 - Petula Clark - I Want To Hold Your Hand
23 - John Leyton - Tell Laura I Love Her
24 - Chris Farlowe - My Way Of Giving
25 - Dawn Penn - You Don't Love Me (No, No, No)
Exact Audio Copy V1.0 beta 3 from 29. August 2011

EAC extraction logfile from 15. February 2013, 17:54

Various Artists / The Essential 60s Love Album (Disc 2)

Used drive : PIONEER DVD-RW DVRTD10RS Adapter: 0 ID: 1

Read mode : Secure
Utilize accurate stream : Yes
Defeat audio cache : Yes
Make use of C2 pointers : No

Read offset correction : 6
Overread into Lead-In and Lead-Out : No
Fill up missing offset samples with silence : Yes
Delete leading and trailing silent blocks : No
Null samples used in CRC calculations : Yes
Used interface : Native Win32 interface for Win NT & 2000
Gap handling : Appended to previous track

Used output format : User Defined Encoder
Selected bitrate : 1024 kBit/s
Quality : High
Add ID3 tag : No
Command line compressor : C:\Program Files (x86)\Exact Audio Copy\Flac\flac.exe
Additional command line options : -8 -V -T "ARTIST=%artist%" -T "TITLE=%title%" -T "ALBUM=%albumtitle%" -T "DATE=%year%" -T "TRACKNUMBER=%tracknr%" -T "GENRE=%genre%" -T "PERFORMER=%albuminterpret%" -T "COMPOSER=%composer%" %haslyrics%–tag-from-file=LYRICS="%lyricsfile%"%haslyrics% -T "ALBUMARTIST=%albumartist%" -T "DISCNUMBER=%cdnumber%" -T "TOTALDISCS=%totalcds%" -T "TOTALTRACKS=%numtracks%" -T "COMMENT=%comment%" %source% -o %dest%


TOC of the extracted CD

Track | Start | Length | Start sector | End sector
––––––––––––––––––––––––––––-
1 | 0:00.00 | 2:30.33 | 0 | 11282
2 | 2:30.33 | 2:47.06 | 11283 | 23813
3 | 5:17.39 | 3:19.52 | 23814 | 38790
4 | 8:37.16 | 2:28.19 | 38791 | 49909
5 | 11:05.35 | 3:21.57 | 49910 | 65041
6 | 14:27.17 | 2:36.47 | 65042 | 76788
7 | 17:03.64 | 2:13.14 | 76789 | 86777
8 | 19:17.03 | 3:49.10 | 86778 | 103962
9 | 23:06.13 | 3:05.73 | 103963 | 117910
10 | 26:12.11 | 2:16.59 | 117911 | 128169
11 | 28:28.70 | 3:33.14 | 128170 | 144158
12 | 32:02.09 | 2:27.55 | 144159 | 155238
13 | 34:29.64 | 3:16.04 | 155239 | 169942
14 | 37:45.68 | 2:55.44 | 169943 | 183111
15 | 40:41.37 | 2:48.45 | 183112 | 195756
16 | 43:30.07 | 2:48.60 | 195757 | 208416
17 | 46:18.67 | 3:11.58 | 208417 | 222799
18 | 49:30.50 | 2:26.23 | 222800 | 233772
19 | 51:56.73 | 3:08.65 | 233773 | 247937
20 | 55:05.63 | 3:16.20 | 247938 | 262657
21 | 58:22.08 | 2:55.70 | 262658 | 275852
22 | 61:18.03 | 3:02.36 | 275853 | 289538
23 | 64:20.39 | 2:44.58 | 289539 | 301896
24 | 67:05.22 | 2:35.55 | 301897 | 313576
25 | 69:41.02 | 3:16.28 | 313577 | 328304


Track 1

Filename C:\Users\ian\Desktop\VA -The Essential 60s Love Album (2006) [FLAC] {2CD}\The Essential 60s Love Album CD2\01 - The Searchers - Sweets For My Sweet.wav

Pre-gap length 0:00:02.00

Peak level 89.7 %
Extraction speed 2.4 X
Track quality 100.0 %
Test CRC 8F2396E2
Copy CRC 8F2396E2
Accurately ripped (confidence 2) [FED0305D] (AR v1)
Copy OK

Track 2

Filename C:\Users\ian\Desktop\VA -The Essential 60s Love Album (2006) [FLAC] {2CD}\The Essential 60s Love Album CD2\02 - The Tremeloes - Here Comes My Baby.wav

Pre-gap length 0:00:02.28

Peak level 93.5 %
Extraction speed 2.6 X
Track quality 100.0 %
Test CRC 0970C6C9
Copy CRC 0970C6C9
Accurately ripped (confidence 2) [C1D663BF] (AR v1)
Copy OK

Track 3

Filename C:\Users\ian\Desktop\VA -The Essential 60s Love Album (2006) [FLAC] {2CD}\The Essential 60s Love Album CD2\03 - The Foundations - In The Bad, Bad Old Days.wav

Pre-gap length 0:00:01.72

Peak level 98.5 %
Extraction speed 2.8 X
Track quality 100.0 %
Test CRC 3C213948
Copy CRC 3C213948
Accurately ripped (confidence 2) [317AA740] (AR v1)
Copy OK

Track 4

Filename C:\Users\ian\Desktop\VA -The Essential 60s Love Album (2006) [FLAC] {2CD}\The Essential 60s Love Album CD2\04 - Jimmy Justice - When My Little Girl Is Smiling.wav

Pre-gap length 0:00:01.45

Peak level 98.7 %
Extraction speed 2.8 X
Track quality 100.0 %
Test CRC 2A2379B1
Copy CRC 2A2379B1
Accurately ripped (confidence 2) [8CABCFFE] (AR v1)
Copy OK

Track 5

Filename C:\Users\ian\Desktop\VA -The Essential 60s Love Album (2006) [FLAC] {2CD}\The Essential 60s Love Album CD2\05 - The Bystanders - 98.6.wav

Pre-gap length 0:00:01.78

Peak level 98.5 %
Extraction speed 3.1 X
Track quality 100.0 %
Test CRC 74A05C1F
Copy CRC 74A05C1F
Accurately ripped (confidence 2) [869CECFB] (AR v1)
Copy OK

Track 6

Filename C:\Users\ian\Desktop\VA -The Essential 60s Love Album (2006) [FLAC] {2CD}\The Essential 60s Love Album CD2\06 - The Truth - Girl.wav

Pre-gap length 0:00:01.06

Peak level 80.5 %
Extraction speed 3.1 X
Track quality 100.0 %
Test CRC D3E22419
Copy CRC D3E22419
Accurately ripped (confidence 2) [0FCBB592] (AR v1)
Copy OK

Track 7

Filename C:\Users\ian\Desktop\VA -The Essential 60s Love Album (2006) [FLAC] {2CD}\The Essential 60s Love Album CD2\07 - Mark Wynter - Go Away Little Girl.wav

Pre-gap length 0:00:01.36

Peak level 85.2 %
Extraction speed 3.1 X
Track quality 100.0 %
Test CRC 3BE9CF27
Copy CRC 3BE9CF27
Accurately ripped (confidence 2) [3C623B29] (AR v1)
Copy OK

Track 8

Filename C:\Users\ian\Desktop\VA -The Essential 60s Love Album (2006) [FLAC] {2CD}\The Essential 60s Love Album CD2\08 - Cleo Laine - Unforgettable.wav

Pre-gap length 0:00:02.02

Peak level 64.9 %
Extraction speed 3.6 X
Track quality 100.0 %
Test CRC 1BB43D6D
Copy CRC 1BB43D6D
Accurately ripped (confidence 2) [1FEFC7F0] (AR v1)
Copy OK

Track 9

Filename C:\Users\ian\Desktop\VA -The Essential 60s Love Album (2006) [FLAC] {2CD}\The Essential 60s Love Album CD2\09 - Helen Shapiro - You'll Get Me Loving You.wav

Pre-gap length 0:00:02.18

Peak level 95.4 %
Extraction speed 3.6 X
Track quality 100.0 %
Test CRC 2A65713C
Copy CRC 2A65713C
Accurately ripped (confidence 2) [C01BDC96] (AR v1)
Copy OK

Track 10

Filename C:\Users\ian\Desktop\VA -The Essential 60s Love Album (2006) [FLAC] {2CD}\The Essential 60s Love Album CD2\10 - Antoinette - There He Goes (The Boy I Love).wav

Pre-gap length 0:00:02.17

Peak level 97.5 %
Extraction speed 2.7 X
Track quality 99.9 %
Test CRC D8F62A5A
Copy CRC D8F62A5A
Accurately ripped (confidence 2) [9E6B491C] (AR v1)
Copy OK

Track 11

Filename C:\Users\ian\Desktop\VA -The Essential 60s Love Album (2006) [FLAC] {2CD}\The Essential 60s Love Album CD2\11 - The Small Faces - Afterglow (Of Your Love).wav

Pre-gap length 0:00:01.69

Peak level 81.7 %
Extraction speed 3.9 X
Track quality 100.0 %
Test CRC 527BC270
Copy CRC 527BC270
Accurately ripped (confidence 2) [790AB513] (AR v1)
Copy OK

Track 12

Filename C:\Users\ian\Desktop\VA -The Essential 60s Love Album (2006) [FLAC] {2CD}\The Essential 60s Love Album CD2\12 - The Ivy League - Tossin' & Turnin'.wav

Pre-gap length 0:00:02.20

Peak level 98.8 %
Extraction speed 2.9 X
Track quality 99.9 %
Test CRC 2F2AECED
Copy CRC 2F2AECED
Accurately ripped (confidence 2) [931407C9] (AR v1)
Copy OK

Track 13

Filename C:\Users\ian\Desktop\VA -The Essential 60s Love Album (2006) [FLAC] {2CD}\The Essential 60s Love Album CD2\13 - P.P. Arnold - Angel Of The Morning.wav

Pre-gap length 0:00:02.30

Peak level 100.0 %
Extraction speed 4.0 X
Track quality 100.0 %
Test CRC 0847B43F
Copy CRC 0847B43F
Accurately ripped (confidence 2) [7C1F826C] (AR v1)
Copy OK

Track 14

Filename C:\Users\ian\Desktop\VA -The Essential 60s Love Album (2006) [FLAC] {2CD}\The Essential 60s Love Album CD2\14 - The Paper Dolls - Something Here In My Heart.wav

Pre-gap length 0:00:02.17

Peak level 76.0 %
Extraction speed 3.3 X
Track quality 99.9 %
Test CRC 00C829BF
Copy CRC 00C829BF
Accurately ripped (confidence 2) [7B4CA825] (AR v1)
Copy OK

Track 15

Filename C:\Users\ian\Desktop\VA -The Essential 60s Love Album (2006) [FLAC] {2CD}\The Essential 60s Love Album CD2\15 - Consortium - All The Love In The World.wav

Pre-gap length 0:00:01.49

Peak level 77.5 %
Extraction speed 4.1 X
Track quality 100.0 %
Test CRC 7D86AA46
Copy CRC 7D86AA46
Accurately ripped (confidence 2) [BD046863] (AR v1)
Copy OK

Track 16

Filename C:\Users\ian\Desktop\VA -The Essential 60s Love Album (2006) [FLAC] {2CD}\The Essential 60s Love Album CD2\16 - Anita Harris - Trains And Boats And Planes.wav

Pre-gap length 0:00:01.50

Peak level 77.0 %
Extraction speed 4.2 X
Track quality 100.0 %
Test CRC 86E8210A
Copy CRC 86E8210A
Accurately ripped (confidence 2) [3A7EAF7A] (AR v1)
Copy OK

Track 17

Filename C:\Users\ian\Desktop\VA -The Essential 60s Love Album (2006) [FLAC] {2CD}\The Essential 60s Love Album CD2\17 - Twice As Much - Sittin' On A Fence.wav

Pre-gap length 0:00:01.96

Peak level 82.8 %
Extraction speed 4.4 X
Track quality 100.0 %
Test CRC 5314E116
Copy CRC 5314E116
Accurately ripped (confidence 2) [20DEE8A4] (AR v1)
Copy OK

Track 18

Filename C:\Users\ian\Desktop\VA -The Essential 60s Love Album (2006) [FLAC] {2CD}\The Essential 60s Love Album CD2\18 - Joe Brown & The Bruvvers - That's What Love Will Do.wav

Pre-gap length 0:00:02.06

Peak level 96.0 %
Extraction speed 4.3 X
Track quality 100.0 %
Test CRC 9A11E316
Copy CRC 9A11E316
Accurately ripped (confidence 2) [430BD41F] (AR v1)
Copy OK

Track 19

Filename C:\Users\ian\Desktop\VA -The Essential 60s Love Album (2006) [FLAC] {2CD}\The Essential 60s Love Album CD2\19 - David Garrick - Lady Jane.wav

Pre-gap length 0:00:02.22

Peak level 58.8 %
Extraction speed 3.7 X
Track quality 99.9 %
Test CRC A64BF188
Copy CRC A64BF188
Accurately ripped (confidence 2) [ADA8E203] (AR v1)
Copy OK

Track 20

Filename C:\Users\ian\Desktop\VA -The Essential 60s Love Album (2006) [FLAC] {2CD}\The Essential 60s Love Album CD2\20 - Long John Baldry - Let The Heartache Begin.wav

Pre-gap length 0:00:02.38

Peak level 95.8 %
Extraction speed 4.7 X
Track quality 100.0 %
Test CRC D25B57BF
Copy CRC D25B57BF
Accurately ripped (confidence 2) [F2C9A9A1] (AR v1)
Copy OK

Track 21

Filename C:\Users\ian\Desktop\VA -The Essential 60s Love Album (2006) [FLAC] {2CD}\The Essential 60s Love Album CD2\21 - Donovan - Catch The Wind.wav

Pre-gap length 0:00:02.73

Peak level 80.7 %
Extraction speed 3.8 X
Track quality 99.9 %
Test CRC F9E53616
Copy CRC F9E53616
Accurately ripped (confidence 2) [03D13452] (AR v1)
Copy OK

Track 22

Filename C:\Users\ian\Desktop\VA -The Essential 60s Love Album (2006) [FLAC] {2CD}\The Essential 60s Love Album CD2\22 - Petula Clark - I Want To Hold Your Hand.wav

Pre-gap length 0:00:02.12

Peak level 78.8 %
Extraction speed 4.8 X
Track quality 100.0 %
Test CRC 4CE05231
Copy CRC 4CE05231
Accurately ripped (confidence 2) [55D2D50D] (AR v1)
Copy OK

Track 23

Filename C:\Users\ian\Desktop\VA -The Essential 60s Love Album (2006) [FLAC] {2CD}\The Essential 60s Love Album CD2\23 - John Leyton - Tell Laura I Love Her.wav

Pre-gap length 0:00:02.45

Peak level 86.0 %
Extraction speed 4.8 X
Track quality 100.0 %
Test CRC 3601CD72
Copy CRC 3601CD72
Accurately ripped (confidence 2) [65CA4FAD] (AR v1)
Copy OK

Track 24

Filename C:\Users\ian\Desktop\VA -The Essential 60s Love Album (2006) [FLAC] {2CD}\The Essential 60s Love Album CD2\24 - Chris Farlowe - My Way Of Giving.wav

Pre-gap length 0:00:02.14

Peak level 95.7 %
Extraction speed 4.7 X
Track quality 100.0 %
Test CRC 8161FDD1
Copy CRC 8161FDD1
Accurately ripped (confidence 2) [13CD9B4B] (AR v1)
Copy OK

Track 25

Filename C:\Users\ian\Desktop\VA -The Essential 60s Love Album (2006) [FLAC] {2CD}\The Essential 60s Love Album CD2\25 - Dawn Penn - You Don't Love Me (No, No, No).wav

Pre-gap length 0:00:02.84

Peak level 97.0 %
Extraction speed 5.1 X
Track quality 100.0 %
Test CRC B2247839
Copy CRC B2247839
Accurately ripped (confidence 2) [8E463246] (AR v1)
Copy OK


All tracks accurately ripped

No errors occurred

End of status report

–– CUETools DB Plugin V2.1.3

[CTDB TOCID: yGuEzKCgVSUEeSFQqpK70GZ2dZs-] found, Submit result: yGuEzKCgVSUEeSFQqpK70GZ2dZs- has been uploaded
[a8490277] (1/1) Differs in 904 samples @33:55:00,33:55:62-33:55:63,33:56:50,33:56:66,33:57:22,33:57:53,33:58:09,33:58:56,33:58:71-33:58:72,33:59:13,33:59:74-34:00:00,34:00:47,34:01:03,34:01:34,34:01:50,34:01:65-34:01:66,34:02:06,34:02:52-34:02:53,34:02:68-34:02:69,34:03:55,34:03:71-34:03:72,34:04:12-34:04:13,34:04:43,34:04:59,34:05:31,34:06:19,34:06:65-34:06:66,34:07:21-34:07:22,34:07:37-34:07:38,34:07:68-34:07:69,34:08:09,34:08:40,34:08:56-34:08:57,34:08:71-34:08:72,34:09:28,34:09:43-34:09:44,34:09:59,34:10:00,34:10:31-34:10:32,34:11:50,34:11:65-34:11:66,34:12:06-34:12:07,34:12:21-34:12:22,34:12:37,34:13:09-34:13:10,34:13:25-34:13:26,34:13:40-34:13:41,34:13:56,34:13:72,34:14:12-34:14:13,34:14:28,34:14:59-34:14:60,34:15:00-34:15:01,34:15:16,34:15:63,34:16:03,34:16:34-34:16:35,34:16:50-34:16:51,34:16:66-34:16:67,34:17:06-34:17:07,34:17:22-34:17:23,34:17:38-34:17:39,34:17:53-34:17:54,34:17:69-34:17:70,34:18:10-34:18:11,34:18:25-34:18:26,34:18:41-34:18:42,34:18:57,34:18:72-34:18:73,34:19:13-34:19:14,34:19:29-34:19:30,34:19:45,34:19:60-34:19:61,34:20:01,34:20:16-34:20:17,34:20:32-34:20:33,34:20:48-34:20:49,34:20:63-34:20:64,34:21:04-34:21:05,34:21:20-34:21:21,34:21:35-34:21:36,34:21:51-34:21:52,34:21:67,34:22:23-34:22:24,34:23:11,34:23:26-34:23:27,34:23:58,34:23:73-34:23:74,34:24:30,34:25:17,34:25:33-34:25:34,34:25:49-34:25:50,34:25:65,34:26:05,34:26:21,34:26:52,34:27:09,34:30:03-34:30:04,34:30:35,34:30:66,34:31:07,34:33:14,34:35:52,34:36:40
You can use CUETools to repair this rip.


==== Log checksum BED3D6C11A17AD8F42AABAFDBB75539799546EAC07239A48F60BE6069C4879D7 ====