Tags
Language
Tags

The Guess Who: 1965 - Shakin' All Over & 1965 - Hey Ho (What You Do to Me) & 1966 - It's Time (2003)

Posted By:
The Guess Who: 1965 - Shakin' All Over & 1965 - Hey Ho (What You Do to Me) & 1966 - It's Time (2003)

The Guess Who: 1965 - Shakin' All Over & 1965 - Hey Ho (What You Do to Me) & 1966 - It's Time (2003)
EAC | Flac(Image) + Cue + Log & MP3 CBR 320Kbps
Friday Music ? | ~ 443 or 195 Mb | Scans
Blues Rock, Garage Rock

Before the Guess Who became one of the top album rock acts of the '70s, they were a darn good British Invasion-influenced garage band. This set features the three records they made in the mid-'60s: Shakin' All Over, Hey Ho (What You Do to Me), and It's Time for the small Canadian label Quality. Most of the songs on the set are Beatles-inspired but not derivative. Chad Allan and Randy Bachman wrote strong melodies, and the band usually sounds inspired and full of verve. They would have been a fun band to see live, sure to have the kids on the dancefloor. Apart from the Beatles, the band jumps around, hitting all kinds of sounds like rockabilly ("Tuff E Nuff"), surf ("Made in England"), blue-eyed soul ("Hey Ho," "Hurting Each Other"), Motown ("Could This Be Love"), and pop balladry ("Turn Around and Walk Away"). Their version of "Shakin' All Over" is just as good as Johnny Kidd's original, by the way. The third album, It's Time, is the most successful as the band welcomed Burton Cummings into the band and toughened up their sound considerably, drawing more from garage rock than the British Invasion. Cummings' voice adds a new element of a commanding vocal presence on barnburning rockers like "Alright" and "Gonna Search" and moody ballads like "Seven Long Years" and "Clock on the Wall." Bachman wrote some great songs for the record too like the chiming folk-rocker "And She's Mine" and the wonderfully aching "One Day." This record alone makes the set worth purchasing for garage rock aficionados. That you can get all three records together makes it even better. It is a toss up between this and Sundazed's great Shakin' All Over collection. That one probably wins out due to the presence of two unreleased tracks and their fine cover of Buffalo Springfield's "Flying on the Ground Is Wrong." Still, you can't go wrong with either.

by Tim Sendra, AMG
The Guess Who: 1965 - Shakin' All Over & 1965 - Hey Ho (What You Do to Me) & 1966 - It's Time (2003)


The Guess Who: 1965 - Shakin' All Over & 1965 - Hey Ho (What You Do to Me) & 1966 - It's Time (2003):

The Guess Who: 1965 - Shakin' All Over & 1965 - Hey Ho (What You Do to Me) & 1966 - It's Time (2003)

Tracklist:

Shakin' All Over (1965):
01. Shakin' All Over 02:43
02. Like I Love You 02:00
03. Till We Kissed (Where Have You Been) 02:37
04. Shy Guy 02:27
05. Shot Of Rhythm 'n' Blues 02:08
06. I Want You To Love Me 02:20
07. I'd Rather Be Alone 02:11
08. I've Been Away 02:09
09. Tuff E Nuff 02:34
10. Turn Around And Walk Away 02:31

Hey Ho (What You Do to Me) (1965):
11. Hey Ho 02:10
12. I Should Have Realized 02:05
13. Hurting Each Other 02:16
14. Made In England 03:01
15. I'll Keep Comin' Back 01:53
16. Stop Teasing Me 02:35
17. Could This Be Love 02:08
18. Theme From A Musicbox 02:13
19. Don't Be Scared 02:12
20. Goodnight Goodnight 02:31

It's Time (1966):
21. Alright 02:22
22. And She's Mine 02:40
23. As 02:24
24. You Know He Did 02:03
25. Baby Feelin' 02:01
26. Clock On The Wall 03:01
27. Don't Act So Bad 03:09
28. Believe Me 02:54
29. Seven Long Years 02:46
30. One Day 02:01
31. Gonna Search 02:28
32. Guess I'll Find A Place 02:24

Exact Audio Copy V1.1 from 23. June 2015

EAC extraction logfile from 19. December 2015, 18:00

The Guess Who / Shakin' All Over (1965) - Hey Ho (What You Do to Me)(1965) - It's Time (1966)

Used drive : TSSTcorpCDDVDW SH-224DB Adapter: 1 ID: 0

Read mode : Secure
Utilize accurate stream : Yes
Defeat audio cache : Yes
Make use of C2 pointers : No

Read offset correction : 6
Overread into Lead-In and Lead-Out : No
Fill up missing offset samples with silence : Yes
Delete leading and trailing silent blocks : No
Null samples used in CRC calculations : Yes
Used interface : Native Win32 interface for Win NT & 2000

Used output format : User Defined Encoder
Selected bitrate : 1024 kBit/s
Quality : High
Add ID3 tag : No
Command line compressor : C:\Program Files (x86)\Exact Audio Copy\win64\flac.exe
Additional command line options : -V -8 -T "Date=%year%" -T "Genre=%genre%" %source%


TOC of the extracted CD

Track | Start | Length | Start sector | End sector
––––––––––––––––––––––––––––-
1 | 0:00.00 | 2:43.04 | 0 | 12228
2 | 2:43.04 | 1:59.49 | 12229 | 21202
3 | 4:42.53 | 2:37.27 | 21203 | 33004
4 | 7:20.05 | 2:27.32 | 33005 | 44061
5 | 9:47.37 | 2:07.42 | 44062 | 53628
6 | 11:55.04 | 2:20.11 | 53629 | 64139
7 | 14:15.15 | 2:10.52 | 64140 | 73941
8 | 16:25.67 | 2:08.65 | 73942 | 83606
9 | 18:34.57 | 2:33.62 | 83607 | 95143
10 | 21:08.44 | 2:30.40 | 95144 | 106433
11 | 23:39.09 | 2:09.38 | 106434 | 116146
12 | 25:48.47 | 2:05.22 | 116147 | 125543
13 | 27:53.69 | 2:16.16 | 125544 | 135759
14 | 30:10.10 | 3:01.13 | 135760 | 149347
15 | 33:11.23 | 1:52.70 | 149348 | 157817
16 | 35:04.18 | 2:35.29 | 157818 | 169471
17 | 37:39.47 | 2:08.37 | 169472 | 179108
18 | 39:48.09 | 2:13.10 | 179109 | 189093
19 | 42:01.19 | 2:11.72 | 189094 | 198990
20 | 44:13.16 | 2:30.60 | 198991 | 210300
21 | 46:44.01 | 2:21.49 | 210301 | 220924
22 | 49:05.50 | 2:40.00 | 220925 | 232924
23 | 51:45.50 | 2:23.47 | 232925 | 243696
24 | 54:09.22 | 2:03.08 | 243697 | 252929
25 | 56:12.30 | 2:00.39 | 252930 | 261968
26 | 58:12.69 | 3:01.16 | 261969 | 275559
27 | 61:14.10 | 3:09.18 | 275560 | 289752
28 | 64:23.28 | 2:53.47 | 289753 | 302774
29 | 67:17.00 | 2:45.66 | 302775 | 315215
30 | 70:02.66 | 2:01.22 | 315216 | 324312
31 | 72:04.13 | 2:27.57 | 324313 | 335394
32 | 74:31.70 | 2:24.25 | 335395 | 346219


Range status and errors

Selected range

Filename D:\Sket4er\The Guess Who - Shakin' All Over (1965) - Hey Ho (What You Do to Me) (1965) - It's Time (1966) 2003\The Guess Who - Shakin' All Over (1965) - Hey Ho (What You Do to Me)(1965) - It's Time (1966).wav

Peak level 94.4 %
Extraction speed 3.4 X
Range quality 100.0 %
Test CRC 4F66AD16
Copy CRC 4F66AD16
Copy OK

No errors occurred


AccurateRip summary

Track 1 cannot be verified as accurate (confidence 4) [228D6809], AccurateRip returned [479B9DD0] (AR v2)
Track 2 cannot be verified as accurate (confidence 4) [0AD839A9], AccurateRip returned [D7D7EF7E] (AR v2)
Track 3 cannot be verified as accurate (confidence 4) [371C947B], AccurateRip returned [928E0157] (AR v2)
Track 4 cannot be verified as accurate (confidence 4) [E246A004], AccurateRip returned [2A64DD44] (AR v2)
Track 5 cannot be verified as accurate (confidence 4) [3BE727F4], AccurateRip returned [21351474] (AR v2)
Track 6 cannot be verified as accurate (confidence 4) [01438FAC], AccurateRip returned [3E1E74BD] (AR v2)
Track 7 cannot be verified as accurate (confidence 4) [2CC92E19], AccurateRip returned [0DCD12A7] (AR v2)
Track 8 cannot be verified as accurate (confidence 4) [477726A9], AccurateRip returned [75E24E63] (AR v2)
Track 9 cannot be verified as accurate (confidence 4) [38C7D311], AccurateRip returned [1B4BE90F] (AR v2)
Track 10 cannot be verified as accurate (confidence 4) [077D73AD], AccurateRip returned [C788DB96] (AR v2)
Track 11 cannot be verified as accurate (confidence 4) [AF31C0A4], AccurateRip returned [65B310BE] (AR v2)
Track 12 cannot be verified as accurate (confidence 4) [89976F0F], AccurateRip returned [CB907173] (AR v2)
Track 13 cannot be verified as accurate (confidence 4) [7EC063D6], AccurateRip returned [A768CF3C] (AR v2)
Track 14 cannot be verified as accurate (confidence 4) [FB8A9BC0], AccurateRip returned [26330CC6] (AR v2)
Track 15 cannot be verified as accurate (confidence 4) [369D19C3], AccurateRip returned [40DF5848] (AR v2)
Track 16 cannot be verified as accurate (confidence 4) [F5E7C69D], AccurateRip returned [805B66C4] (AR v2)
Track 17 cannot be verified as accurate (confidence 4) [71FE499D], AccurateRip returned [7B682AB8] (AR v2)
Track 18 cannot be verified as accurate (confidence 4) [89B5D92F], AccurateRip returned [75B14A9C] (AR v2)
Track 19 cannot be verified as accurate (confidence 4) [FD46BF9F], AccurateRip returned [9FD45989] (AR v2)
Track 20 cannot be verified as accurate (confidence 4) [D44B6710], AccurateRip returned [3C82E7E5] (AR v2)
Track 21 cannot be verified as accurate (confidence 4) [EBD6E434], AccurateRip returned [D218E682] (AR v2)
Track 22 cannot be verified as accurate (confidence 4) [AE1AF692], AccurateRip returned [26DC227E] (AR v2)
Track 23 cannot be verified as accurate (confidence 4) [ACDADAE2], AccurateRip returned [8C6C46E4] (AR v2)
Track 24 cannot be verified as accurate (confidence 4) [FEC96A67], AccurateRip returned [1B96B841] (AR v2)
Track 25 cannot be verified as accurate (confidence 4) [BD26C2E9], AccurateRip returned [B4844654] (AR v2)
Track 26 cannot be verified as accurate (confidence 4) [DEF3A825], AccurateRip returned [5A728B0E] (AR v2)
Track 27 cannot be verified as accurate (confidence 4) [314364A5], AccurateRip returned [7A266E73] (AR v2)
Track 28 cannot be verified as accurate (confidence 4) [719C6123], AccurateRip returned [C809904F] (AR v2)
Track 29 cannot be verified as accurate (confidence 4) [472EC738], AccurateRip returned [D1DA0EA1] (AR v2)
Track 30 cannot be verified as accurate (confidence 4) [CE3A530C], AccurateRip returned [A5F52796] (AR v2)
Track 31 cannot be verified as accurate (confidence 4) [4F576795], AccurateRip returned [9BF2BCA6] (AR v2)
Track 32 cannot be verified as accurate (confidence 4) [F720AD41], AccurateRip returned [1CC74BFB] (AR v2)

No tracks could be verified as accurate
You may have a different pressing from the one(s) in the database

End of status report

–– CUETools DB Plugin V2.1.6

[CTDB TOCID: KgytnOwDZfCp67UMig1XUWOu4aA-] found
Submit result: KgytnOwDZfCp67UMig1XUWOu4aA- has been confirmed
Track | CTDB Status
1 | (3/3) Accurately ripped
2 | (3/3) Accurately ripped
3 | (3/3) Accurately ripped
4 | (3/3) Accurately ripped
5 | (3/3) Accurately ripped
6 | (3/3) Accurately ripped
7 | (3/3) Accurately ripped
8 | (3/3) Accurately ripped
9 | (3/3) Accurately ripped
10 | (3/3) Accurately ripped
11 | (3/3) Accurately ripped
12 | (3/3) Accurately ripped
13 | (3/3) Accurately ripped
14 | (3/3) Accurately ripped
15 | (3/3) Accurately ripped
16 | (3/3) Accurately ripped
17 | (3/3) Accurately ripped
18 | (3/3) Accurately ripped
19 | (3/3) Accurately ripped
20 | (3/3) Accurately ripped
21 | (3/3) Accurately ripped
22 | (3/3) Accurately ripped
23 | (3/3) Accurately ripped
24 | (3/3) Accurately ripped
25 | (3/3) Accurately ripped
26 | (3/3) Accurately ripped
27 | (3/3) Accurately ripped
28 | (3/3) Accurately ripped
29 | (3/3) Accurately ripped
30 | (3/3) Accurately ripped
31 | (3/3) Accurately ripped
32 | (3/3) Accurately ripped


==== Log checksum D6F2CC0D41F45315D3B2DB3463E6AB6B817508347F12897643D93AE6970B6767 ====

foobar2000 1.2.9 / Dynamic Range Meter 1.1.1
log date: 2015-12-20 14:35:07

––––––––––––––––––––––––––––––––––––––––
Analyzed: The Guess Who / Shakin' All Over (1965) - Hey Ho (What You Do to Me)(1965) - It's Time (1966)
––––––––––––––––––––––––––––––––––––––––

DR Peak RMS Duration Track
––––––––––––––––––––––––––––––––––––––––
DR6 -0.50 dB -7.33 dB 2:43 01-Shakin' All Over
DR7 -0.50 dB -8.48 dB 2:00 02-Like I Love You
DR6 -0.50 dB -7.62 dB 2:37 03-Till We Kissed (Where Have You Been)
DR5 -0.50 dB -6.60 dB 2:27 04-Shy Guy
DR6 -0.50 dB -7.04 dB 2:08 05-Shot Of Rhythm 'n' Blues
DR5 -0.50 dB -6.12 dB 2:20 06-I Want You To Love Me
DR5 -0.50 dB -5.89 dB 2:11 07-I'd Rather Be Alone
DR5 -0.50 dB -6.26 dB 2:09 08-I've Been Away
DR6 -0.50 dB -6.99 dB 2:34 09-Tuff E Nuff
DR5 -0.50 dB -7.10 dB 2:31 10-Turn Around And Walk Away
DR8 -0.50 dB -9.02 dB 2:10 11-Hey Ho
DR7 -0.50 dB -8.52 dB 2:05 12-I Should Have Realized
DR7 -0.50 dB -9.92 dB 2:16 13-Hurting Each Other
DR6 -0.50 dB -7.52 dB 3:01 14-Made In England
DR8 -0.50 dB -9.67 dB 1:53 15-I'll Keep Comin' Back
DR8 -0.50 dB -8.67 dB 2:35 16-Stop Teasing Me
DR8 -0.50 dB -9.99 dB 2:08 17-Could This Be Love
DR7 -0.50 dB -8.58 dB 2:13 18-Theme From A Musicbox
DR8 -0.50 dB -9.76 dB 2:12 19-Don't Be Scared
DR8 -0.50 dB -9.46 dB 2:31 20-Goodnight Goodnight
DR7 -0.50 dB -7.67 dB 2:22 21-Alright
DR7 -0.50 dB -7.91 dB 2:40 22-And She's Mine
DR7 -0.50 dB -8.24 dB 2:24 23-As
DR7 -0.50 dB -8.26 dB 2:03 24-You Know He Did
DR7 -0.50 dB -8.41 dB 2:01 25-Baby Feelin'
DR7 -0.50 dB -8.88 dB 3:01 26-Clock On The Wall
DR7 -0.50 dB -7.94 dB 3:09 27-Don't Act So Bad
DR7 -0.50 dB -8.57 dB 2:54 28-Believe Me
DR6 -0.50 dB -7.57 dB 2:46 29-Seven Long Years
DR6 -0.50 dB -8.04 dB 2:01 30-One Day
DR7 -0.50 dB -8.29 dB 2:28 31-Gonna Search
DR6 -0.50 dB -7.77 dB 2:24 32-Guess I'll Find A Place
––––––––––––––––––––––––––––––––––––––––

Number of tracks: 32
Official DR value: DR7

Samplerate: 44100 Hz
Channels: 2
Bits per sample: 16
Bitrate: 759 kbps
Codec: FLAC

[CUETools log; Date: 19.12.2015 19:45:11; Version: 2.1.4]
[CTDB TOCID: KgytnOwDZfCp67UMig1XUWOu4aA-] found.
Track | CTDB Status
1 | (4/4) Accurately ripped
2 | (4/4) Accurately ripped
3 | (4/4) Accurately ripped
4 | (4/4) Accurately ripped
5 | (4/4) Accurately ripped
6 | (4/4) Accurately ripped
7 | (4/4) Accurately ripped
8 | (4/4) Accurately ripped
9 | (4/4) Accurately ripped
10 | (4/4) Accurately ripped
11 | (4/4) Accurately ripped
12 | (4/4) Accurately ripped
13 | (4/4) Accurately ripped
14 | (4/4) Accurately ripped
15 | (4/4) Accurately ripped
16 | (4/4) Accurately ripped
17 | (4/4) Accurately ripped
18 | (4/4) Accurately ripped
19 | (4/4) Accurately ripped
20 | (4/4) Accurately ripped
21 | (4/4) Accurately ripped
22 | (4/4) Accurately ripped
23 | (4/4) Accurately ripped
24 | (4/4) Accurately ripped
25 | (4/4) Accurately ripped
26 | (4/4) Accurately ripped
27 | (4/4) Accurately ripped
28 | (4/4) Accurately ripped
29 | (4/4) Accurately ripped
30 | (4/4) Accurately ripped
31 | (4/4) Accurately ripped
32 | (4/4) Accurately ripped
[AccurateRip ID: 0055c3b1-079c05d5-db120820] found.
Track [ CRC | V2 ] Status
01 [f201170e|228d6809] (0+0/4) No match
02 [e0996472|0ad839a9] (0+0/4) No match
03 [94079058|371c947b] (0+0/4) No match
04 [9987923b|e246a004] (0+0/4) No match
05 [e9df9f5b|3be727f4] (0+0/4) No match
06 [58bcd074|01438fac] (0+0/4) No match
07 [d040d450|2cc92e19] (0+0/4) No match
08 [7db39024|477726a9] (0+0/4) No match
09 [0aef4dcc|38c7d311] (0+0/4) No match
10 [3342f828|077d73ad] (0+0/4) No match
11 [5e3b42f4|af31c0a4] (0+0/4) No match
12 [b340d8cc|89976f0f] (0+0/4) No match
13 [f9ced1ec|7ec063d6] (0+0/4) No match
14 [4fd16563|fb8a9bc0] (0+0/4) No match
15 [9ac416ce|369d19c3] (0+0/4) No match
16 [8c40e364|f5e7c69d] (0+0/4) No match
17 [c7d186b4|71fe499d] (0+0/4) No match
18 [3e27d1e3|89b5d92f] (0+0/4) No match
19 [1b94d6ff|fd46bf9f] (0+0/4) No match
20 [4e042ff0|d44b6710] (0+0/4) No match
21 [b3c84c2b|ebd6e434] (0+0/4) No match
22 [217d0cef|ae1af692] (0+0/4) No match
23 [5b66bf35|acdadae2] (0+0/4) No match
24 [987bc270|fec96a67] (0+0/4) No match
25 [f13596d7|bd26c2e9] (0+0/4) No match
26 [e6a2b1c3|def3a825] (0+0/4) No match
27 [839c7a23|314364a5] (0+0/4) No match
28 [d3465663|719c6123] (0+0/4) No match
29 [beb18e0d|472ec738] (0+0/4) No match
30 [8090cdf8|ce3a530c] (0+0/4) No match
31 [74bf6fba|4f576795] (0+0/4) No match
32 [016851e3|f720ad41] (0+0/4) No match
Offsetted by 102:
01 [2c7c6f76] (0/4) No match (V2 was not tested)
02 [bd7f6f58] (0/4) No match (V2 was not tested)
03 [04a156b2] (0/4) No match (V2 was not tested)
04 [f52cd74d] (0/4) No match (V2 was not tested)
05 [e02f9511] (0/4) No match (V2 was not tested)
06 [8d8d8a4e] (0/4) No match (V2 was not tested)
07 [c29dacd8] (0/4) No match (V2 was not tested)
08 [bd300142] (0/4) No match (V2 was not tested)
09 [01f0f3a4] (0/4) No match (V2 was not tested)
10 [076451f4] (0/4) No match (V2 was not tested)
11 [25e5d234] (0/4) No match (V2 was not tested)
12 [05e4cfe0] (0/4) No match (V2 was not tested)
13 [349fdf10] (0/4) No match (V2 was not tested)
14 [928c00e7] (0/4) No match (V2 was not tested)
15 [b4059a98] (0/4) No match (V2 was not tested)
16 [2b5cff0e] (0/4) No match (V2 was not tested)
17 [e23a69d4] (0/4) No match (V2 was not tested)
18 [3bc5152b] (0/4) No match (V2 was not tested)
19 [cf73491f] (0/4) No match (V2 was not tested)
20 [ca5fca2a] (0/4) No match (V2 was not tested)
21 [8c9e326e] (0/4) No match (V2 was not tested)
22 [af70bb20] (0/4) No match (V2 was not tested)
23 [4e349d65] (0/4) No match (V2 was not tested)
24 [c5a03c32] (0/4) No match (V2 was not tested)
25 [f8956d47] (0/4) No match (V2 was not tested)
26 [7a25d60d] (0/4) No match (V2 was not tested)
27 [e5583931] (0/4) No match (V2 was not tested)
28 [40c252d7] (0/4) No match (V2 was not tested)
29 [5f76d82b] (0/4) No match (V2 was not tested)
30 [47fb0c62] (0/4) No match (V2 was not tested)
31 [d5115a10] (0/4) No match (V2 was not tested)
32 [3a3fd293] (0/4) No match (V2 was not tested)

Track Peak [ CRC32 ] [W/O NULL] [ LOG ]
– 94,4 [4F66AD16] [527FC019] CRC32
01 94,4 [721CB3F1] [E9C755EC]
02 94,4 [DC1ED367] [BF09463F]
03 94,4 [2F9CE87A] [1C4CD49A]
04 94,4 [63D7D36C] [BCC1DB1E]
05 94,4 [9214A49F] [C18275A8]
06 94,4 [B3D4AAA0] [E1EF2AD6]
07 94,4 [03A847A2] [DD33BB84]
08 94,4 [F6F6765F] [DB832CD6]
09 94,4 [97ACD383] [795E225D]
10 94,4 [C1410A71] [EE2524F4]
11 94,4 [1A777327] [CE8247F0]
12 94,4 [09ADD442] [5773F140]
13 94,4 [C69EA560] [52D49484]
14 94,4 [CD451C31] [0AC195F5]
15 94,4 [17A41900] [338F0CF8]
16 94,4 [9612AF2E] [3833B4B3]
17 94,4 [D60C78A9] [CB140543]
18 94,4 [3B94E8D0] [F6ADE587]
19 94,4 [CC10EC6E] [473B0D15]
20 94,4 [E84AA6DF] [72380033]
21 94,4 [27BA7CB9] [3B89E15E]
22 94,4 [06730992] [3CC15014]
23 94,4 [DFD2B10D] [FC7698E8]
24 94,4 [8F4B8E28] [22F493DB]
25 94,4 [C056011C] [0DF445A2]
26 94,4 [DDE8E949] [4F6A15D2]
27 94,4 [59FCF08E] [A4F26B14]
28 94,4 [027DFFD6] [B1045C47]
29 94,4 [BCA752DA] [72891DA7]
30 94,4 [E912FB88] [FA716B37]
31 94,4 [3C3E2C66] [1F205C4C]
32 94,4 [8BA73999] [7B99A5E6]

The Guess Who: 1965 - Shakin' All Over & 1965 - Hey Ho (What You Do to Me) & 1966 - It's Time (2003)

All thanks go to Sket4er

Download The Guess Who: 1965 - Shakin' All Over & 1965 - Hey Ho (What You Do to Me) & 1966 - It's Time (2003):