Tags
Language
Tags

The Guess Who: 1974 - Road Food & 1975 - Power In The Music (2004)

Posted By: v3122
The Guess Who: 1974 - Road Food & 1975 - Power In The Music (2004)

The Guess Who: 1974 - Road Food & 1975 - Power In The Music (2004)
EAC | Flac(Image) + Cue + Log & MP3 CBR 320Kbps
BMG, 8287653011-2 | ~ 571 or 213 Mb | Scans
Blues Rock, Garage Rock, Classic Rock

Reissue of 1974's 'Road Food' & 1975's 'Power in the Music' on one remastered CD. 19 tracks including the hit 'Clap for the Wolfman'.

~ amazon
The Guess Who: 1974 - Road Food & 1975 - Power In The Music (2004)


The Guess Who: 1974 - Road Food & 1975 - Power In The Music (2004):

The Guess Who: 1974 - Road Food & 1975 - Power In The Music (2004)

Tracklist:

Road Food (1974):
01. Star Baby 02:38
02. Attila's Blues 04:49
03. Straighten Out 02:22
04. Don't You Want Me 02:20
05. One Way Road To Hell 05:23
06. Clap For The Wolfman 04:14
07. Pleasin' For Reason 03:18
08. Road Food 03:35
09. The Ballad Of The Last Five Years 07:05

Power In The Music (1975):
10. Down And Out Woman 03:38
11. Women 03:26
12. When The Band Was Singin' (Shakin' All Over) 03:35
13. Dreams 04:59
14. Rich World - Poor World 06:17
15. Rosanne 04:20
16. Coors For Sunday 04:26
17. Shopping Bag Lady 05:32
18. Power In The Music 06:35

Exact Audio Copy V1.1 from 23. June 2015

EAC extraction logfile from 19. December 2015, 20:22

The Guess Who / Road Food / Power In The Music

Used drive : TSSTcorpCDDVDW SH-224DB Adapter: 1 ID: 0

Read mode : Secure
Utilize accurate stream : Yes
Defeat audio cache : Yes
Make use of C2 pointers : No

Read offset correction : 6
Overread into Lead-In and Lead-Out : No
Fill up missing offset samples with silence : Yes
Delete leading and trailing silent blocks : No
Null samples used in CRC calculations : Yes
Used interface : Native Win32 interface for Win NT & 2000

Used output format : User Defined Encoder
Selected bitrate : 1024 kBit/s
Quality : High
Add ID3 tag : No
Command line compressor : C:\Program Files (x86)\Exact Audio Copy\win64\flac.exe
Additional command line options : -V -8 -T "Date=%year%" -T "Genre=%genre%" %source%


TOC of the extracted CD

Track | Start | Length | Start sector | End sector
––––––––––––––––––––––––––––-
1 | 0:01.00 | 2:37.70 | 75 | 11919
2 | 2:38.70 | 4:49.30 | 11920 | 33624
3 | 7:28.25 | 2:22.23 | 33625 | 44297
4 | 9:50.48 | 2:19.59 | 44298 | 54781
5 | 12:10.32 | 5:22.69 | 54782 | 79000
6 | 17:33.26 | 4:13.49 | 79001 | 98024
7 | 21:47.00 | 3:17.58 | 98025 | 112857
8 | 25:04.58 | 3:34.53 | 112858 | 128960
9 | 28:39.36 | 7:05.27 | 128961 | 160862
10 | 35:44.63 | 3:37.71 | 160863 | 177208
11 | 39:22.59 | 3:25.47 | 177209 | 192630
12 | 42:48.31 | 3:34.38 | 192631 | 208718
13 | 46:22.69 | 4:58.69 | 208719 | 231137
14 | 51:21.63 | 6:16.43 | 231138 | 259380
15 | 57:38.31 | 4:20.11 | 259381 | 278891
16 | 61:58.42 | 4:25.38 | 278892 | 298804
17 | 66:24.05 | 5:31.44 | 298805 | 323673
18 | 71:55.49 | 6:35.31 | 323674 | 353329


Range status and errors

Selected range

Filename D:\Sket4er\The Guess Who - Road Food + Power In The Music (1974-1975) 2004\The Guess Who - Road Food , Power In The Music.wav

Peak level 92.8 %
Extraction speed 2.4 X
Range quality 99.9 %
Test CRC FC44023A
Copy CRC FC44023A
Copy OK

No errors occurred


AccurateRip summary

Track 1 cannot be verified as accurate (confidence 5) [5EE45B31], AccurateRip returned [9FF50CBA] (AR v2)
Track 2 cannot be verified as accurate (confidence 6) [787A5793], AccurateRip returned [691ED69E] (AR v2)
Track 3 cannot be verified as accurate (confidence 6) [E0F08F2B], AccurateRip returned [65F62551] (AR v2)
Track 4 cannot be verified as accurate (confidence 6) [020F0358], AccurateRip returned [8DE09EA2] (AR v2)
Track 5 cannot be verified as accurate (confidence 6) [07002C0B], AccurateRip returned [00123FF1] (AR v2)
Track 6 cannot be verified as accurate (confidence 5) [8A2053A4], AccurateRip returned [109840F1] (AR v2)
Track 7 cannot be verified as accurate (confidence 6) [05146B34], AccurateRip returned [3FE86C9B] (AR v2)
Track 8 cannot be verified as accurate (confidence 6) [DA0BF947], AccurateRip returned [58B7505B] (AR v2)
Track 9 cannot be verified as accurate (confidence 6) [20A358C3], AccurateRip returned [AB0F620B] (AR v2)
Track 10 cannot be verified as accurate (confidence 6) [8D4D6A89], AccurateRip returned [C9F830CF] (AR v2)
Track 11 cannot be verified as accurate (confidence 6) [25FB9207], AccurateRip returned [3C47C22A] (AR v2)
Track 12 cannot be verified as accurate (confidence 6) [B1660C11], AccurateRip returned [AC3404C0] (AR v2)
Track 13 cannot be verified as accurate (confidence 6) [E4F44801], AccurateRip returned [0319744C] (AR v2)
Track 14 cannot be verified as accurate (confidence 6) [DD893328], AccurateRip returned [7E817E1A] (AR v2)
Track 15 cannot be verified as accurate (confidence 6) [39C9B2C7], AccurateRip returned [51470DE5] (AR v2)
Track 16 cannot be verified as accurate (confidence 6) [AB2DD286], AccurateRip returned [55E61BFF] (AR v2)
Track 17 cannot be verified as accurate (confidence 6) [029FFB33], AccurateRip returned [59698AE3] (AR v2)
Track 18 cannot be verified as accurate (confidence 6) [8005B7D0], AccurateRip returned [14563C44] (AR v2)

No tracks could be verified as accurate
You may have a different pressing from the one(s) in the database

End of status report

–– CUETools DB Plugin V2.1.6

[CTDB TOCID: TI08ixhO5EFkT3gP1FXgRSwe15A-] found
Submit result: TI08ixhO5EFkT3gP1FXgRSwe15A- has been confirmed
Track | CTDB Status
1 | (1/1) Accurately ripped
2 | (1/1) Accurately ripped
3 | (1/1) Accurately ripped
4 | (1/1) Accurately ripped
5 | (1/1) Accurately ripped
6 | (1/1) Accurately ripped
7 | (1/1) Accurately ripped
8 | (1/1) Accurately ripped
9 | (1/1) Accurately ripped
10 | (1/1) Accurately ripped
11 | (1/1) Accurately ripped
12 | (1/1) Accurately ripped
13 | (1/1) Accurately ripped
14 | (1/1) Accurately ripped
15 | (1/1) Accurately ripped
16 | (1/1) Accurately ripped
17 | (1/1) Accurately ripped
18 | (1/1) Accurately ripped


==== Log checksum 2F47266AB7D9D15F32161AF913823157159246A11818F1D22F56A888F4EE6A72 ====

foobar2000 1.2.9 / Dynamic Range Meter 1.1.1
log date: 2015-12-24 16:10:07

––––––––––––––––––––––––––––––––––––––––
Analyzed: The Guess Who / Road Food / Power In The Music
––––––––––––––––––––––––––––––––––––––––

DR Peak RMS Duration Track
––––––––––––––––––––––––––––––––––––––––
DR11 -1.09 dB -13.27 dB 2:38 01-Star Baby
DR12 -1.51 dB -14.59 dB 4:49 02-Attila's Blues
DR11 -1.98 dB -13.90 dB 2:22 03-Straighten Out
DR11 -0.95 dB -13.45 dB 2:20 04-Don't You Want Me
DR10 -0.74 dB -13.07 dB 5:23 05-One Way Road To Hell
DR10 -2.01 dB -12.73 dB 4:14 06-Clap For The Wolfman
DR10 -2.11 dB -13.20 dB 3:18 07-Pleasin' For Reason
DR9 -1.51 dB -12.57 dB 3:35 08-Road Food
DR11 -1.28 dB -13.99 dB 7:05 09-The Ballad Of The Last Five Years
DR12 -1.19 dB -13.86 dB 3:38 10-Down And Out Woman
DR11 -1.83 dB -14.06 dB 3:26 11-Women
DR10 -1.50 dB -13.52 dB 3:35 12-When The Band Was Singin' (Shakin' All Over)
DR11 -1.73 dB -14.80 dB 4:59 13-Dreams
DR11 -1.70 dB -13.32 dB 6:17 14-Rich World - Poor World
DR10 -1.09 dB -12.19 dB 4:20 15-Rosanne
DR11 -1.41 dB -13.54 dB 4:26 16-Coors For Sunday
DR10 -0.65 dB -12.56 dB 5:32 17-Shopping Bag Lady
DR10 -1.86 dB -13.00 dB 6:35 18-Power In The Music
––––––––––––––––––––––––––––––––––––––––

Number of tracks: 18
Official DR value: DR11

Samplerate: 44100 Hz
Channels: 2
Bits per sample: 16
Bitrate: 950 kbps
Codec: FLAC

[CUETools log; Date: 19.12.2015 21:25:02; Version: 2.1.4]
Pregap length 00:01:00.
[CTDB TOCID: TI08ixhO5EFkT3gP1FXgRSwe15A-] found.
Track | CTDB Status
1 | (2/2) Accurately ripped
2 | (2/2) Accurately ripped
3 | (2/2) Accurately ripped
4 | (2/2) Accurately ripped
5 | (2/2) Accurately ripped
6 | (2/2) Accurately ripped
7 | (2/2) Accurately ripped
8 | (2/2) Accurately ripped
9 | (2/2) Accurately ripped
10 | (2/2) Accurately ripped
11 | (2/2) Accurately ripped
12 | (2/2) Accurately ripped
13 | (2/2) Accurately ripped
14 | (2/2) Accurately ripped
15 | (2/2) Accurately ripped
16 | (2/2) Accurately ripped
17 | (2/2) Accurately ripped
18 | (2/2) Accurately ripped
[AccurateRip ID: 002e82fb-027a9ea8-ed126612] found.
Track [ CRC | V2 ] Status
01 [d6af9d2f|5ee45b31] (0+0/5) No match
02 [a59a7a75|787a5793] (0+0/6) No match
03 [9f97539e|e0f08f2b] (0+0/6) No match
04 [3ae65fb9|020f0358] (0+0/6) No match
05 [797897ec|07002c0b] (0+0/6) No match
06 [ae237654|8a2053a4] (0+0/5) No match
07 [9d3ffcec|05146b34] (0+0/6) No match
08 [785733a5|da0bf947] (0+0/8) No match
09 [aebfae74|20a358c3] (0+0/8) No match
10 [f81da639|8d4d6a89] (0+0/6) No match
11 [14c74911|25fb9207] (0+0/6) No match
12 [0b578374|b1660c11] (0+0/6) No match
13 [8cb8db66|e4f44801] (0+0/6) No match
14 [42c1c885|dd893328] (0+0/6) No match
15 [4742a5bf|39c9b2c7] (0+0/6) No match
16 [a002a888|ab2dd286] (0+0/6) No match
17 [f6e47b09|029ffb33] (0+0/6) No match
18 [c999aa2d|8005b7d0] (0+0/6) No match
Offsetted by 102:
01 [2cc7a48d] (0/5) No match (V2 was not tested)
02 [bd537aa1] (0/6) No match (V2 was not tested)
03 [37b1543a] (0/6) No match (V2 was not tested)
04 [d95cfcfb] (0/6) No match (V2 was not tested)
05 [9d7f9b44] (0/6) No match (V2 was not tested)
06 [56916634] (0/5) No match (V2 was not tested)
07 [f26c7df2] (0/6) No match (V2 was not tested)
08 [13b29ff7] (2/8) Accurately ripped
09 [72651678] (2/8) Accurately ripped
10 [518d4e8f] (0/6) No match (V2 was not tested)
11 [45b9b923] (0/6) No match (V2 was not tested)
12 [2206d42a] (0/6) No match (V2 was not tested)
13 [d1aeecee] (0/6) No match (V2 was not tested)
14 [15a182a3] (0/6) No match (V2 was not tested)
15 [81086aed] (0/6) No match (V2 was not tested)
16 [6d9c0756] (0/6) No match (V2 was not tested)
17 [78a343b7] (0/6) No match (V2 was not tested)
18 [92653b6d] (0/6) No match (V2 was not tested)

Track Peak [ CRC32 ] [W/O NULL] [ LOG ]
– 92,8 [FC44023A] [D15A5D49] CRC32
01 88,2 [11B1712A] [F7990E96]
02 84,0 [A04F8D5B] [194A09B8]
03 79,6 [7CECEB91] [68BAD3A3]
04 89,6 [90C81B6A] [8F2C6D45]
05 91,8 [494ABF97] [493D0F25]
06 79,3 [ABFF441D] [6EB7B584]
07 78,4 [CD76D840] [7554A6D3]
08 84,0 [E0ED08BE] [E0F3E80A]
09 86,3 [2BA02D0C] [BDE8CE02]
10 87,1 [BC3709D2] [336D2A39]
11 80,9 [5153C7D9] [D9CDAA97]
12 84,0 [C03FC615] [3A8FBF3F]
13 81,9 [3190034B] [687C5112]
14 82,2 [4656450D] [D07D93A4]
15 88,1 [503B584C] [8F825ED0]
16 84,9 [147708E1] [2D04B701]
17 92,8 [61F9443C] [4630735F]
18 80,7 [2CAB668D] [3F9F1DF1]

The Guess Who: 1974 - Road Food & 1975 - Power In The Music (2004)

All thanks go to Sket4er

The Guess Who The Guess Who in my Blog

Download The Guess Who: 1974 - Road Food & 1975 - Power In The Music (2004):