Tags
Language
Tags

The Guess Who: 1968 - Wheatfield Soul & 1973 - Artificial Paradise (2004)

Posted By: v3122
The Guess Who: 1968 - Wheatfield Soul & 1973 - Artificial Paradise (2004)

The Guess Who: 1968 - Wheatfield Soul & 1973 - Artificial Paradise (2004)
EAC | Flac(Image) + Cue + Log & MP3 CBR 320Kbps
2004 | BMG, 8287653014-2 | ~ 562 or 214 Mb | Scans
Blues Rock, Garage Rock, Classic Rock

This two-fer from BMG Canada features a pair of out of print Guess Who LPs: Wheatfield Soul and Artificial Paradise, both originally issued on RCA Victor in 1968 and 1973 respectively. These albums highlight 20 songs, including "Pink Wine Sparkles in the Glass," "Follow Your Daughter Home," "A Wednesday in Your Garden," and the hit "These Eyes." While a greatest-hits package would satisfy most casual listeners' needs, these albums are worth acquiring for fanatics of the '70s Canadian rock group.

by Al Campbell, AMG
The Guess Who: 1968 - Wheatfield Soul & 1973 - Artificial Paradise (2004)


The Guess Who: 1968 - Wheatfield Soul & 1973 - Artificial Paradise (2004):

The Guess Who: 1968 - Wheatfield Soul & 1973 - Artificial Paradise (2004)

Tracklist:

Wheatfield Soul (1968):
01. These Eyes 03:14
02. Pink Wine Sparkles In The Glass 02:13
03. I Found Her In A Star 02:36
04. Friends Of Mine 10:02
05. When You Touch Me 03:37
06. A Wednesday In Your Garden 03:21
07. Lightfoot 03:07
08. Love And A Yellow Rose 05:04
09. Maple Fudge 01:53
10. We're Coming To Dinner 02:43

Artificial Paradise (1973):
11. Bye Bye Babe 02:47
12. Samantha's Living Room 03:28
13. Rock And Roller Steam 03:23
14. Follow Your Daughter Home 03:43
15. Those Show Biz Shoes 06:48
16. All Hashed Out 04:42
17. Orly 02:55
18. Lost And Found Town 03:49
19. Hamba Gahle-Usalang Gable 04:55
20. The Watcher 03:05

Exact Audio Copy V1.1 from 23. June 2015

EAC extraction logfile from 19. December 2015, 23:54

The Guess Who / Wheatfield Soul / Artifical Paradise

Used drive : TSSTcorpCDDVDW SH-224DB Adapter: 1 ID: 0

Read mode : Secure
Utilize accurate stream : Yes
Defeat audio cache : Yes
Make use of C2 pointers : No

Read offset correction : 6
Overread into Lead-In and Lead-Out : No
Fill up missing offset samples with silence : Yes
Delete leading and trailing silent blocks : No
Null samples used in CRC calculations : Yes
Used interface : Native Win32 interface for Win NT & 2000

Used output format : User Defined Encoder
Selected bitrate : 1024 kBit/s
Quality : High
Add ID3 tag : No
Command line compressor : C:\Program Files (x86)\Exact Audio Copy\win64\flac.exe
Additional command line options : -V -8 -T "Date=%year%" -T "Genre=%genre%" %source%


TOC of the extracted CD

Track | Start | Length | Start sector | End sector
––––––––––––––––––––––––––––-
1 | 0:00.00 | 3:43.69 | 0 | 16793
2 | 3:43.69 | 2:13.33 | 16794 | 26801
3 | 5:57.27 | 2:36.02 | 26802 | 38503
4 | 8:33.29 | 10:02.23 | 38504 | 83676
5 | 18:35.52 | 3:37.27 | 83677 | 99978
6 | 22:13.04 | 3:20.51 | 99979 | 115029
7 | 25:33.55 | 3:07.02 | 115030 | 129056
8 | 28:40.57 | 5:03.57 | 129057 | 151838
9 | 33:44.39 | 1:52.38 | 151839 | 160276
10 | 35:37.02 | 2:43.32 | 160277 | 172533
11 | 38:20.34 | 2:46.57 | 172534 | 185040
12 | 41:07.16 | 3:27.55 | 185041 | 200620
13 | 44:34.71 | 3:23.05 | 200621 | 215850
14 | 47:58.01 | 3:42.67 | 215851 | 232567
15 | 51:40.68 | 6:47.46 | 232568 | 263138
16 | 58:28.39 | 4:42.33 | 263139 | 284321
17 | 63:10.72 | 2:55.35 | 284322 | 297481
18 | 66:06.32 | 3:48.71 | 297482 | 314652
19 | 69:55.28 | 4:55.16 | 314653 | 336793
20 | 74:50.44 | 3:05.32 | 336794 | 350700


Range status and errors

Selected range

Filename D:\Sket4er\The Guess Who - Wheatfield Soul + Artificial Paradise (1968-1973) 2004\The Guess Who - Wheatfield Soul , Artifical Paradise.wav

Peak level 99.2 %
Extraction speed 3.5 X
Range quality 100.0 %
Test CRC 6760AA8D
Copy CRC 6760AA8D
Copy OK

No errors occurred


AccurateRip summary

Track 1 cannot be verified as accurate (confidence 11) [F5BBE165], AccurateRip returned [89BCDABD] (AR v2)
Track 2 cannot be verified as accurate (confidence 11) [2122C539], AccurateRip returned [4ED58236] (AR v2)
Track 3 cannot be verified as accurate (confidence 11) [C97D2184], AccurateRip returned [6176BFE4] (AR v2)
Track 4 cannot be verified as accurate (confidence 11) [671E26B1], AccurateRip returned [E974D231] (AR v2)
Track 5 cannot be verified as accurate (confidence 11) [C20526C0], AccurateRip returned [99014EC9] (AR v2)
Track 6 cannot be verified as accurate (confidence 11) [E08E054B], AccurateRip returned [936579C2] (AR v2)
Track 7 cannot be verified as accurate (confidence 11) [0A95E37B], AccurateRip returned [B5ADF776] (AR v2)
Track 8 cannot be verified as accurate (confidence 11) [5B94581F], AccurateRip returned [C27F49E0] (AR v2)
Track 9 cannot be verified as accurate (confidence 11) [31CE7E36], AccurateRip returned [6956A794] (AR v2)
Track 10 cannot be verified as accurate (confidence 11) [D862AF00], AccurateRip returned [BBB1A44F] (AR v2)
Track 11 cannot be verified as accurate (confidence 12) [7528AD23], AccurateRip returned [058DDFD0] (AR v2)
Track 12 cannot be verified as accurate (confidence 12) [F2129D60], AccurateRip returned [B349A3E7] (AR v2)
Track 13 cannot be verified as accurate (confidence 12) [54ED10FC], AccurateRip returned [760860FF] (AR v2)
Track 14 cannot be verified as accurate (confidence 11) [E33D5607], AccurateRip returned [1931B9C1] (AR v2)
Track 15 cannot be verified as accurate (confidence 12) [0C4A2C0B], AccurateRip returned [849CE7C1] (AR v2)
Track 16 cannot be verified as accurate (confidence 12) [769A01ED], AccurateRip returned [FE57E863] (AR v2)
Track 17 cannot be verified as accurate (confidence 12) [1DDCC92A], AccurateRip returned [EBF86D80] (AR v2)
Track 18 cannot be verified as accurate (confidence 12) [5E160280], AccurateRip returned [D71264CE] (AR v2)
Track 19 cannot be verified as accurate (confidence 10) [F87C1126], AccurateRip returned [BA02609F] (AR v2)
Track 20 cannot be verified as accurate (confidence 9) [99C2601B], AccurateRip returned [42313EFE] (AR v2)

No tracks could be verified as accurate
You may have a different pressing from the one(s) in the database

End of status report

–– CUETools DB Plugin V2.1.6

[CTDB TOCID: ZMp3fwJ6GNU0ZOSNeL3xA8ffWa8-] found
Submit result: ZMp3fwJ6GNU0ZOSNeL3xA8ffWa8- has been confirmed
Track | CTDB Status
1 | (5/5) Accurately ripped
2 | (5/5) Accurately ripped
3 | (5/5) Accurately ripped
4 | (5/5) Accurately ripped
5 | (5/5) Accurately ripped
6 | (5/5) Accurately ripped
7 | (5/5) Accurately ripped
8 | (5/5) Accurately ripped
9 | (5/5) Accurately ripped
10 | (5/5) Accurately ripped
11 | (5/5) Accurately ripped
12 | (5/5) Accurately ripped
13 | (5/5) Accurately ripped
14 | (5/5) Accurately ripped
15 | (5/5) Accurately ripped
16 | (5/5) Accurately ripped
17 | (5/5) Accurately ripped
18 | (5/5) Accurately ripped
19 | (5/5) Accurately ripped
20 | (5/5) Accurately ripped


==== Log checksum F2DBA84FB8CED629D90F2505A6F880FCF30CB841D893E8AB6E20638494AE7420 ====

foobar2000 1.3.9 / Замер динамического диапазона (DR) 1.1.1
Дата отчёта: 2015-12-20 09:42:17

––––––––––––––––––––––––––––––––––––––––
Анализ: The Guess Who / Wheatfield Soul / Artifical Paradise
––––––––––––––––––––––––––––––––––––––––

DR Пики RMS Продолжительность трека
––––––––––––––––––––––––––––––––––––––––
DR10 -0.18 дБ -11.74 дБ 3:44 1-These Eyes
DR10 -0.43 дБ -11.75 дБ 2:13 2-Pink Wine Sparkles In The Glass
DR9 -0.11 дБ -10.71 дБ 2:36 3-I Found Her In A Star
DR10 -0.07 дБ -11.16 дБ 10:02 4-Friends Of Mine
DR10 -0.72 дБ -11.60 дБ 3:37 5-When You Touch Me
DR10 -0.12 дБ -11.61 дБ 3:21 6-A Wednesday In Your Garden
DR10 -0.41 дБ -11.89 дБ 3:07 7-Lightfoot
DR11 -0.88 дБ -13.60 дБ 5:04 8-Love And A Yellow Rose
DR11 -0.34 дБ -13.49 дБ 1:53 9-Maple Fudge
DR10 -0.12 дБ -12.98 дБ 2:43 10-We're Coming To Dinner
DR9 -0.76 дБ -11.27 дБ 2:47 11-Bye Bye Babe
DR9 -0.93 дБ -11.89 дБ 3:28 12-Samantha's Living Room
DR9 -0.36 дБ -11.81 дБ 3:23 13-Rock And Roller Steam
DR11 -0.77 дБ -13.10 дБ 3:43 14-Follow Your Daughter Home
DR10 -0.23 дБ -11.17 дБ 6:48 15-Those Show Biz Shoes
DR10 -0.36 дБ -10.93 дБ 4:42 16-All Hashed Out
DR9 -1.00 дБ -11.14 дБ 2:55 17-Orly
DR9 -0.74 дБ -11.06 дБ 3:49 18-Lost And Found Town
DR9 -0.82 дБ -11.34 дБ 4:55 19-Hamba Gahle-Usalang Gable
DR10 -1.10 дБ -12.17 дБ 3:05 20-The Watcher
––––––––––––––––––––––––––––––––––––––––

Количество треков: 20
Реальные значения DR: DR10

Частота: 44100 Гц
Каналов: 2
Разрядность: 16
Битрейт: 945 кбит/с
Кодек: FLAC

[CUETools log; Date: 20.12.2015 9:41:12; Version: 2.1.4]
[CTDB TOCID: ZMp3fwJ6GNU0ZOSNeL3xA8ffWa8-] found.
Track | CTDB Status
1 | (6/6) Accurately ripped
2 | (6/6) Accurately ripped
3 | (6/6) Accurately ripped
4 | (6/6) Accurately ripped
5 | (6/6) Accurately ripped
6 | (6/6) Accurately ripped
7 | (6/6) Accurately ripped
8 | (6/6) Accurately ripped
9 | (6/6) Accurately ripped
10 | (6/6) Accurately ripped
11 | (6/6) Accurately ripped
12 | (6/6) Accurately ripped
13 | (6/6) Accurately ripped
14 | (6/6) Accurately ripped
15 | (6/6) Accurately ripped
16 | (6/6) Accurately ripped
17 | (6/6) Accurately ripped
18 | (6/6) Accurately ripped
19 | (6/6) Accurately ripped
20 | (6/6) Accurately ripped
[AccurateRip ID: 00381611-03350998-1a124414] found.
Track [ CRC | V2 ] Status
01 [02d28db7|f5bbe165] (00+00/17) No match
02 [f32490a1|2122c539] (00+00/16) No match
03 [84707e1c|c97d2184] (00+00/16) No match
04 [5261b88a|671e26b1] (00+00/16) No match
05 [acb0c845|c20526c0] (00+00/16) No match
06 [6c9cf4a5|e08e054b] (00+00/16) No match
07 [30364cb8|0a95e37b] (00+00/16) No match
08 [3952c628|5b94581f] (00+00/16) No match
09 [f39c2956|31ce7e36] (00+00/16) No match
10 [702a06f3|d862af00] (00+00/16) No match
11 [85c1d045|7528ad23] (00+00/17) No match
12 [5132b5db|f2129d60] (00+00/17) No match
13 [5f537116|54ed10fc] (00+00/17) No match
14 [d0c060bb|e33d5607] (00+00/16) No match
15 [2ef2bc04|0c4a2c0b] (00+00/17) No match
16 [480dc8b5|769a01ed] (00+00/17) No match
17 [179bde7f|1ddcc92a] (00+00/17) No match
18 [09a30c28|5e160280] (00+00/17) No match
19 [cb04e72e|f87c1126] (00+00/15) No match
20 [18cdf7e3|99c2601b] (00+00/13) No match
Offsetted by 690:
01 [27b466aa] (06/17) Accurately ripped
02 [7bd5601c] (05/16) Accurately ripped
03 [8178a3f4] (05/16) Accurately ripped
04 [5669bee2] (05/16) Accurately ripped
05 [10d4e2cd] (05/16) Accurately ripped
06 [a11d20ee] (05/16) Accurately ripped
07 [4f0e6d00] (05/16) Accurately ripped
08 [67f61a46] (05/16) Accurately ripped
09 [171ea7b1] (05/16) Accurately ripped
10 [5a429ff8] (05/16) Accurately ripped
11 [20497cd9] (05/17) Accurately ripped
12 [a3fab918] (05/17) Accurately ripped
13 [4fdf89be] (05/17) Accurately ripped
14 [2336b597] (05/16) Accurately ripped
15 [f10f2997] (05/17) Accurately ripped
16 [ffb7582e] (05/17) Accurately ripped
17 [ece1cc0e] (05/17) Accurately ripped
18 [1218ede8] (05/17) Accurately ripped
19 [c090c07d] (05/15) Accurately ripped
20 [d091c6a9] (04/13) Accurately ripped

Track Peak [ CRC32 ] [W/O NULL] [ LOG ]
– 99,2 [6760AA8D] [57135D2E] CRC32
01 97,9 [3F7584AA] [A289569D]
02 95,2 [033F1338] [CABBF560]
03 98,7 [B49AE1A3] [F2ADBA00]
04 99,2 [1233D177] [0509D38D]
05 92,0 [C1FF5CE6] [F947F9E6]
06 98,6 [EDD1D3B6] [D142FE92]
07 95,3 [9CC44F06] [82DDB255]
08 90,3 [C3B29A54] [4ACFE4B2]
09 96,1 [DCC8B722] [4B446080]
10 98,6 [8950E1CF] [A03B11AC]
11 91,6 [BABDED46] [75424ED3]
12 89,8 [69ECEACB] [222483AD]
13 95,9 [5996751B] [AB02FCFD]
14 91,5 [39AC3EB9] [18BD64C9]
15 97,4 [A2FB9327] [4302F919]
16 95,9 [DC89B6F5] [4F32638D]
17 89,1 [DC5D9B76] [21DE074A]
18 91,8 [611B8CD2] [FCC5AB50]
19 90,9 [465A5BF5] [870C3997]
20 88,0 [194AD706] [9FF14651]

The Guess Who: 1968 - Wheatfield Soul & 1973 - Artificial Paradise (2004)

All thanks go to Sket4er

The Guess Who The Guess Who in my Blog

Download The Guess Who: 1968 - Wheatfield Soul & 1973 - Artificial Paradise (2004):