Tags
Language
Tags
December 2022
Su Mo Tu We Th Fr Sa
27 28 29 30 1 2 3
4 5 6 7 8 9 10
11 12 13 14 15 16 17
18 19 20 21 22 23 24
25 26 27 28 29 30 31

VA - The Hits Album: The Electronic Album (2020)

Posted By: Rtax
VA - The Hits Album: The Electronic Album (2020)

VA - The Hits Album: The Electronic Album (2020)
EAC Rip | FLAC (tracks, cue, log) - 2.03 GB | MP3 CBR 320 kbps - 720 MB
5:14:38 | Synth-pop, Electronic | Label: Sony

The Hits Album: The Electronic Album - 80 massive synth-pop and electro-dance classics to get your feet moving, including: Soft Cell, Simple Minds, The Cure, Tears For Fears, Japan, The Human League, Donna Summer and many more! 4CDs packaged in an attractive fold out card digipack.

Tracklist
Disc 1 (01:18:32)
1. Philip Oakey & Giorgio Moroder – Together In Electric Dreams (03:50)
2. Visage – Fade To Grey (03:50)
3. Japan – Quiet Life (03:33)
4. Heaven 17 – Temptation (03:34)
5. Howard Jones – What Is Love? (03:38)
6. Nik Kershaw – I Won't Let The Sun Go Down On Me (03:15)
7. Kim Wilde – Kids In America (03:24)
8. Thompson Twins – Doctor! Doctor! (04:34)
9. Stephen Duffy – Kiss Me (03:30)
10. Tears For Fears – Pale Shelter (04:27)
11. Furniture – Brilliant Mind (03:41)
12. Simple Minds – Glittering Prize (03:59)
13. John Foxx – Underpass (03:57)
14. The Cure – The Walk (03:29)
15. A Flock Of Seagulls – Wishing (If I Had A Photograph Of You) (04:07)
16. Sparks – This Town Ain't Big Enough For Both Of Us (03:00)
17. Orchestral Manoeuvres In The Dark – Enola Gay (03:30)
18. Ultravox – Slow Motion (03:26)
19. Landscape – Einstein A Go-Go (02:59)
20. Trio – Da Da Da (I Don't Love You You Don't Love Me Aha Aha Aha) (03:25)
21. Soft Cell – Say Hello, Wave Goodbye (05:24)

Disc 2 (01:19:18)
1. Frankie Goes To Hollywood – Relax (03:57)
2. Dead Or Alive – You Spin Me Round (Like A Record) (03:12)
3. The Human League – (Keep Feeling) Fascination (03:44)
4. Phil Lynott – Yellow Pearl (02:58)
5. The Buggles – Video Killed The Radio Star (03:19)
6. Blondie – Heart Of Glass (04:08)
7. Iggy Pop – Nightclubbing (04:13)
8. Joe Jackson – Steppin' Out (04:13)
9. Roxy Music – More Than This (04:15)
10. David Sylvian – Forbidden Colours (05:52)
11. Clannad – Theme From Harry's Game (02:29)
12. Black – Wonderful Life (04:48)
13. Propaganda – Duel (04:45)
14. Animotion – Obsession (03:54)
15. Yello – Vicious Games (04:20)
16. Corey Hart – Sunglasses At Night (03:54)
17. Kim Carnes – Bette Davis Eyes (03:38)
18. Robert Palmer – Johnny And Mary (03:56)
19. Nick Heyward – Warning Sign (03:48)
20. H2O – I Dream To Sleep (03:55)

Disc 3 (01:18:21)
1. Donna Summer – I Feel Love (Patrick Cowley Mega Mix) (15:52)
2. Lipps Inc. – Funkytown (03:54)
3. Sylvester – You Make Me Feel (Mighty Real) (03:50)
4. Michael Sembello – Maniac (04:17)
5. Liza Minnelli – Losing My Mind (04:11)
6. Eighth Wonder – I'm Not Scared (04:23)
7. Jan Hammer – Miami Vice Theme (02:27)
8. The S.O.S. Band – Just Be Good To Me (04:09)
9. The Pointer Sisters – Automatic (04:01)
10. Maria Vidal – Body Rock (03:38)
11. Rockwell – Somebody's Watching Me (03:56)
12. Harold Faltermeyer – Axel F (03:01)
13. Rock Steady Crew – (Hey You) The Rock Steady Crew (03:46)
14. Malcolm McLaren & The World's Famous Supreme Team – Buffalo Gals (03:41)
15. Tom Tom Club – Wordy Rappinghood (04:23)
16. Art Of Noise – Moments In Love (04:35)
17. Enigma – Sadeness Pt. 1 (04:17)

Disc 4 (01:18:27)
1. Soft Cell – Tainted Love (02:39)
2. The Human League – Love Action (I Believe In Love) (03:50)
3. Visage – Visage (03:47)
4. Heaven 17 – Come Live With Me (03:33)
5. Japan – I Second That Emotion (03:45)
6. China Crisis – Wishful Thinking (04:06)
7. The Passions – I'm In Love With A German Film Star (03:59)
8. Swansway – Soul Train (03:13)
9. ABC – That Was Then But This Is Now (03:33)
10. Men Without Hats – Safety Dance (02:43)
11. Haysi Fantayzee – Shiny Shiny (03:41)
12. Marilyn – Calling Your Name (03:56)
13. Altered Images – Don't Talk To Me About Love (03:47)
14. Annabel Lamb – Riders On The Storm (03:58)
15. Hazel O'Connor – Eighth Day (03:09)
16. Martha And The Muffins – Echo Beach (03:35)
17. Devo – Whip It (02:38)
18. Our Daughter's Wedding – Lawn Chairs (03:27)
19. The Fixx – One Thing Leads To Another (03:14)
20. Fiction Factory – (Feels Like) Heaven (03:29)
21. The Lotus Eaters – The First Picture Of You (03:40)
22. Thompson Twins – Hold Me Now (04:45)
Exact Audio Copy V1.3 from 2. September 2016

EAC extraction logfile from 6. June 2021, 17:38

Various Artists / The Hits Album The Electronic Album

Used drive : TSSTcorpCDDVDW SE-208DB Adapter: 1 ID: 0

Read mode : Secure
Utilize accurate stream : Yes
Defeat audio cache : Yes
Make use of C2 pointers : No

Read offset correction : 6
Overread into Lead-In and Lead-Out : No
Fill up missing offset samples with silence : Yes
Delete leading and trailing silent blocks : No
Null samples used in CRC calculations : Yes
Used interface : Native Win32 interface for Win NT & 2000
Gap handling : Appended to previous track

Used output format : User Defined Encoder
Selected bitrate : 1024 kBit/s
Quality : High
Add ID3 tag : No
Command line compressor : F:\Programs\Exact Audio Copy\Flac\flac.exe
Additional command line options : -8 -V -T "ARTIST=%artist%" -T "TITLE=%title%" -T "ALBUM=%albumtitle%" -T "DATE=%year%" -T "TRACKNUMBER=%tracknr%" -T "GENRE=%genre%" -T "PERFORMER=%albuminterpret%" -T "COMPOSER=%composer%" %haslyrics%–tag-from-file=LYRICS="%lyricsfile%"%haslyrics% -T "ALBUMARTIST=%albumartist%" -T "DISCNUMBER=%cdnumber%" -T "TOTALDISCS=%totalcds%" -T "TOTALTRACKS=%numtracks%" -T "COMMENT=%comment%" %source% -o %dest%


TOC of the extracted CD

Track | Start | Length | Start sector | End sector
––––––––––––––––––––––––––––-
1 | 0:00.00 | 3:50.31 | 0 | 17280
2 | 3:50.31 | 3:49.60 | 17281 | 34515
3 | 7:40.16 | 3:33.25 | 34516 | 50515
4 | 11:13.41 | 3:33.50 | 50516 | 66540
5 | 14:47.16 | 3:37.39 | 66541 | 82854
6 | 18:24.55 | 3:15.25 | 82855 | 97504
7 | 21:40.05 | 3:24.31 | 97505 | 112835
8 | 25:04.36 | 4:34.22 | 112836 | 133407
9 | 29:38.58 | 3:30.33 | 133408 | 149190
10 | 33:09.16 | 4:26.39 | 149191 | 169179
11 | 37:35.55 | 3:40.65 | 169180 | 185744
12 | 41:16.45 | 3:58.58 | 185745 | 203652
13 | 45:15.28 | 3:56.42 | 203653 | 221394
14 | 49:11.70 | 3:28.49 | 221395 | 237043
15 | 52:40.44 | 4:07.08 | 237044 | 255576
16 | 56:47.52 | 3:00.27 | 255577 | 269103
17 | 59:48.04 | 3:29.47 | 269104 | 284825
18 | 63:17.51 | 3:26.01 | 284826 | 300276
19 | 66:43.52 | 2:59.14 | 300277 | 313715
20 | 69:42.66 | 3:25.00 | 313716 | 329090
21 | 73:07.66 | 5:23.41 | 329091 | 353356


Track 1

Filename F:\EAC Rips\The Hits Album The Electronic Album\CD1\01 - Philip Oakey & Giorgio Moroder - Together In Electric Dreams.wav

Pre-gap length 0:00:02.00

Peak level 91.9 %
Extraction speed 2.3 X
Track quality 99.9 %
Test CRC 2A8F24C5
Copy CRC 2A8F24C5
Accurately ripped (confidence 5) [9F81ED31] (AR v2)
Copy OK

Track 2

Filename F:\EAC Rips\The Hits Album The Electronic Album\CD1\02 - Visage - Fade To Grey.wav

Pre-gap length 0:00:00.53

Peak level 83.1 %
Extraction speed 3.1 X
Track quality 100.0 %
Test CRC BF25DB9B
Copy CRC BF25DB9B
Accurately ripped (confidence 5) [654B1FA8] (AR v2)
Copy OK

Track 3

Filename F:\EAC Rips\The Hits Album The Electronic Album\CD1\03 - Japan - Quiet Life.wav

Pre-gap length 0:00:00.37

Peak level 100.0 %
Extraction speed 3.2 X
Track quality 100.0 %
Test CRC B3E9C304
Copy CRC B3E9C304
Accurately ripped (confidence 5) [F2D11991] (AR v2)
Copy OK

Track 4

Filename F:\EAC Rips\The Hits Album The Electronic Album\CD1\04 - Heaven 17 - Temptation.wav

Pre-gap length 0:00:00.08

Peak level 83.1 %
Extraction speed 3.4 X
Track quality 100.0 %
Test CRC B56FE179
Copy CRC B56FE179
Accurately ripped (confidence 5) [BD2D4F32] (AR v2)
Copy OK

Track 5

Filename F:\EAC Rips\The Hits Album The Electronic Album\CD1\05 - Howard Jones - What Is Love.wav

Pre-gap length 0:00:00.65

Peak level 93.5 %
Extraction speed 3.6 X
Track quality 100.0 %
Test CRC 35015BB7
Copy CRC 35015BB7
Accurately ripped (confidence 5) [8EA2194A] (AR v2)
Copy OK

Track 6

Filename F:\EAC Rips\The Hits Album The Electronic Album\CD1\06 - Nik Kershaw - I Won't Let The Sun Go Down On Me.wav

Pre-gap length 0:00:00.35

Peak level 100.0 %
Extraction speed 3.7 X
Track quality 100.0 %
Test CRC 855E30B7
Copy CRC 855E30B7
Accurately ripped (confidence 5) [C6A4F32A] (AR v2)
Copy OK

Track 7

Filename F:\EAC Rips\The Hits Album The Electronic Album\CD1\07 - Kim Wilde - Kids In America.wav

Pre-gap length 0:00:00.66

Peak level 82.2 %
Extraction speed 3.9 X
Track quality 100.0 %
Test CRC D1F70B23
Copy CRC D1F70B23
Accurately ripped (confidence 6) [12A4F066] (AR v2)
Copy OK

Track 8

Filename F:\EAC Rips\The Hits Album The Electronic Album\CD1\08 - Thompson Twins - Doctor! Doctor!.wav

Pre-gap length 0:00:00.52

Peak level 100.0 %
Extraction speed 4.2 X
Track quality 100.0 %
Test CRC B0631989
Copy CRC B0631989
Accurately ripped (confidence 6) [378F54B0] (AR v2)
Copy OK

Track 9

Filename F:\EAC Rips\The Hits Album The Electronic Album\CD1\09 - Stephen Duffy - Kiss Me.wav

Pre-gap length 0:00:00.70

Peak level 89.1 %
Extraction speed 4.2 X
Track quality 100.0 %
Test CRC 20FF608B
Copy CRC 20FF608B
Accurately ripped (confidence 6) [41745321] (AR v2)
Copy OK

Track 10

Filename F:\EAC Rips\The Hits Album The Electronic Album\CD1\10 - Tears For Fears - Pale Shelter.wav

Pre-gap length 0:00:00.07

Peak level 77.8 %
Extraction speed 4.5 X
Track quality 100.0 %
Test CRC C077166D
Copy CRC C077166D
Accurately ripped (confidence 6) [742E196B] (AR v2)
Copy OK

Track 11

Filename F:\EAC Rips\The Hits Album The Electronic Album\CD1\11 - Furniture - Brilliant Mind.wav

Pre-gap length 0:00:00.65

Peak level 88.3 %
Extraction speed 4.6 X
Track quality 100.0 %
Test CRC 9DC9F902
Copy CRC 9DC9F902
Accurately ripped (confidence 6) [FF4F4E40] (AR v2)
Copy OK

Track 12

Filename F:\EAC Rips\The Hits Album The Electronic Album\CD1\12 - Simple Minds - Glittering Prize.wav

Pre-gap length 0:00:00.69

Peak level 81.2 %
Extraction speed 4.8 X
Track quality 100.0 %
Test CRC 249A3722
Copy CRC 249A3722
Accurately ripped (confidence 6) [6ED0EEA7] (AR v2)
Copy OK

Track 13

Filename F:\EAC Rips\The Hits Album The Electronic Album\CD1\13 - John Foxx - Underpass.wav

Pre-gap length 0:00:00.35

Peak level 92.2 %
Extraction speed 4.9 X
Track quality 100.0 %
Test CRC AE3E8ED6
Copy CRC AE3E8ED6
Accurately ripped (confidence 7) [D6A8863B] (AR v2)
Copy OK

Track 14

Filename F:\EAC Rips\The Hits Album The Electronic Album\CD1\14 - The Cure - The Walk.wav

Pre-gap length 0:00:00.14

Peak level 88.1 %
Extraction speed 4.9 X
Track quality 100.0 %
Test CRC 60F0AF72
Copy CRC 60F0AF72
Accurately ripped (confidence 6) [458D1A3E] (AR v2)
Copy OK

Track 15

Filename F:\EAC Rips\The Hits Album The Electronic Album\CD1\15 - A Flock Of Seagulls - Wishing (If I Had A Photograph Of You).wav

Pre-gap length 0:00:00.05

Peak level 79.3 %
Extraction speed 5.1 X
Track quality 100.0 %
Test CRC DA84E4FE
Copy CRC DA84E4FE
Accurately ripped (confidence 6) [E0C7F0EC] (AR v2)
Copy OK

Track 16

Filename F:\EAC Rips\The Hits Album The Electronic Album\CD1\16 - Sparks - This Town Ain't Big Enough For Both Of Us.wav

Pre-gap length 0:00:00.05

Peak level 80.7 %
Extraction speed 4.9 X
Track quality 100.0 %
Test CRC 2A2C03C3
Copy CRC 2A2C03C3
Accurately ripped (confidence 6) [5EA66E31] (AR v2)
Copy OK

Track 17

Filename F:\EAC Rips\The Hits Album The Electronic Album\CD1\17 - Orchestral Manoeuvres In The Dark - Enola Gay.wav

Pre-gap length 0:00:00.28

Peak level 84.1 %
Extraction speed 5.1 X
Track quality 100.0 %
Test CRC FD9B8A74
Copy CRC FD9B8A74
Accurately ripped (confidence 7) [830B53F6] (AR v2)
Copy OK

Track 18

Filename F:\EAC Rips\The Hits Album The Electronic Album\CD1\18 - Ultravox - Slow Motion.wav

Pre-gap length 0:00:00.08

Peak level 100.0 %
Extraction speed 5.3 X
Track quality 100.0 %
Test CRC A72A0B4F
Copy CRC A72A0B4F
Accurately ripped (confidence 6) [09741FF0] (AR v2)
Copy OK

Track 19

Filename F:\EAC Rips\The Hits Album The Electronic Album\CD1\19 - Landscape - Einstein A Go-Go.wav

Pre-gap length 0:00:00.27

Peak level 100.0 %
Extraction speed 5.2 X
Track quality 100.0 %
Test CRC 5639E4A3
Copy CRC 5639E4A3
Accurately ripped (confidence 6) [235BE029] (AR v2)
Copy OK

Track 20

Filename F:\EAC Rips\The Hits Album The Electronic Album\CD1\20 - Trio - Da Da Da (I Don't Love You You Don't Love Me Aha Aha Aha).wav

Pre-gap length 0:00:00.24

Peak level 100.0 %
Extraction speed 5.4 X
Track quality 100.0 %
Test CRC 97E334E4
Copy CRC 97E334E4
Accurately ripped (confidence 5) [54132B94] (AR v2)
Copy OK

Track 21

Filename F:\EAC Rips\The Hits Album The Electronic Album\CD1\21 - Soft Cell - Say Hello, Wave Goodbye.wav

Pre-gap length 0:00:00.44

Peak level 100.0 %
Extraction speed 0.4 X
Track quality 98.8 %
Test CRC 82A510A2
Copy CRC 82A510A2
Accurately ripped (confidence 6) [60F87265] (AR v2)
Copy OK


All tracks accurately ripped

No errors occurred

End of status report

–– CUETools DB Plugin V2.1.6

[CTDB TOCID: Y0AagbGcF5EK5Npp31SUL82VIkY-] found
Submit result: Y0AagbGcF5EK5Npp31SUL82VIkY- has been confirmed
Track | CTDB Status
1 | (16/16) Accurately ripped
2 | (16/16) Accurately ripped
3 | (16/16) Accurately ripped
4 | (16/16) Accurately ripped
5 | (16/16) Accurately ripped
6 | (16/16) Accurately ripped
7 | (16/16) Accurately ripped
8 | (16/16) Accurately ripped
9 | (16/16) Accurately ripped
10 | (16/16) Accurately ripped
11 | (16/16) Accurately ripped
12 | (16/16) Accurately ripped
13 | (16/16) Accurately ripped
14 | (16/16) Accurately ripped
15 | (16/16) Accurately ripped
16 | (16/16) Accurately ripped
17 | (16/16) Accurately ripped
18 | (16/16) Accurately ripped
19 | (16/16) Accurately ripped
20 | (15/16) Accurately ripped
21 | (15/16) Accurately ripped, or (1/16) differs in 728 samples @03:28:72-03:28:73


==== Log checksum ACE05A691659AD89F810E52B6B49A776F2A14D45D7B2A33C1E9F4C766FFAAFA5 ====


Exact Audio Copy V1.3 from 2. September 2016

EAC extraction logfile from 6. June 2021, 19:24

Various Artists / The Hits Album The Electronic Album

Used drive : TSSTcorpCDDVDW SE-208DB Adapter: 1 ID: 0

Read mode : Secure
Utilize accurate stream : Yes
Defeat audio cache : Yes
Make use of C2 pointers : No

Read offset correction : 6
Overread into Lead-In and Lead-Out : No
Fill up missing offset samples with silence : Yes
Delete leading and trailing silent blocks : No
Null samples used in CRC calculations : Yes
Used interface : Native Win32 interface for Win NT & 2000
Gap handling : Appended to previous track

Used output format : User Defined Encoder
Selected bitrate : 1024 kBit/s
Quality : High
Add ID3 tag : No
Command line compressor : F:\Programs\Exact Audio Copy\Flac\flac.exe
Additional command line options : -8 -V -T "ARTIST=%artist%" -T "TITLE=%title%" -T "ALBUM=%albumtitle%" -T "DATE=%year%" -T "TRACKNUMBER=%tracknr%" -T "GENRE=%genre%" -T "PERFORMER=%albuminterpret%" -T "COMPOSER=%composer%" %haslyrics%–tag-from-file=LYRICS="%lyricsfile%"%haslyrics% -T "ALBUMARTIST=%albumartist%" -T "DISCNUMBER=%cdnumber%" -T "TOTALDISCS=%totalcds%" -T "TOTALTRACKS=%numtracks%" -T "COMMENT=%comment%" %source% -o %dest%


TOC of the extracted CD

Track | Start | Length | Start sector | End sector
––––––––––––––––––––––––––––-
1 | 0:00.00 | 3:56.41 | 0 | 17740
2 | 3:56.41 | 3:12.13 | 17741 | 32153
3 | 7:08.54 | 3:44.20 | 32154 | 48973
4 | 10:52.74 | 2:57.53 | 48974 | 62301
5 | 13:50.52 | 3:18.66 | 62302 | 77217
6 | 17:09.43 | 4:08.01 | 77218 | 95818
7 | 21:17.44 | 4:12.71 | 95819 | 114789
8 | 25:30.40 | 4:13.18 | 114790 | 133782
9 | 29:43.58 | 4:15.27 | 133783 | 152934
10 | 33:59.10 | 5:52.34 | 152935 | 179368
11 | 39:51.44 | 2:29.07 | 179369 | 190550
12 | 42:20.51 | 4:47.65 | 190551 | 212140
13 | 47:08.41 | 4:45.14 | 212141 | 233529
14 | 51:53.55 | 3:53.73 | 233530 | 251077
15 | 55:47.53 | 4:19.66 | 251078 | 270568
16 | 60:07.44 | 3:53.72 | 270569 | 288115
17 | 64:01.41 | 3:38.06 | 288116 | 304471
18 | 67:39.47 | 3:56.09 | 304472 | 322180
19 | 71:35.56 | 3:47.69 | 322181 | 339274
20 | 75:23.50 | 3:54.47 | 339275 | 356871


Track 1

Filename F:\EAC Rips\The Hits Album The Electronic Album\CD2\01 - Frankie Goes To Hollywood - Relax.wav

Pre-gap length 0:00:02.00

Peak level 89.1 %
Extraction speed 3.0 X
Track quality 100.0 %
Test CRC 13AFB51F
Copy CRC 13AFB51F
Accurately ripped (confidence 5) [59006CE6] (AR v2)
Copy OK

Track 2

Filename F:\EAC Rips\The Hits Album The Electronic Album\CD2\02 - Dead Or Alive - You Spin Me Round (Like A Record).wav

Pre-gap length 0:00:00.14

Peak level 83.9 %
Extraction speed 3.1 X
Track quality 100.0 %
Test CRC A7035EC7
Copy CRC A7035EC7
Accurately ripped (confidence 5) [A0893D4C] (AR v2)
Copy OK

Track 3

Filename F:\EAC Rips\The Hits Album The Electronic Album\CD2\03 - The Human League - (Keep Feeling) Fascination.wav

Pre-gap length 0:00:00.71

Peak level 100.0 %
Extraction speed 3.4 X
Track quality 100.0 %
Test CRC E8D7DD97
Copy CRC E8D7DD97
Accurately ripped (confidence 5) [8496DC7A] (AR v2)
Copy OK

Track 4

Filename F:\EAC Rips\The Hits Album The Electronic Album\CD2\04 - Phil Lynott - Yellow Pearl.wav

Pre-gap length 0:00:00.44

Peak level 78.5 %
Extraction speed 3.4 X
Track quality 100.0 %
Test CRC 7A661F43
Copy CRC 7A661F43
Accurately ripped (confidence 5) [CB3B3B9F] (AR v2)
Copy OK

Track 5

Filename F:\EAC Rips\The Hits Album The Electronic Album\CD2\05 - The Buggles - Video Killed The Radio Star.wav

Pre-gap length 0:00:00.29

Peak level 98.8 %
Extraction speed 2.8 X
Track quality 99.9 %
Test CRC 774D3FD4
Copy CRC 774D3FD4
Accurately ripped (confidence 5) [91682B2D] (AR v2)
Copy OK

Track 6

Filename F:\EAC Rips\The Hits Album The Electronic Album\CD2\06 - Blondie - Heart Of Glass.wav

Pre-gap length 0:00:00.51

Peak level 99.9 %
Extraction speed 3.1 X
Track quality 99.9 %
Test CRC B5899CAE
Copy CRC B5899CAE
Accurately ripped (confidence 5) [6EAEF96A] (AR v2)
Copy OK

Track 7

Filename F:\EAC Rips\The Hits Album The Electronic Album\CD2\07 - Iggy Pop - Nightclubbing.wav

Pre-gap length 0:00:01.08

Peak level 74.1 %
Extraction speed 3.3 X
Track quality 99.9 %
Test CRC 5AF90A41
Copy CRC 5AF90A41
Accurately ripped (confidence 5) [D7692CE8] (AR v2)
Copy OK

Track 8

Filename F:\EAC Rips\The Hits Album The Electronic Album\CD2\08 - Joe Jackson - Steppin' Out.wav

Pre-gap length 0:00:00.17

Peak level 100.0 %
Extraction speed 4.2 X
Track quality 100.0 %
Test CRC 29F8473A
Copy CRC 29F8473A
Accurately ripped (confidence 5) [C7D95416] (AR v2)
Copy OK

Track 9

Filename F:\EAC Rips\The Hits Album The Electronic Album\CD2\09 - Roxy Music - More Than This.wav

Pre-gap length 0:00:00.02

Peak level 88.0 %
Extraction speed 4.4 X
Track quality 100.0 %
Test CRC D72C91EF
Copy CRC D72C91EF
Accurately ripped (confidence 5) [8B1086F3] (AR v2)
Copy OK

Track 10

Filename F:\EAC Rips\The Hits Album The Electronic Album\CD2\10 - David Sylvian - Forbidden Colours.wav

Pre-gap length 0:00:00.42

Peak level 94.3 %
Extraction speed 4.7 X
Track quality 100.0 %
Test CRC EAF26B5F
Copy CRC EAF26B5F
Accurately ripped (confidence 5) [606B0F59] (AR v2)
Copy OK

Track 11

Filename F:\EAC Rips\The Hits Album The Electronic Album\CD2\11 - Clannad - Theme From Harry's Game.wav

Pre-gap length 0:00:00.01

Peak level 78.4 %
Extraction speed 4.2 X
Track quality 100.0 %
Test CRC 199C759F
Copy CRC 199C759F
Accurately ripped (confidence 5) [D33B116C] (AR v2)
Copy OK

Track 12

Filename F:\EAC Rips\The Hits Album The Electronic Album\CD2\12 - Black - Wonderful Life.wav

Pre-gap length 0:00:01.01

Peak level 78.5 %
Extraction speed 4.9 X
Track quality 100.0 %
Test CRC 743AC589
Copy CRC 743AC589
Accurately ripped (confidence 5) [A0C1BBC2] (AR v2)
Copy OK

Track 13

Filename F:\EAC Rips\The Hits Album The Electronic Album\CD2\13 - Propaganda - Duel.wav

Pre-gap length 0:00:01.25

Peak level 100.0 %
Extraction speed 4.2 X
Track quality 99.9 %
Test CRC D93ED9F0
Copy CRC D93ED9F0
Accurately ripped (confidence 5) [EF47F194] (AR v2)
Copy OK

Track 14

Filename F:\EAC Rips\The Hits Album The Electronic Album\CD2\14 - Animotion - Obsession.wav

Pre-gap length 0:00:00.48

Peak level 100.0 %
Extraction speed 5.0 X
Track quality 100.0 %
Test CRC 90BAB161
Copy CRC 90BAB161
Accurately ripped (confidence 5) [8FC042E3] (AR v2)
Copy OK

Track 15

Filename F:\EAC Rips\The Hits Album The Electronic Album\CD2\15 - Yello - Vicious Games.wav

Pre-gap length 0:00:00.04

Peak level 100.0 %
Extraction speed 5.1 X
Track quality 100.0 %
Test CRC 8DF8CA71
Copy CRC 8DF8CA71
Accurately ripped (confidence 5) [27452BFC] (AR v2)
Copy OK

Track 16

Filename F:\EAC Rips\The Hits Album The Electronic Album\CD2\16 - Corey Hart - Sunglasses At Night.wav

Pre-gap length 0:00:00.31

Peak level 100.0 %
Extraction speed 5.2 X
Track quality 100.0 %
Test CRC 993038DC
Copy CRC 993038DC
Accurately ripped (confidence 5) [8C075642] (AR v2)
Copy OK

Track 17

Filename F:\EAC Rips\The Hits Album The Electronic Album\CD2\17 - Kim Carnes - Bette Davis Eyes.wav

Pre-gap length 0:00:00.44

Peak level 95.4 %
Extraction speed 5.3 X
Track quality 100.0 %
Test CRC 3CDF10B4
Copy CRC 3CDF10B4
Accurately ripped (confidence 5) [7A838AAE] (AR v2)
Copy OK

Track 18

Filename F:\EAC Rips\The Hits Album The Electronic Album\CD2\18 - Robert Palmer - Johnny And Mary.wav

Pre-gap length 0:00:00.54

Peak level 79.3 %
Extraction speed 5.5 X
Track quality 100.0 %
Test CRC 2378BC1E
Copy CRC 2378BC1E
Accurately ripped (confidence 5) [52A0673F] (AR v2)
Copy OK

Track 19

Filename F:\EAC Rips\The Hits Album The Electronic Album\CD2\19 - Nick Heyward - Warning Sign.wav

Pre-gap length 0:00:00.55

Peak level 100.0 %
Extraction speed 5.4 X
Track quality 100.0 %
Test CRC 9C361C8B
Copy CRC 9C361C8B
Accurately ripped (confidence 5) [17301E80] (AR v2)
Copy OK

Track 20

Filename F:\EAC Rips\The Hits Album The Electronic Album\CD2\20 - H2O - I Dream To Sleep.wav

Pre-gap length 0:00:00.14

Peak level 79.3 %
Extraction speed 5.6 X
Track quality 100.0 %
Test CRC 0D71E66B
Copy CRC 0D71E66B
Accurately ripped (confidence 5) [EA3ABF86] (AR v2)
Copy OK


All tracks accurately ripped

No errors occurred

End of status report

–– CUETools DB Plugin V2.1.6

[CTDB TOCID: osth.UQfmCCsD2nT5AC3mkaEFNQ-] found
Submit result: already submitted
Track | CTDB Status
1 | (17/17) Accurately ripped
2 | (17/17) Accurately ripped
3 | (17/17) Accurately ripped
4 | (17/17) Accurately ripped
5 | (17/17) Accurately ripped
6 | (17/17) Accurately ripped
7 | (17/17) Accurately ripped
8 | (17/17) Accurately ripped
9 | (17/17) Accurately ripped
10 | (17/17) Accurately ripped
11 | (17/17) Accurately ripped
12 | (17/17) Accurately ripped
13 | (17/17) Accurately ripped
14 | (17/17) Accurately ripped
15 | (17/17) Accurately ripped
16 | (17/17) Accurately ripped
17 | (17/17) Accurately ripped
18 | (17/17) Accurately ripped
19 | (17/17) Accurately ripped
20 | (16/17) Accurately ripped


==== Log checksum A78E8DB530AE36F03A16689DEBA93EC648D0574A52249FC59C84DBBFCDB2599B ====


Exact Audio Copy V1.3 from 2. September 2016

EAC extraction logfile from 6. June 2021, 21:13

Various Artists / The Hits Album The Electronic Album

Used drive : TSSTcorpCDDVDW SE-208DB Adapter: 1 ID: 0

Read mode : Secure
Utilize accurate stream : Yes
Defeat audio cache : Yes
Make use of C2 pointers : No

Read offset correction : 6
Overread into Lead-In and Lead-Out : No
Fill up missing offset samples with silence : Yes
Delete leading and trailing silent blocks : No
Null samples used in CRC calculations : Yes
Used interface : Native Win32 interface for Win NT & 2000
Gap handling : Appended to previous track

Used output format : User Defined Encoder
Selected bitrate : 1024 kBit/s
Quality : High
Add ID3 tag : No
Command line compressor : F:\Programs\Exact Audio Copy\Flac\flac.exe
Additional command line options : -8 -V -T "ARTIST=%artist%" -T "TITLE=%title%" -T "ALBUM=%albumtitle%" -T "DATE=%year%" -T "TRACKNUMBER=%tracknr%" -T "GENRE=%genre%" -T "PERFORMER=%albuminterpret%" -T "COMPOSER=%composer%" %haslyrics%–tag-from-file=LYRICS="%lyricsfile%"%haslyrics% -T "ALBUMARTIST=%albumartist%" -T "DISCNUMBER=%cdnumber%" -T "TOTALDISCS=%totalcds%" -T "TOTALTRACKS=%numtracks%" -T "COMMENT=%comment%" %source% -o %dest%


TOC of the extracted CD

Track | Start | Length | Start sector | End sector
––––––––––––––––––––––––––––-
1 | 0:00.00 | 15:51.41 | 0 | 71365
2 | 15:51.41 | 3:54.30 | 71366 | 88945
3 | 19:45.71 | 3:49.42 | 88946 | 106162
4 | 23:35.38 | 4:17.14 | 106163 | 125451
5 | 27:52.52 | 4:11.14 | 125452 | 144290
6 | 32:03.66 | 4:22.73 | 144291 | 164013
7 | 36:26.64 | 2:27.18 | 164014 | 175056
8 | 38:54.07 | 4:09.00 | 175057 | 193731
9 | 43:03.07 | 4:00.41 | 193732 | 211772
10 | 47:03.48 | 3:38.23 | 211773 | 228145
11 | 50:41.71 | 3:55.43 | 228146 | 245813
12 | 54:37.39 | 3:00.55 | 245814 | 259368
13 | 57:38.19 | 3:45.63 | 259369 | 276306
14 | 61:24.07 | 3:40.45 | 276307 | 292851
15 | 65:04.52 | 4:22.63 | 292852 | 312564
16 | 69:27.40 | 4:34.56 | 312565 | 333170
17 | 74:02.21 | 4:16.60 | 333171 | 352430


Track 1

Filename F:\EAC Rips\The Hits Album The Electronic Album\CD3\01 - Donna Summer - I Feel Love (Patrick Cowley Mega Mix).wav

Pre-gap length 0:00:02.00

Peak level 96.9 %
Extraction speed 3.0 X
Track quality 100.0 %
Test CRC BF5E9B55
Copy CRC BF5E9B55
Accurately ripped (confidence 5) [6A841892] (AR v2)
Copy OK

Track 2

Filename F:\EAC Rips\The Hits Album The Electronic Album\CD3\02 - Lipps Inc. - Funkytown.wav

Pre-gap length 0:00:00.06

Peak level 98.1 %
Extraction speed 2.5 X
Track quality 99.9 %
Test CRC 8F7C9442
Copy CRC 8F7C9442
Accurately ripped (confidence 5) [9FD8B256] (AR v2)
Copy OK

Track 3

Filename F:\EAC Rips\The Hits Album The Electronic Album\CD3\03 - Sylvester - You Make Me Feel (Mighty Real).wav

Pre-gap length 0:00:00.14

Peak level 86.4 %
Extraction speed 3.3 X
Track quality 100.0 %
Test CRC 486C41C4
Copy CRC 486C41C4
Accurately ripped (confidence 5) [BA27E8B5] (AR v2)
Copy OK

Track 4

Filename F:\EAC Rips\The Hits Album The Electronic Album\CD3\04 - Michael Sembello - Maniac.wav

Pre-gap length 0:00:00.43

Peak level 66.8 %
Extraction speed 3.5 X
Track quality 100.0 %
Test CRC 8ED1CB5E
Copy CRC 8ED1CB5E
Accurately ripped (confidence 5) [773B443A] (AR v2)
Copy OK

Track 5

Filename F:\EAC Rips\The Hits Album The Electronic Album\CD3\05 - Liza Minnelli - Losing My Mind.wav

Pre-gap length 0:00:00.14

Peak level 88.2 %
Extraction speed 3.6 X
Track quality 100.0 %
Test CRC 1CA3E24A
Copy CRC 1CA3E24A
Accurately ripped (confidence 5) [8C287EAF] (AR v2)
Copy OK

Track 6

Filename F:\EAC Rips\The Hits Album The Electronic Album\CD3\06 - Eighth Wonder - I'm Not Scared.wav

Pre-gap length 0:00:00.35

Peak level 63.1 %
Extraction speed 3.8 X
Track quality 100.0 %
Test CRC 2A0B442C
Copy CRC 2A0B442C
Accurately ripped (confidence 5) [6A0F0BB2] (AR v2)
Copy OK

Track 7

Filename F:\EAC Rips\The Hits Album The Electronic Album\CD3\07 - Jan Hammer - Miami Vice Theme.wav

Pre-gap length 0:00:00.11

Peak level 98.3 %
Extraction speed 3.5 X
Track quality 100.0 %
Test CRC 3710DF31
Copy CRC 3710DF31
Accurately ripped (confidence 5) [B82492BB] (AR v2)
Copy OK

Track 8

Filename F:\EAC Rips\The Hits Album The Electronic Album\CD3\08 - The S.O.S. Band - Just Be Good To Me.wav

Pre-gap length 0:00:00.55

Peak level 78.9 %
Extraction speed 3.2 X
Track quality 99.9 %
Test CRC 723F7572
Copy CRC 723F7572
Accurately ripped (confidence 5) [8122415A] (AR v2)
Copy OK

Track 9

Filename F:\EAC Rips\The Hits Album The Electronic Album\CD3\09 - The Pointer Sisters - Automatic.wav

Pre-gap length 0:00:00.34

Peak level 86.1 %
Extraction speed 4.1 X
Track quality 100.0 %
Test CRC EF3E492C
Copy CRC EF3E492C
Accurately ripped (confidence 5) [77285CAC] (AR v2)
Copy OK

Track 10

Filename F:\EAC Rips\The Hits Album The Electronic Album\CD3\10 - Maria Vidal - Body Rock.wav

Pre-gap length 0:00:00.20

Peak level 78.7 %
Extraction speed 4.2 X
Track quality 100.0 %
Test CRC 1BE27683
Copy CRC 1BE27683
Accurately ripped (confidence 5) [62E22B33] (AR v2)
Copy OK

Track 11

Filename F:\EAC Rips\The Hits Album The Electronic Album\CD3\11 - Rockwell - Somebody's Watching Me.wav

Pre-gap length 0:00:00.16

Peak level 61.4 %
Extraction speed 4.3 X
Track quality 100.0 %
Test CRC FD3D9B0A
Copy CRC FD3D9B0A
Accurately ripped (confidence 5) [387AB72E] (AR v2)
Copy OK

Track 12

Filename F:\EAC Rips\The Hits Album The Electronic Album\CD3\12 - Harold Faltermeyer - Axel F.wav

Pre-gap length 0:00:00.42

Peak level 100.0 %
Extraction speed 4.2 X
Track quality 100.0 %
Test CRC 5FAAE73A
Copy CRC 5FAAE73A
Accurately ripped (confidence 5) [BDAE4ADE] (AR v2)
Copy OK

Track 13

Filename F:\EAC Rips\The Hits Album The Electronic Album\CD3\13 - Rock Steady Crew - (Hey You) The Rock Steady Crew.wav

Pre-gap length 0:00:00.22

Peak level 98.7 %
Extraction speed 4.5 X
Track quality 100.0 %
Test CRC E1CFF3FF
Copy CRC E1CFF3FF
Accurately ripped (confidence 5) [D05D7CC5] (AR v2)
Copy OK

Track 14

Filename F:\EAC Rips\The Hits Album The Electronic Album\CD3\14 - Malcolm McLaren & The World's Famous Supreme Team - Buffalo Gals.wav

Pre-gap length 0:00:00.04

Peak level 67.9 %
Extraction speed 4.5 X
Track quality 100.0 %
Test CRC 5B0A1FFB
Copy CRC 5B0A1FFB
Accurately ripped (confidence 5) [0FEE718F] (AR v2)
Copy OK

Track 15

Filename F:\EAC Rips\The Hits Album The Electronic Album\CD3\15 - Tom Tom Club - Wordy Rappinghood.wav

Pre-gap length 0:00:00.28

Peak level 78.5 %
Extraction speed 4.7 X
Track quality 100.0 %
Test CRC 6EFFDF85
Copy CRC 6EFFDF85
Accurately ripped (confidence 5) [F1A3DEAA] (AR v2)
Copy OK

Track 16

Filename F:\EAC Rips\The Hits Album The Electronic Album\CD3\16 - Art Of Noise - Moments In Love.wav

Pre-gap length 0:00:01.02

Peak level 59.5 %
Extraction speed 4.8 X
Track quality 100.0 %
Test CRC 59B99BF8
Copy CRC 59B99BF8
Accurately ripped (confidence 5) [C2609451] (AR v2)
Copy OK

Track 17

Filename F:\EAC Rips\The Hits Album The Electronic Album\CD3\17 - Enigma - Sadeness Pt. 1.wav

Pre-gap length 0:00:00.30

Peak level 79.4 %
Extraction speed 4.9 X
Track quality 100.0 %
Test CRC 9676492C
Copy CRC 9676492C
Accurately ripped (confidence 5) [09B63CFD] (AR v2)
Copy OK


All tracks accurately ripped

No errors occurred

End of status report

–– CUETools DB Plugin V2.1.6

[CTDB TOCID: eZ7p4S6Y7vW5mShCyV0aq51p2bg-] found
Submit result: already submitted
Track | CTDB Status
1 | (19/19) Accurately ripped
2 | (19/19) Accurately ripped
3 | (19/19) Accurately ripped
4 | (19/19) Accurately ripped
5 | (19/19) Accurately ripped
6 | (19/19) Accurately ripped
7 | (19/19) Accurately ripped
8 | (19/19) Accurately ripped
9 | (19/19) Accurately ripped
10 | (19/19) Accurately ripped
11 | (19/19) Accurately ripped
12 | (19/19) Accurately ripped
13 | (19/19) Accurately ripped
14 | (19/19) Accurately ripped
15 | (19/19) Accurately ripped
16 | (19/19) Accurately ripped
17 | (19/19) Accurately ripped


==== Log checksum 1821B4A2784BD34656AAB74D0656D3AEB26B283B4DB3873C948461BC78278FA5 ====


Exact Audio Copy V1.3 from 2. September 2016

EAC extraction logfile from 6. June 2021, 22:51

Various Artists / The Hits Album The Electronic Album

Used drive : TSSTcorpCDDVDW SE-208DB Adapter: 1 ID: 0

Read mode : Secure
Utilize accurate stream : Yes
Defeat audio cache : Yes
Make use of C2 pointers : No

Read offset correction : 6
Overread into Lead-In and Lead-Out : No
Fill up missing offset samples with silence : Yes
Delete leading and trailing silent blocks : No
Null samples used in CRC calculations : Yes
Used interface : Native Win32 interface for Win NT & 2000
Gap handling : Appended to previous track

Used output format : User Defined Encoder
Selected bitrate : 1024 kBit/s
Quality : High
Add ID3 tag : No
Command line compressor : F:\Programs\Exact Audio Copy\Flac\flac.exe
Additional command line options : -8 -V -T "ARTIST=%artist%" -T "TITLE=%title%" -T "ALBUM=%albumtitle%" -T "DATE=%year%" -T "TRACKNUMBER=%tracknr%" -T "GENRE=%genre%" -T "PERFORMER=%albuminterpret%" -T "COMPOSER=%composer%" %haslyrics%–tag-from-file=LYRICS="%lyricsfile%"%haslyrics% -T "ALBUMARTIST=%albumartist%" -T "DISCNUMBER=%cdnumber%" -T "TOTALDISCS=%totalcds%" -T "TOTALTRACKS=%numtracks%" -T "COMMENT=%comment%" %source% -o %dest%


TOC of the extracted CD

Track | Start | Length | Start sector | End sector
––––––––––––––––––––––––––––-
1 | 0:00.00 | 2:38.60 | 0 | 11909
2 | 2:38.60 | 3:49.58 | 11910 | 29142
3 | 6:28.43 | 3:46.43 | 29143 | 46135
4 | 10:15.11 | 3:33.34 | 46136 | 62144
5 | 13:48.45 | 3:45.01 | 62145 | 79020
6 | 17:33.46 | 4:06.33 | 79021 | 97503
7 | 21:40.04 | 3:58.62 | 97504 | 115415
8 | 25:38.66 | 3:13.26 | 115416 | 129916
9 | 28:52.17 | 3:32.43 | 129917 | 145859
10 | 32:24.60 | 2:42.60 | 145860 | 158069
11 | 35:07.45 | 3:41.23 | 158070 | 174667
12 | 38:48.68 | 3:56.21 | 174668 | 192388
13 | 42:45.14 | 3:46.58 | 192389 | 209396
14 | 46:31.72 | 3:57.54 | 209397 | 227225
15 | 50:29.51 | 3:09.21 | 227226 | 241421
16 | 53:38.72 | 3:35.17 | 241422 | 257563
17 | 57:14.14 | 2:38.27 | 257564 | 269440
18 | 59:52.41 | 3:26.72 | 269441 | 284962
19 | 63:19.38 | 3:13.70 | 284963 | 299507
20 | 66:33.33 | 3:29.21 | 299508 | 315203
21 | 70:02.54 | 3:39.43 | 315204 | 331671
22 | 73:42.22 | 4:45.30 | 331672 | 353076


Track 1

Filename F:\EAC Rips\The Hits Album The Electronic Album\CD4\01 - Soft Cell - Tainted Love.wav

Pre-gap length 0:00:02.00

Peak level 89.1 %
Extraction speed 2.1 X
Track quality 100.0 %
Test CRC FDCE20EE
Copy CRC FDCE20EE
Accurately ripped (confidence 5) [ECF7B4C8] (AR v2)
Copy OK

Track 2

Filename F:\EAC Rips\The Hits Album The Electronic Album\CD4\02 - The Human League - Love Action (I Believe In Love).wav

Pre-gap length 0:00:00.67

Peak level 88.8 %
Extraction speed 2.5 X
Track quality 100.0 %
Test CRC AA053740
Copy CRC AA053740
Accurately ripped (confidence 5) [B69D7DA1] (AR v2)
Copy OK

Track 3

Filename F:\EAC Rips\The Hits Album The Electronic Album\CD4\03 - Visage - Visage.wav

Pre-gap length 0:00:00.27

Peak level 94.8 %
Extraction speed 2.7 X
Track quality 100.0 %
Test CRC 60057E58
Copy CRC 60057E58
Accurately ripped (confidence 5) [740399BB] (AR v2)
Copy OK

Track 4

Filename F:\EAC Rips\The Hits Album The Electronic Album\CD4\04 - Heaven 17 - Come Live With Me.wav

Pre-gap length 0:00:00.36

Peak level 94.4 %
Extraction speed 2.5 X
Track quality 99.9 %
Test CRC 6EBF7F9E
Copy CRC 6EBF7F9E
Accurately ripped (confidence 5) [B62C05F5] (AR v2)
Copy OK

Track 5

Filename F:\EAC Rips\The Hits Album The Electronic Album\CD4\05 - Japan - I Second That Emotion.wav

Pre-gap length 0:00:00.29

Peak level 79.4 %
Extraction speed 3.1 X
Track quality 100.0 %
Test CRC BE51E93C
Copy CRC BE51E93C
Accurately ripped (confidence 5) [575BE7F6] (AR v2)
Copy OK

Track 6

Filename F:\EAC Rips\The Hits Album The Electronic Album\CD4\06 - China Crisis - Wishful Thinking.wav

Pre-gap length 0:00:00.16

Peak level 73.4 %
Extraction speed 3.2 X
Track quality 100.0 %
Test CRC 313D25D9
Copy CRC 313D25D9
Accurately ripped (confidence 5) [89D72652] (AR v2)
Copy OK

Track 7

Filename F:\EAC Rips\The Hits Album The Electronic Album\CD4\07 - The Passions - I'm In Love With A German Film Star.wav

Pre-gap length 0:00:00.54

Peak level 99.8 %
Extraction speed 3.4 X
Track quality 100.0 %
Test CRC 3FC4EEFB
Copy CRC 3FC4EEFB
Accurately ripped (confidence 5) [CE63426A] (AR v2)
Copy OK

Track 8

Filename F:\EAC Rips\The Hits Album The Electronic Album\CD4\08 - Swansway - Soul Train.wav

Pre-gap length 0:00:00.73

Peak level 89.1 %
Extraction speed 3.4 X
Track quality 100.0 %
Test CRC C7CDAF49
Copy CRC C7CDAF49
Accurately ripped (confidence 5) [84F7C810] (AR v2)
Copy OK

Track 9

Filename F:\EAC Rips\The Hits Album The Electronic Album\CD4\09 - ABC - That Was Then But This Is Now.wav

Pre-gap length 0:00:00.05

Peak level 83.8 %
Extraction speed 3.6 X
Track quality 100.0 %
Test CRC 814CCE51
Copy CRC 814CCE51
Accurately ripped (confidence 5) [F0EA8069] (AR v2)
Copy OK

Track 10

Filename F:\EAC Rips\The Hits Album The Electronic Album\CD4\10 - Men Without Hats - Safety Dance.wav

Pre-gap length 0:00:00.38

Peak level 98.8 %
Extraction speed 3.5 X
Track quality 100.0 %
Test CRC 493CD7BD
Copy CRC 493CD7BD
Accurately ripped (confidence 5) [D9014EB7] (AR v2)
Copy OK

Track 11

Filename F:\EAC Rips\The Hits Album The Electronic Album\CD4\11 - Haysi Fantayzee - Shiny Shiny.wav

Pre-gap length 0:00:00.03

Peak level 69.7 %
Extraction speed 3.8 X
Track quality 100.0 %
Test CRC 1D3FFAB0
Copy CRC 1D3FFAB0
Accurately ripped (confidence 5) [6E75F672] (AR v2)
Copy OK

Track 12

Filename F:\EAC Rips\The Hits Album The Electronic Album\CD4\12 - Marilyn - Calling Your Name.wav

Pre-gap length 0:00:00.17

Peak level 88.5 %
Extraction speed 4.0 X
Track quality 100.0 %
Test CRC E710D4FD
Copy CRC E710D4FD
Accurately ripped (confidence 5) [C58EAA97] (AR v2)
Copy OK

Track 13

Filename F:\EAC Rips\The Hits Album The Electronic Album\CD4\13 - Altered Images - Don't Talk To Me About Love.wav

Pre-gap length 0:00:00.23

Peak level 84.1 %
Extraction speed 4.0 X
Track quality 100.0 %
Test CRC 28CA0D1C
Copy CRC 28CA0D1C
Accurately ripped (confidence 5) [6350A001] (AR v2)
Copy OK

Track 14

Filename F:\EAC Rips\The Hits Album The Electronic Album\CD4\14 - Annabel Lamb - Riders On The Storm.wav

Pre-gap length 0:00:00.05

Peak level 100.0 %
Extraction speed 3.7 X
Track quality 99.9 %
Test CRC 4F4EFA25
Copy CRC 4F4EFA25
Accurately ripped (confidence 5) [6D3B5653] (AR v2)
Copy OK

Track 15

Filename F:\EAC Rips\The Hits Album The Electronic Album\CD4\15 - Hazel O'Connor - Eighth Day.wav

Pre-gap length 0:00:00.20

Peak level 78.2 %
Extraction speed 4.2 X
Track quality 100.0 %
Test CRC A8DE854C
Copy CRC A8DE854C
Accurately ripped (confidence 5) [2443BBD0] (AR v2)
Copy OK

Track 16

Filename F:\EAC Rips\The Hits Album The Electronic Album\CD4\16 - Martha And The Muffins - Echo Beach.wav

Peak level 78.5 %
Extraction speed 4.3 X
Track quality 100.0 %
Test CRC 061A281B
Copy CRC 061A281B
Accurately ripped (confidence 5) [C9285B1F] (AR v2)
Copy OK

Track 17

Filename F:\EAC Rips\The Hits Album The Electronic Album\CD4\17 - Devo - Whip It.wav

Pre-gap length 0:00:00.34

Peak level 100.0 %
Extraction speed 3.5 X
Track quality 99.9 %
Test CRC 3A81EC94
Copy CRC 3A81EC94
Accurately ripped (confidence 5) [8B0F39EE] (AR v2)
Copy OK

Track 18

Filename F:\EAC Rips\The Hits Album The Electronic Album\CD4\18 - Our Daughter's Wedding - Lawn Chairs.wav

Pre-gap length 0:00:00.13

Peak level 100.0 %
Extraction speed 4.4 X
Track quality 100.0 %
Test CRC C97AF6E0
Copy CRC C97AF6E0
Accurately ripped (confidence 5) [BC75AA4B] (AR v2)
Copy OK

Track 19

Filename F:\EAC Rips\The Hits Album The Electronic Album\CD4\19 - The Fixx - One Thing Leads To Another.wav

Pre-gap length 0:00:01.11

Peak level 79.4 %
Extraction speed 4.5 X
Track quality 100.0 %
Test CRC 0CB85634
Copy CRC 0CB85634
Accurately ripped (confidence 5) [622A8A76] (AR v2)
Copy OK

Track 20

Filename F:\EAC Rips\The Hits Album The Electronic Album\CD4\20 - Fiction Factory - (Feels Like) Heaven.wav

Pre-gap length 0:00:00.08

Peak level 70.1 %
Extraction speed 4.6 X
Track quality 100.0 %
Test CRC C7671C85
Copy CRC C7671C85
Accurately ripped (confidence 5) [9F1D00E2] (AR v2)
Copy OK

Track 21

Filename F:\EAC Rips\The Hits Album The Electronic Album\CD4\21 - The Lotus Eaters - The First Picture Of You.wav

Pre-gap length 0:00:00.62

Peak level 84.1 %
Extraction speed 4.7 X
Track quality 100.0 %
Test CRC CE89E413
Copy CRC CE89E413
Accurately ripped (confidence 4) [63D43D15] (AR v2)
Copy OK

Track 22

Filename F:\EAC Rips\The Hits Album The Electronic Album\CD4\22 - Thompson Twins - Hold Me Now.wav

Pre-gap length 0:00:01.23

Peak level 100.0 %
Extraction speed 3.9 X
Track quality 99.9 %
Test CRC D6A23C06
Copy CRC D6A23C06
Accurately ripped (confidence 5) [605B60D5] (AR v2)
Copy OK


All tracks accurately ripped

No errors occurred

End of status report

–– CUETools DB Plugin V2.1.6

[CTDB TOCID: quQmvjjGSATfBu56KEZkijo.QG4-] found
Submit result: quQmvjjGSATfBu56KEZkijo.QG4- has been confirmed
Track | CTDB Status
1 | (16/16) Accurately ripped
2 | (16/16) Accurately ripped
3 | (16/16) Accurately ripped
4 | (16/16) Accurately ripped
5 | (16/16) Accurately ripped
6 | (16/16) Accurately ripped
7 | (16/16) Accurately ripped
8 | (16/16) Accurately ripped
9 | (16/16) Accurately ripped
10 | (16/16) Accurately ripped
11 | (16/16) Accurately ripped
12 | (16/16) Accurately ripped
13 | (16/16) Accurately ripped
14 | (16/16) Accurately ripped
15 | (16/16) Accurately ripped
16 | (16/16) Accurately ripped
17 | (16/16) Accurately ripped
18 | (16/16) Accurately ripped
19 | (16/16) Accurately ripped
20 | (16/16) Accurately ripped
21 | (15/16) Accurately ripped
22 | (16/16) Accurately ripped


==== Log checksum CBAFEA0C5A5B7CFC0D96C0C9C94F6284C8E945B321F5863BC4DB211BDB853771 ====