Subcategories
Tags
Language
Tags

The Incredible String Band - Be Glad For The Song Has No Ending (1970) {1998, Reissue}

Posted By: popsakov
The Incredible String Band - Be Glad For The Song Has No Ending (1970) {1998, Reissue}

The Incredible String Band - Be Glad For The Song Has No Ending (1970) {1998, Reissue}
EAC Rip | FLAC (Img) + Cue + Log ~ 330 Mb | MP3 CBR320 ~ 136 Mb
Scans Included | RAR 5% Recovery
Folk Rock, Psychedelic Rock | Island Records / Edsel Records #EDCD 564

Be Glad for the Song Has No Ending is the eighth album by the Scottish psychedelic folk group, the Incredible String Band, featuring Mike Heron, Robin Williamson, Licorice McKechnie and Rose Simpson. It is the soundtrack for a film of the same name, and was released on Island Records in March 1971, failing to chart in either the UK or US. It would be the first album from the band on the Island label, and the last to feature Joe Boyd as the producer.

Recording of the album and soundtrack came during a transitional period for the band. Tracks were completed during Wee Tam and the Big Huge and I Looked Up sessions. As a result, the girlfriends Licorice McKechnie and Rose Simpson are more involved in some tracks in comparison to others. Even the compositions themselves reflect differentiation from the dream-like folk pieces to the less experimental contemporary ones that are more similar to Liquid Acrobat as Regards the Air. The whole B-side of the album is instrumentals that were the soundtrack of the documentary. They appear in the film to set mood to significant scenes. Three additional tracks were added from the Wee Tam sessions that did not make it to the album to have a completed LP.

The documentary film was released in July 1970 and was based on the members of The Incredible String Band. The film is broken down into two parts. Part one featured stage performances and interviews of the band with the intent of learning about the group's thought process and way of living. Part two involves the group with friends dressing up to create a short, 20-minute drama play called The Pirate and The Crystal Ball.

***************

The Incredible String Band - Be Glad For The Song Has No Ending (1970) {1998, Reissue}

Track List:

01. Come With Me [3:54]
02. All Writ Down [4:26]
03. Veshengro [5:05]
04. See All The People [3:41]
05. Waiting For You [6:49]
06. The Song Has No Ending [26:41]

Exact Audio Copy V0.99 prebeta 4 from 23. January 2008

Отчёт EAC об извлечении, выполненном 13. августа 2011, 0:50

The Incredible String Band / Be Glad For The Song Has No Ending

Дисковод: Optiarc DVD RW AD-7200A Adapter: 0 ID: 0

Режим чтения : Достоверность
Использование точного потока : Да
Отключение кэша аудио : Да
Использование указателей C2 : Нет

Коррекция смещения при чтении : 48
Способность читать области Lead-in и Lead-out : Нет
Заполнение пропущенных сэмплов тишиной : Да
Удаление блоков с тишиной в начале и конце : Нет
При вычислениях CRC использовались нулевые сэмплы : Да
Интерфейс : Встроенный Win32-интерфейс для Win NT/2000

Выходной формат : Пользовательский кодировщик
Выбранный битрейт : 768 kBit/s
Качество : Высокий
Добавление ID3-тэга : Нет
Утилита сжатия : C:\Program Files\Exact Audio Copy\FLAC\FLAC.EXE
Дополнительные параметры : -6 -V -T "ARTIST=%a" -T "TITLE=%t" -T "ALBUM=%g" -T "DATE=%y" -T "TRACKNUMBER=%n" -T "GENRE=%m" -T "COMMENT=%e" %s -o %d


TOC извлечённого CD

Трек | Старт | Длительность | Начальный сектор | Конечный сектор
––––––––––––––––––––––––––––––––––-
1 | 0:00.00 | 3:54.22 | 0 | 17571
2 | 3:54.22 | 4:26.15 | 17572 | 37536
3 | 8:20.37 | 5:05.35 | 37537 | 60446
4 | 13:25.72 | 3:40.45 | 60447 | 76991
5 | 17:06.42 | 6:48.53 | 76992 | 107644
6 | 23:55.20 | 26:41.15 | 107645 | 227734


Характеристики диапазона извлечения и сообщения об ошибках

Выбранный диапазон

Имя файла D:\********\images\Incredible String Band - Be Glad For The Song Has No Ending\The Incredible String Band - Be Glad For The Song Has No Ending.wav

Пиковый уровень 97.8 %
Качество диапазона 100.0 %
CRC копии 66A34C4F
Копирование… OK

Ошибок не произошло


AccurateRip: сводка

Трек 1 нет в базе данных
Трек 2 точное извлечение (доверие 2) [C785AEF2]
Трек 3 точное извлечение (доверие 2) [0F38C0FC]
Трек 4 точное извлечение (доверие 2) [0C8060BB]
Трек 5 точное извлечение (доверие 2) [005B04AD]
Трек 6 точное извлечение (доверие 2) [75BF9D1D]

5 трек(и) скопированы точно
1 трек(и) не содержатся в базе AccurateRip

Некоторые треки не прошли проверку на точность

Конец отчёта

[CUETools log; Date: 31.01.2019 0:56:51; Version: 2.1.6]
[CTDB TOCID: oK2K16DDSA_Gr9WiqTY_0F6ukOM-] found.
Track | CTDB Status
1 | (8/8) Accurately ripped
2 | (8/8) Accurately ripped
3 | (8/8) Accurately ripped
4 | (8/8) Accurately ripped
5 | (8/8) Accurately ripped
6 | (7/8) Accurately ripped
[AccurateRip ID: 00080e38-002dff77-3d0bdc06] found.
Track [ CRC | V2 ] Status
01 [06e0bb62|695a3730] (2+6/8) Accurately ripped
02 [c785aef2|90bae138] (3+6/9) Accurately ripped
03 [0f38c0fc|42bf7f6d] (3+6/9) Accurately ripped
04 [0c8060bb|9cb631b0] (3+6/9) Accurately ripped
05 [005b04ad|7b02b1bb] (3+6/9) Accurately ripped
06 [75bf9d1d|5857b64d] (3+5/8) Accurately ripped

Track Peak [ CRC32 ] [W/O NULL] [ LOG ]
– 97,8 [66A34C4F] [964C8185] CRC32
01 97,7 [679E0FDA] [E03A0C50]
02 97,8 [50CBD5BE] [A6213C09]
03 86,5 [AA860E8D] [96F43F4B]
04 97,7 [84EB2D69] [48B78C4A]
05 97,8 [A90A18F7] [22419F7C]
06 97,8 [ED590F20] [8AABE249]

The Incredible String Band - Be Glad For The Song Has No Ending (1970) {1998, Reissue}

All thanks go to havefun6699

>>> My Blog <<<

Download from icerbox.com: