The Jag - Mississippi Acid Pine Highway Tour (2012)

Posted By: v3122
The Jag - Mississippi Acid Pine Highway Tour (2012)

The Jag - Mississippi Acid Pine Highway Tour (2012)
EAC | Flac(Image) + Cue + Log & MP3 CBR 320Kbps
The Jag Records, MW 10837 | ~ 167 or 58 Mb | Scans Included
Southem Rock / Acid Rock

The JAG consists of Aaron Tyler King, Joe Regan and Gant O Brien. The band is originally based out of Jackson, Mississippi, and presently dwelling in Nashville, Tennessee. It s drummer is Scott Harper, a California native, also living in Nashville. King, Regan and O Brien met in the summer of 2002 in their hometown of Jackson, Mississippi, and formed a southern influenced, indie-rock band shortly thereafter. The original band name, along with its line-up, took many different forms as members came and went, as well as countless songs. After several years of this, the three core members grew tired of routine changes and decided to relocate and start from scratch, with a sudden and very personal crossover to soulful, psychedelic, southern rock n roll, with a heavy retro influence.
In the heat of summer, 2011, they picked up their dirty, southern roots and traveled seven hours north to Nashville, Tennessee, to become contributing members of the town s thriving rock n roll community. They were accompanied by Brannon Barnett, who would leave his stamp on the new band, being featured in a few recordings on guitar. Scott Harper (drums) was recruited as well, a few months after the move. Within a few more months the band had written several songs, six of which were recorded live at The Bomb Shelter studio in East Nashville.

The JAG s debut album, Mississippi Acid Pine Highway Tour , was released in September, 2012. The album boldly showcases the bands ability to infuse soulful, southern vocal styles and melodies, with ballsy, sometimes psychedelic guitar sounds. When listened to loudly, the album effortlessly embodies the band s live sound, with a raw edge followed by a tight feel.

~ Jason Myner

Review
2012 meets 1973 s dirty south soul movement in The JAG. Their supercharged album Mississippi Acid Pine Highway Tour may be only six songs long, but don t be fooled into thinking it won t absolutely blow you away. Featuring plenty of Townshend-esque power strumming and scorching slide guitar, The JAG sound like a 70s AM radio dream come true. Opener Talk At Me will knock you out of your chair and the rest of the tracks won t let you recover. Why Do We Stick Around has a sick groove that just won t quit, and what self-respecting southern rock band wouldn t have the blazing church organ featured in I Don t Need It ?
Sounding like J Roddy Walston on speed with some Mississippi mud thrown in for good measure, this album rocks harder than you can believe. It sounds like it was recorded live, so what do you think that says about their ACTUAL live show?

~ Kelsey Butterworth

~ amazon
The Jag - Mississippi Acid Pine Highway Tour (2012):

The Jag - Mississippi Acid Pine Highway Tour (2012)

Tracklist:

01. Talk At Me 03:54
02. White Horse 04:35
03. My Colored Girl 04:01
04. Why Do We Stick Around 03:09
05. The Night Was Young 04:49
06. I Don't Need It 03:34

Musicians:

Aaron Tyler King - Vocals
Gant O'Brien - Bass, Vocals
Joe Regan - Guitar
Scott Harper - Drums


Exact Audio Copy V1.1 from 23. June 2015

EAC extraction logfile from 17. May 2016, 18:33

Jag / Mississippi Acid Pine Highway Tour

Used drive : TSSTcorpCDDVDW SH-224DB Adapter: 1 ID: 0

Read mode : Secure
Utilize accurate stream : Yes
Defeat audio cache : Yes
Make use of C2 pointers : No

Read offset correction : 6
Overread into Lead-In and Lead-Out : No
Fill up missing offset samples with silence : Yes
Delete leading and trailing silent blocks : No
Null samples used in CRC calculations : Yes
Used interface : Native Win32 interface for Win NT & 2000

Used output format : User Defined Encoder
Selected bitrate : 1024 kBit/s
Quality : High
Add ID3 tag : No
Command line compressor : C:\Program Files (x86)\Exact Audio Copy\win64\flac.exe
Additional command line options : -V -8 -T "Date=%year%" -T "Genre=%genre%" %source%


TOC of the extracted CD

Track | Start | Length | Start sector | End sector
––––––––––––––––––––––––––––-
1 | 0:00.00 | 3:53.50 | 0 | 17524
2 | 3:53.50 | 4:35.07 | 17525 | 38156
3 | 8:28.57 | 4:00.46 | 38157 | 56202
4 | 12:29.28 | 3:09.10 | 56203 | 70387
5 | 15:38.38 | 4:49.08 | 70388 | 92070
6 | 20:27.46 | 3:33.72 | 92071 | 108117


Range status and errors

Selected range

Filename C:\Sket4er\Jag - Mississippi Acid Pine Highway Tour (2012)\Jag - Mississippi Acid Pine Highway Tour.wav

Peak level 97.1 %
Extraction speed 2.5 X
Range quality 100.0 %
Test CRC 3336B288
Copy CRC 3336B288
Copy OK

No errors occurred


AccurateRip summary

Track 1 not present in database
Track 2 not present in database
Track 3 not present in database
Track 4 not present in database
Track 5 not present in database
Track 6 not present in database

None of the tracks are present in the AccurateRip database

End of status report

–– CUETools DB Plugin V2.1.6

[CTDB TOCID: gzlvSE52_.Sq2FFqBtsMD_nBJ3Q-] disk not present in database
Submit result: gzlvSE52_.Sq2FFqBtsMD_nBJ3Q- has been uploaded


==== Log checksum 094640898819462353BC8595F4CA3625CA61B6DDADAD7873BF40AC0B67B997B5 ====

foobar2000 1.3.9 / Замер динамического диапазона (DR) 1.1.1
Дата отчёта: 2016-05-17 21:00:13

––––––––––––––––––––––––––––––––––––––––
Анализ: Jag / Mississippi Acid Pine Highway Tour
––––––––––––––––––––––––––––––––––––––––

DR Пики RMS Продолжительность трека
––––––––––––––––––––––––––––––––––––––––
DR8 -0.33 дБ -8.97 дБ 3:54 1-Talk At Me
DR8 -0.33 дБ -9.55 дБ 4:35 2-White Horse
DR6 -0.25 дБ -7.19 дБ 4:01 3-My Colored Girl
DR6 -0.25 дБ -7.86 дБ 3:09 4-Why Do We Stick Around
DR7 -0.25 дБ -8.43 дБ 4:49 5-The Night Was Young
DR6 -0.25 дБ -8.51 дБ 3:34 6-I Don't Need It
––––––––––––––––––––––––––––––––––––––––

Количество треков: 6
Реальные значения DR: DR7

Частота: 44100 Гц
Каналов: 2
Разрядность: 16
Битрейт: 935 кбит/с
Кодек: FLAC

[CUETools log; Date: 17.05.2016 21:05:50; Version: 2.1.4]
[CTDB TOCID: gzlvSE52_.Sq2FFqBtsMD_nBJ3Q-] found.
Track | CTDB Status
1 | (1/1) Accurately ripped
2 | (1/1) Accurately ripped
3 | (1/1) Accurately ripped
4 | (1/1) Accurately ripped
5 | (1/1) Accurately ripped
6 | (1/1) Accurately ripped
[AccurateRip ID: 0005d5fe-001f0f46-3a05a106] disk not present in database.

Track Peak [ CRC32 ] [W/O NULL] [ LOG ]
– 97,1 [3336B288] [12F685C3] CRC32
01 96,3 [399AB573] [3D91D1DD]
02 96,2 [E8B8DBF0] [1FFEA5A7]
03 97,1 [1D227B50] [88B9050B]
04 97,1 [AE118A90] [8BE22B1D]
05 97,1 [4566FD6E] [E208F567]
06 97,1 [C6EC8D4B] [2322EF68]

The Jag - Mississippi Acid Pine Highway Tour (2012)

All thanks go to Sket4er

Download The Jag - Mississippi Acid Pine Highway Tour (2012):