Tags
Language
Tags

The Jim Carroll Band - A World Without Gravity: The Best Of (1993)

Posted By: Rtax
The Jim Carroll Band - A World Without Gravity: The Best Of (1993)

The Jim Carroll Band - A World Without Gravity: The Best Of (1993)
EAC Rip | FLAC (tracks, cue, log, scans) - 505 MB
1:09:56 | Alternative Rock, New Wave, Indie Rock | Label: Rhino

Carroll was a New York poet living in California when punk exploded in the late 1970s. He rightly sensed that punk was as much a lyrical stance as a musical one. Inspired by contemporaries like Patti Smith and Richard Hell, Carroll found himself a band and started spewing his literate and often fatalistic verse over a solid 4/4 beat. His surprise 1980 hit "People Who Died" sounded both shocking and exciting as it roared out of bored radios all across America. The rest of this guitar-heavy set–including the classic "Wicked Gravity" and the previously unreleased "Differing Touch"–paints similarly edgy portraits of lurkers and fringe dwellers. The rote rock backing occasionally gets a little tepid, but Carroll's bitter-junkie tongue burns throughout. –Michael Ruby

Tracklist
1 People Who Died 5:01
2 Work Not Play 4:28
3 Differing Touch 2:30
4 It's Too Late 3:05
5 Wicked Gravity 4:58
6 I Want The Angel 2:51
7 Them 2:41
8 City Drops Into The Night (Live Version) 7:02
9 Dry Dreams 3:08
10 Jealous Twin 4:02
11 Plain Division 4:31
12 Voices 2:57
13 Lorraine 6:06
14 (No More) Luxuries 4:03
15 I Write Your Name 3:33
16 Love Crimes 3:23
17 Catholic Boy 3:06
18 Day And Night 2:22
Exact Audio Copy V1.0 beta 3 from 29. August 2011

EAC extraction logfile from 10. April 2014, 21:08

The Jim Carroll Band / A World Without Gravity- The Best Of The Jim Carroll Band

Used drive : TSSTcorpCDDVDW SH-224DB Adapter: 1 ID: 0

Read mode : Secure
Utilize accurate stream : Yes
Defeat audio cache : Yes
Make use of C2 pointers : No

Read offset correction : 6
Overread into Lead-In and Lead-Out : No
Fill up missing offset samples with silence : Yes
Delete leading and trailing silent blocks : No
Null samples used in CRC calculations : Yes
Used interface : Native Win32 interface for Win NT & 2000
Gap handling : Appended to previous track

Used output format : User Defined Encoder
Selected bitrate : 896 kBit/s
Quality : High
Add ID3 tag : No
Command line compressor : C:\Program Files (x86)\Exact Audio Copy\Flac\flac.exe
Additional command line options : -8 -V -T "ARTIST=%artist%" -T "TITLE=%title%" -T "ALBUM=%albumtitle%" -T "DATE=%year%" -T "TRACKNUMBER=%tracknr%" -T "TOTALTRACKS=%numtracks%" -T "GENRE=%genre%" -T "ALBUMARTIST=%albumartist%" -T "ALBUM ARTIST=%albumartist%" -T "COMMENT=EAC Secure Mode, Test & Copy, AccurateRip, FLAC -8" %source%


TOC of the extracted CD

Track | Start | Length | Start sector | End sector
––––––––––––––––––––––––––––-
1 | 0:00.32 | 5:01.28 | 32 | 22634
2 | 5:01.60 | 4:28.35 | 22635 | 42769
3 | 9:30.20 | 2:30.07 | 42770 | 54026
4 | 12:00.27 | 3:05.28 | 54027 | 67929
5 | 15:05.55 | 4:58.22 | 67930 | 90301
6 | 20:04.02 | 2:51.15 | 90302 | 103141
7 | 22:55.17 | 2:41.63 | 103142 | 115279
8 | 25:37.05 | 7:02.37 | 115280 | 146966
9 | 32:39.42 | 3:08.55 | 146967 | 161121
10 | 35:48.22 | 4:02.58 | 161122 | 179329
11 | 39:51.05 | 4:31.15 | 179330 | 199669
12 | 44:22.20 | 2:57.57 | 199670 | 213001
13 | 47:20.02 | 6:06.58 | 213002 | 240509
14 | 53:26.60 | 4:03.22 | 240510 | 258756
15 | 57:30.07 | 3:33.33 | 258757 | 274764
16 | 61:03.40 | 3:23.35 | 274765 | 290024
17 | 64:27.00 | 3:06.60 | 290025 | 304034
18 | 67:33.60 | 2:22.67 | 304035 | 314751


Track 1

Filename C:\Users\Public\Music\The Jim Carroll Band - A World Without Gavity (1993) [FLAC]\01 - People Who Died.wav

Pre-gap length 0:00:02.32

Peak level 100.0 %
Extraction speed 2.1 X
Track quality 100.0 %
Test CRC B4CBBFD5
Copy CRC B4CBBFD5
Accurately ripped (confidence 6) [C5A65A34] (AR v2)
Copy OK

Track 2

Filename C:\Users\Public\Music\The Jim Carroll Band - A World Without Gavity (1993) [FLAC]\02 - Work Not Play.wav

Pre-gap length 0:00:01.25

Peak level 100.0 %
Extraction speed 2.1 X
Track quality 100.0 %
Test CRC 24054A21
Copy CRC 24054A21
Accurately ripped (confidence 6) [EA7BDF5E] (AR v2)
Copy OK

Track 3

Filename C:\Users\Public\Music\The Jim Carroll Band - A World Without Gavity (1993) [FLAC]\03 - Differing Touch.wav

Pre-gap length 0:00:01.15

Peak level 96.7 %
Extraction speed 1.9 X
Track quality 100.0 %
Test CRC 971FB2FF
Copy CRC 971FB2FF
Accurately ripped (confidence 5) [10513D8A] (AR v2)
Copy OK

Track 4

Filename C:\Users\Public\Music\The Jim Carroll Band - A World Without Gavity (1993) [FLAC]\04 - It's Too Late.wav

Pre-gap length 0:00:01.00

Peak level 100.0 %
Extraction speed 2.0 X
Track quality 100.0 %
Test CRC 74A0608E
Copy CRC 74A0608E
Accurately ripped (confidence 4) [964F6BA7] (AR v2)
Copy OK

Track 5

Filename C:\Users\Public\Music\The Jim Carroll Band - A World Without Gavity (1993) [FLAC]\05 - Wicked Gravity.wav

Pre-gap length 0:00:01.30

Peak level 100.0 %
Extraction speed 2.1 X
Track quality 100.0 %
Test CRC 30B77C23
Copy CRC 30B77C23
Accurately ripped (confidence 5) [1ABB3890] (AR v2)
Copy OK

Track 6

Filename C:\Users\Public\Music\The Jim Carroll Band - A World Without Gavity (1993) [FLAC]\06 - I Want The Angel.wav

Pre-gap length 0:00:01.47

Peak level 100.0 %
Extraction speed 2.0 X
Track quality 100.0 %
Test CRC CDC82AA8
Copy CRC CDC82AA8
Accurately ripped (confidence 5) [0E21938A] (AR v2)
Copy OK

Track 7

Filename C:\Users\Public\Music\The Jim Carroll Band - A World Without Gavity (1993) [FLAC]\07 - Them.wav

Pre-gap length 0:00:01.05

Peak level 100.0 %
Extraction speed 1.9 X
Track quality 100.0 %
Test CRC AD52D5BF
Copy CRC AD52D5BF
Accurately ripped (confidence 6) [C7A83BCB] (AR v2)
Copy OK

Track 8

Filename C:\Users\Public\Music\The Jim Carroll Band - A World Without Gavity (1993) [FLAC]\08 - City Drops Into The Night [Live Version].wav

Pre-gap length 0:00:01.43

Peak level 100.0 %
Extraction speed 2.2 X
Track quality 100.0 %
Test CRC CE45FA72
Copy CRC CE45FA72
Accurately ripped (confidence 6) [4BA09A0B] (AR v2)
Copy OK

Track 9

Filename C:\Users\Public\Music\The Jim Carroll Band - A World Without Gavity (1993) [FLAC]\09 - Dry Dreams.wav

Pre-gap length 0:00:01.35

Peak level 100.0 %
Extraction speed 1.9 X
Track quality 100.0 %
Test CRC A07A6B3D
Copy CRC A07A6B3D
Accurately ripped (confidence 5) [55712A36] (AR v2)
Copy OK

Track 10

Filename C:\Users\Public\Music\The Jim Carroll Band - A World Without Gavity (1993) [FLAC]\10 - Jealous Twin.wav

Pre-gap length 0:00:01.50

Peak level 100.0 %
Extraction speed 2.1 X
Track quality 100.0 %
Test CRC 196183BE
Copy CRC 196183BE
Accurately ripped (confidence 6) [A2DFE490] (AR v2)
Copy OK

Track 11

Filename C:\Users\Public\Music\The Jim Carroll Band - A World Without Gavity (1993) [FLAC]\11 - Plain Division.wav

Pre-gap length 0:00:01.48

Peak level 100.0 %
Extraction speed 2.1 X
Track quality 100.0 %
Test CRC A033AE9F
Copy CRC A033AE9F
Accurately ripped (confidence 6) [87301507] (AR v2)
Copy OK

Track 12

Filename C:\Users\Public\Music\The Jim Carroll Band - A World Without Gavity (1993) [FLAC]\12 - Voices.wav

Pre-gap length 0:00:01.23

Peak level 100.0 %
Extraction speed 2.0 X
Track quality 100.0 %
Test CRC 04132FAF
Copy CRC 04132FAF
Accurately ripped (confidence 4) [416DBB03] (AR v2)
Copy OK

Track 13

Filename C:\Users\Public\Music\The Jim Carroll Band - A World Without Gavity (1993) [FLAC]\13 - Lorraine.wav

Pre-gap length 0:00:01.25

Peak level 100.0 %
Extraction speed 2.2 X
Track quality 100.0 %
Test CRC 2BCBAA20
Copy CRC 2BCBAA20
Accurately ripped (confidence 6) [091519B9] (AR v2)
Copy OK

Track 14

Filename C:\Users\Public\Music\The Jim Carroll Band - A World Without Gavity (1993) [FLAC]\14 - (No More) Luxuries.wav

Pre-gap length 0:00:00.70

Peak level 100.0 %
Extraction speed 2.0 X
Track quality 100.0 %
Test CRC 24F0AD99
Copy CRC 24F0AD99
Accurately ripped (confidence 4) [51041CCB] (AR v2)
Copy OK

Track 15

Filename C:\Users\Public\Music\The Jim Carroll Band - A World Without Gavity (1993) [FLAC]\15 - I Write Your Name.wav

Pre-gap length 0:00:01.25

Peak level 100.0 %
Extraction speed 1.8 X
Track quality 99.9 %
Test CRC F6AC1E21
Copy CRC F6AC1E21
Accurately ripped (confidence 4) [1203FAC0] (AR v2)
Copy OK

Track 16

Filename C:\Users\Public\Music\The Jim Carroll Band - A World Without Gavity (1993) [FLAC]\16 - Love Crimes.wav

Pre-gap length 0:00:00.73

Peak level 100.0 %
Extraction speed 2.0 X
Track quality 100.0 %
Test CRC DC8AC6FB
Copy CRC DC8AC6FB
Accurately ripped (confidence 4) [A692638D] (AR v2)
Copy OK

Track 17

Filename C:\Users\Public\Music\The Jim Carroll Band - A World Without Gavity (1993) [FLAC]\17 - Catholic Boy.wav

Pre-gap length 0:00:01.45

Peak level 100.0 %
Extraction speed 2.1 X
Track quality 100.0 %
Test CRC 002B2097
Copy CRC 002B2097
Accurately ripped (confidence 4) [D468B7C4] (AR v2)
Copy OK

Track 18

Filename C:\Users\Public\Music\The Jim Carroll Band - A World Without Gavity (1993) [FLAC]\18 - Day And Night.wav

Pre-gap length 0:00:01.18

Peak level 100.0 %
Extraction speed 1.9 X
Track quality 100.0 %
Test CRC 2C24816A
Copy CRC 2C24816A
Accurately ripped (confidence 4) [C785E0B3] (AR v2)
Copy OK


All tracks accurately ripped

No errors occurred

End of status report

==== Log checksum 7E88F2AD408B42B0924945FFD89CAB0113B60DBBB0B7E5C64AB094C97AD33FC4 ====