Tags
Language
Tags

The KLF - The White Room (1991)

Posted By: popsakov
The KLF - The White Room (1991)

The KLF - The White Room (1991)
EAC Rip | FLAC (Img) + Cue + Log ~ 267 Mb | MP3 CBR320 ~ 96 Mb
Full Scans ~ 109 Mb | 00:39:39 | RAR 5% Recovery
Electronic, Acid House, Techno, Breakbeat | Arista #ARCD-8657 | US

The White Room is the fourth and final studio album by British electronic music group The KLF, released in March 1991. Originally scheduled for 1989 as the soundtrack to a film of the same name, the album's direction was changed after both the film and the original soundtrack LP were cancelled. Most tracks on the original album version are present in the final release, though in significantly remixed form. In 1993, NME staff and contributors voted the album the 81st best of all time, and in 2000, Q magazine listed it as the 89th best British album of all time. Scotland on Sunday listed The White Room in their "Essential 100", and readers of Scotland's Is this music? magazine voted the album the 44th best "Scottish" LP of all time. The White Room is included in the book 1001 Albums You Must Hear Before You Die.

The US version of 'The White Room' was strongly edited for its official commercial release. It has a total playing time of 39:39, and it contains 9 tracks. The original UK version presents the first five tracks ('What Time Is Love?' through 'Last Train To Trancentral') as a kind of 'mini-concert' with sampled crowd noise from, among other places, U2's 'Rattle And Hum'. All five tracks are segued and mixed. It has a total playing time printed of 45:05, but in reality it's only 43:54. It lists 9 songs, but only has 8 indexed. The US version eliminates the crowd noise, with some tracks fading out near the end. This is probably as the crowd noise was sampled from a Doors album and hence the obvious copyright problems. The US edition also has the single mix of 'Last Train To Trancentral' instead of the mellower UK album version, edits 'No More Tears' down from 9:24 to 6:42, and adds a little more wind noise at the end of the closing 'Justified And Ancient'. The Japanese version follows the US format, with the single version of 'Last Train To Trancentral' replaced by the 12" version of that mix. In addition, it includes three extra tracks.

After the incredible success of their "Doctorin' the Tardis" single in 1988 (better known as that theme from Dr. Who), Drummond and Cauty had plenty of money to hire talented musicians (instead of merely sampling them, as on their early recordings). The White Room is the result, an album bursting with hit singles that nevertheless flows as well as any concept album. Often overlooked as a classic from the acid house era (mostly because of the KLF's retirement one year later), The White Room represents the commercial and artistic peak of late-'80s acid-house.

~ John Bush, All Music

***************

The KLF - The White Room (1991)

The KLF - The White Room (1991)

Track List:

01. What Time is Love? (LP Mix) [5:17]
02. Make It Rain [3:37]
03. 3 A.M. Eternal (Live at The S.S.L.) [3:36]
04. Church Of The KLF [1:53]
05. Last Train To Trancentral [3:41]
06. Build A Fire [4:35]
07. The White Room [5:15]
08. No More Tears [6:42]
09. Justified And Ancient [5:03]

Exact Audio Copy V1.1 from 23. June 2015

EAC extraction logfile from 17. April 2020, 21:08

The KLF / The White Room

Used drive : MATSHITADVD+-RW SW830 Adapter: 1 ID: 0

Read mode : Secure
Utilize accurate stream : Yes
Defeat audio cache : Yes
Make use of C2 pointers : No

Read offset correction : 6
Overread into Lead-In and Lead-Out : No
Fill up missing offset samples with silence : Yes
Delete leading and trailing silent blocks : No
Null samples used in CRC calculations : Yes
Used interface : Native Win32 interface for Win NT & 2000

Used output format : User Defined Encoder
Selected bitrate : 768 kBit/s
Quality : High
Add ID3 tag : No
Command line compressor : C:\Program Files (x86)\Exact Audio Copy\FLAC\FLAC.EXE
Additional command line options : -6 -V -T "ARTIST=%artist%" -T "TITLE=%title%" -T "ALBUM=%albumtitle%" -T "DATE=%year%" -T "TRACKNUMBER=%tracknr%" -T "GENRE=%genre%" -T "COMMENT=%comment%" -T "BAND=%albuminterpret%" -T "ALBUMARTIST=%albuminterpret%" -T "COMPOSER=%composer%" %haslyrics%–tag-from-file=LYRICS="%lyricsfile%"%haslyrics% -T "DISCNUMBER=%cdnumber%" -T "TOTALDISCS=%totalcds%" -T "TOTALTRACKS=%numtracks%" %hascover%–picture="%coverfile%"%hascover% %source% -o %dest%


TOC of the extracted CD

Track | Start | Length | Start sector | End sector
––––––––––––––––––––––––––––-
1 | 0:00.00 | 5:16.70 | 0 | 23769
2 | 5:16.70 | 3:36.47 | 23770 | 40016
3 | 8:53.42 | 3:35.40 | 40017 | 56181
4 | 12:29.07 | 1:53.23 | 56182 | 64679
5 | 14:22.30 | 3:41.22 | 64680 | 81276
6 | 18:03.52 | 4:35.10 | 81277 | 101911
7 | 22:38.62 | 5:15.20 | 101912 | 125556
8 | 27:54.07 | 6:41.55 | 125557 | 155686
9 | 34:35.62 | 5:02.53 | 155687 | 178389


Range status and errors

Selected range

Filename C:\Users\Boris\Desktop\lossless\klfWR\The KLF - The White Room.wav

Peak level 100.0 %
Extraction speed 6.6 X
Range quality 100.0 %
Test CRC 9759AE1F
Copy CRC 9759AE1F
Copy OK

No errors occurred


AccurateRip summary

Track 1 accurately ripped (confidence 4) [8B633B3F] (AR v2)
Track 2 accurately ripped (confidence 4) [B8437504] (AR v2)
Track 3 accurately ripped (confidence 4) [39D00F3B] (AR v2)
Track 4 accurately ripped (confidence 4) [6BB5F8C8] (AR v2)
Track 5 accurately ripped (confidence 4) [C8A402CD] (AR v2)
Track 6 accurately ripped (confidence 4) [7496DD4F] (AR v2)
Track 7 accurately ripped (confidence 4) [EEB83143] (AR v2)
Track 8 accurately ripped (confidence 4) [0C373A19] (AR v2)
Track 9 accurately ripped (confidence 4) [E5FE027F] (AR v2)

All tracks accurately ripped

End of status report

–– CUETools DB Plugin V2.1.6

[CTDB TOCID: 7k9KSb2RgfkaYg2.V5WEPedGcmI-] found
Submit result: 7k9KSb2RgfkaYg2.V5WEPedGcmI- has been confirmed
Track | CTDB Status
1 | (28/28) Accurately ripped
2 | (28/28) Accurately ripped
3 | (28/28) Accurately ripped
4 | (28/28) Accurately ripped
5 | (28/28) Accurately ripped
6 | (28/28) Accurately ripped
7 | (28/28) Accurately ripped
8 | (28/28) Accurately ripped
9 | (28/28) Accurately ripped


==== Log checksum 5E227A7406B114E5B0A5CA294F78D392E2763A9B34DD4D217F70773A88320661 ====

foobar2000 1.4 / Dynamic Range Meter 1.1.1
log date: 2020-04-20 13:29:21

––––––––––––––––––––––––––––––––––––––––
Analyzed: The KLF / The White Room
––––––––––––––––––––––––––––––––––––––––

DR Peak RMS Duration Track
––––––––––––––––––––––––––––––––––––––––
DR11 0.00 dB -13.98 dB 5:17 01-What Time is Love? (LP Mix)
DR13 -0.21 dB -15.08 dB 3:37 02-Make It Rain
DR12 0.00 dB -14.64 dB 3:36 03-3 A.M. Eternal (Live at The S.S.L.)
DR13 -0.59 dB -17.07 dB 1:53 04-Church Of The KLF
DR11 0.00 dB -12.50 dB 3:41 05-Last Train To Trancentral
DR14 -1.96 dB -18.87 dB 4:35 06-Build A Fire
DR13 -0.02 dB -15.42 dB 5:15 07-The White Room
DR11 -1.59 dB -13.71 dB 6:42 08-No More Tears
DR12 -1.03 dB -16.79 dB 5:03 09-Justified And Ancient
––––––––––––––––––––––––––––––––––––––––

Number of tracks: 9
Official DR value: DR12

Samplerate: 44100 Hz
Channels: 2
Bits per sample: 16
Bitrate: 896 kbps
Codec: FLAC
================================================================================

[CUETools log; Date: 20.04.2020 13:29:03; Version: 2.1.6]
[CTDB TOCID: 7k9KSb2RgfkaYg2.V5WEPedGcmI-] found.
Track | CTDB Status
1 | (30/30) Accurately ripped
2 | (30/30) Accurately ripped
3 | (30/30) Accurately ripped
4 | (30/30) Accurately ripped
5 | (30/30) Accurately ripped
6 | (30/30) Accurately ripped
7 | (30/30) Accurately ripped
8 | (30/30) Accurately ripped
9 | (30/30) Accurately ripped
[AccurateRip ID: 000ca050-005d2cc1-76094a09] found.
Track [ CRC | V2 ] Status
01 [db0bbded|8b633b3f] (04+04/35) Accurately ripped
02 [f019de2f|b8437504] (04+04/35) Accurately ripped
03 [1fcce0f0|39d00f3b] (04+04/35) Accurately ripped
04 [b4044c88|6bb5f8c8] (04+04/35) Accurately ripped
05 [2354ef49|c8a402cd] (04+04/35) Accurately ripped
06 [b094ee84|7496dd4f] (04+04/35) Accurately ripped
07 [d042cf37|eeb83143] (04+04/34) Accurately ripped
08 [c9a47a22|0c373a19] (04+04/34) Accurately ripped
09 [3a8b32f2|e5fe027f] (04+04/35) Accurately ripped
Offsetted by -2454:
01 [4a143da5] (02/35) Accurately ripped
02 [436551bc] (02/35) Accurately ripped
03 [2afbd03f] (02/35) Accurately ripped
04 [b15220e3] (02/35) Accurately ripped
05 [0d6e8d88] (02/35) Accurately ripped
06 [3b6784e4] (02/35) Accurately ripped
07 [d7ee8647] (02/34) Accurately ripped
08 [99293c7e] (02/34) Accurately ripped
09 [25da0ae9] (02/35) Accurately ripped
Offsetted by -171:
01 [2d51e8d9] (08/35) Accurately ripped
02 [c629a5bd] (08/35) Accurately ripped
03 [5b48f79a] (08/35) Accurately ripped
04 [ef87a40b] (08/35) Accurately ripped
05 [fef11437] (08/35) Accurately ripped
06 [a81a87b4] (08/35) Accurately ripped
07 [a9fd17bf] (08/34) Accurately ripped
08 [c2823a10] (07/34) Accurately ripped
09 [3e9d5f3f] (08/35) Accurately ripped
Offsetted by -46:
01 [19995a67] (04/35) Accurately ripped
02 [0dcd8b9e] (04/35) Accurately ripped
03 [8fca6035] (04/35) Accurately ripped
04 [2e3b0ecc] (04/35) Accurately ripped
05 [318d4197] (04/35) Accurately ripped
06 [64f1c264] (04/35) Accurately ripped
07 [3dbb4887] (03/34) Accurately ripped
08 [5771586e] (04/34) Accurately ripped
09 [cd11b992] (04/35) Accurately ripped
Offsetted by -2672:
01 [c2249be1] (00/35) No match
02 [fe72d477] (00/35) No match
03 [90476754] (00/35) No match (V2 was not tested)
04 [dc5330a5] (00/35) No match
05 [a783551c] (00/35) No match
06 [5a839d84] (00/35) No match
07 [f4fcf1b7] (00/34) No match
08 [87158682] (00/34) No match
09 [c9526d9b] (00/35) No match
Offsetted by 1:
01 [f5831922] (00/35) No match (V2 was not tested)
02 [1a7432dd] (00/35) No match (V2 was not tested)
03 [399831a6] (00/35) No match (V2 was not tested)
04 [4ecd902a] (00/35) No match (V2 was not tested)
05 [b4f3bc64] (00/35) No match (V2 was not tested)
06 [3d5b42f4] (00/35) No match (V2 was not tested)
07 [fa67259f] (00/34) No match (V2 was not tested)
08 [6262ce58] (00/34) No match (V2 was not tested)
09 [fa2419c2] (00/35) No match (V2 was not tested)

Track Peak [ CRC32 ] [W/O NULL] [ LOG ]
– 100,0 [9759AE1F] [58A077E1] CRC32
01 100,0 [B9981D83] [D7980BEE]
02 97,5 [22C9BDEF] [D42684B2]
03 100,0 [D8FABA4B] [6C69FEC9]
04 93,3 [6B6DDA1E] [0C0E8A58]
05 100,0 [26B77FFF] [35595762]
06 79,7 [F2598D58] [5639CC05]
07 99,8 [986863A2] [D6944FCC]
08 83,2 [715B2FFD] [BF16D3DF]
09 88,8 [BCBE0C52] [D27ECE7A]

The KLF - The White Room (1991)


All thanks go to Boris1

>>> My Blog <<<

DOWNLOAD: