Subcategories

The Kinks - Arthur Or The Decline & Fall Of The British Empire (1969) {2019, 50th Anniversary Deluxe Box Set} PROPER

Posted By: popsakov
The Kinks - Arthur Or The Decline & Fall Of The British Empire (1969) {2019, 50th Anniversary Deluxe Box Set} PROPER

The Kinks - Arthur Or The Decline & Fall Of The British Empire (1969) {2019, 50th Anniversary Deluxe Box Set}
EAC Rip | FLAC (Tracks) + Cue + m3u8 + Log ~ 1,65 Gb
Full Scans ~ 1,25 Gb | 04:35:28 | RAR 5% Recovery
BMG / ABKCO Music / Pye Records #BMGCAT407BOX
Pop Rock / Brit Pop / Classic Rock

The hugely well-respected and historically important Kinks seventh studio album Arthur Or The Decline And Fall Of The British Empire was released on 10th October 1969, and celebrates its 50th anniversary on 2019. 'Rock musical' in style and one of the most effective concept albums in rock history, the album was constructed by Kinks' frontman Ray Davies as the soundtrack to a subsequently cancelled Granada Television play. The album receiving almost unanimous acclaim upon its release. Rolling Stone 1969 - "Arthur is a masterpiece on every level, Ray Davies' finest hour. The Kinks' supreme achievement and the best British album of 1969". Melody Maker 1969 - "Ray Davies' finest hour … beautifully British to the core" Original album tracklist: Victoria, Yes Sir No Sir, Some Mother's Son, Drivin', Brainwashed, Australia, Shangri-La, Mr. Churchill Says, She's Bought A Hat Like Princess Marina, Young And Innocent Days, Nothing To Say, Arthur 7" square x 3” deep, 2-part rigid card box containing: 4 x CDs, 4 x 7" singles, book, printed memorabilia, enamel badge 4 x CDs (in individual card wallets) • 2019 newly remastered stereo and mono versions of original Arthur album from HD sources • Mono and stereo single versions, B-sides, alternate mono / stereo mixes, demos, BBC mixes and Dave Davies’ solo • 2 new recordings of Ray Davies with The Doo Wop Choir, including one previously unreleased track • 3 previously unreleased tracks written for Arthur, and recorded by the 'Come Dancing' Workshop Ensemble (1998) • New Ray Davies remixes of album tracks ‘Australia’ and ‘Shangri-La’ • 81 tracks total, comprising 5 previously unreleased tracks and 28 previously unreleased versions 4 x Arthur related 7” singles (with reproduced original international artwork) • Drivin’ / Victoria / Shangri-La / Hold My Hand (Dave Davies solo) Softback book • Extensive essays by world-renowned Kinks experts, original cancelled Arthur play co-scriptwriter Julian Mitchell, and original album sleeve designer Bob Lawrie • New interviews with Ray Davies, Dave Davies and Mick Avory • Band photos, original release international cover artwork and memorabilia Printed memorabilia • Reproduced original photos & posters Badge • Bespoke, exclusive, metal & enamel Kinks logo pin badge.

***************

Track List CD1 - Original Stereo Album, 2019 Remaster:

01. Victoria (Stereo, 2019 Remaster) [3:40]
02. Yes Sir, No Sir (Stereo, 2019 Remaster) [3:47]
03. Some Mother's Son (Stereo, 2019 Remaster) [3:25]
04. Drivin' (Stereo, 2019 Remaster) [3:20]
05. Brainwashed (Stereo, 2019 Remaster) [2:35]
06. Australia (Stereo, 2019 Remaster) [6:46]
07. Shangri-La (Stereo, 2019 Remaster) [5:21]
08. Mr. Churchill Says (Stereo, 2019 Remaster) [4:43]
09. She's Bought a Hat Like Princess Marina (Stereo, 2019 Remaster) [3:08]
10. Young and Innocent Days (Stereo, 2019 Remaster) [3:22]
11. Nothing to Say (Stereo, 2019 Remaster) [3:09]
12. Arthur (Stereo, 2019 Remaster) [5:28]
13. Plastic Man (Stereo)[bonus track] [3:03]
14. Victoria (Alternate Stereo Remix)[bonus track] [3:55]
15. Yes Sir, No Sir (Alternate Stereo Remix)[bonus track] [3:55]
16. Drivin' (Alternate Stereo Remix)[bonus track] [3:42]
17. Brainwashed (Alternate Stereo Remix)[bonus track] [2:39]
18. Australia (Alternate Stereo Remix)[bonus track] [7:19]
19. Shangri-La (Alternate Stereo Remix)[bonus track] [5:31]

Exact Audio Copy V1.3 from 2. September 2016

EAC extraction logfile from 29. October 2019, 22:18

The Kinks / Arthur or the Decline & Fall of the British Empire [2019 Super Deluxe Edition] (Disc 1)

Used drive : ASUS BW-12D1S-U Adapter: 1 ID: 1

Read mode : Secure
Utilize accurate stream : Yes
Defeat audio cache : Yes
Make use of C2 pointers : No

Read offset correction : 667
Overread into Lead-In and Lead-Out : No
Fill up missing offset samples with silence : Yes
Delete leading and trailing silent blocks : No
Null samples used in CRC calculations : Yes
Used interface : Native Win32 interface for Win NT & 2000
Gap handling : Appended to previous track

Used output format : User Defined Encoder
Selected bitrate : 1024 kBit/s
Quality : High
Add ID3 tag : No
Command line compressor : C:\Program Files (x86)\Exact Audio Copy\FLAC\FLAC.EXE
Additional command line options : -V -8 -T "Genre=%genre%" -T "Artist=%artist%" -T "Title=%title%" -T "Album=%albumtitle%" -T "Date=%year%" -T "Tracknumber=%tracknr%" -T "Comment=%comment%" %source%


TOC of the extracted CD

Track | Start | Length | Start sector | End sector
––––––––––––––––––––––––––––-
1 | 0:00.00 | 3:41.70 | 0 | 16644
2 | 3:41.70 | 3:50.04 | 16645 | 33898
3 | 7:31.74 | 3:28.08 | 33899 | 49506
4 | 11:00.07 | 3:23.49 | 49507 | 64780
5 | 14:23.56 | 2:37.08 | 64781 | 76563
6 | 17:00.64 | 6:49.74 | 76564 | 107312
7 | 23:50.63 | 5:22.48 | 107313 | 131510
8 | 29:13.36 | 4:46.31 | 131511 | 152991
9 | 33:59.67 | 3:11.51 | 152992 | 167367
10 | 37:11.43 | 3:25.05 | 167368 | 182747
11 | 40:36.48 | 3:10.54 | 182748 | 197051
12 | 43:47.27 | 5:31.65 | 197052 | 221941
13 | 49:19.17 | 3:04.14 | 221942 | 235755
14 | 52:23.31 | 3:54.53 | 235756 | 253358
15 | 56:18.09 | 3:55.34 | 253359 | 271017
16 | 60:13.43 | 3:41.55 | 271018 | 287647
17 | 63:55.23 | 2:38.69 | 287648 | 299566
18 | 66:34.17 | 7:18.58 | 299567 | 332474
19 | 73:53.00 | 5:31.27 | 332475 | 357326


Track 1

Filename F:\Torrents of Autumn\Kinks, the [1969] Arthur or the Decline and Fall of the British Empire (50th Anniv. Deluxe Box Set)\Disc 01~ Original Stereo Album, 2019 Remaster, Xtra traX\01. Victoria (Stereo, 2019 Remaster).wav

Pre-gap length 0:00:02.00

Peak level 76.6 %
Extraction speed 4.8 X
Track quality 100.0 %
Test CRC C7DA5030
Copy CRC C7DA5030
Track not present in AccurateRip database
Copy OK

Track 2

Filename F:\Torrents of Autumn\Kinks, the [1969] Arthur or the Decline and Fall of the British Empire (50th Anniv. Deluxe Box Set)\Disc 01~ Original Stereo Album, 2019 Remaster, Xtra traX\02. Yes Sir, No Sir (Stereo, 2019 Remaster).wav

Pre-gap length 0:00:02.14

Peak level 94.7 %
Extraction speed 4.6 X
Track quality 99.9 %
Test CRC 2A1DE39B
Copy CRC 2A1DE39B
Track not present in AccurateRip database
Copy OK

Track 3

Filename F:\Torrents of Autumn\Kinks, the [1969] Arthur or the Decline and Fall of the British Empire (50th Anniv. Deluxe Box Set)\Disc 01~ Original Stereo Album, 2019 Remaster, Xtra traX\03. Some Mother's Son (Stereo, 2019 Remaster).wav

Pre-gap length 0:00:03.27

Peak level 88.1 %
Extraction speed 5.4 X
Track quality 100.0 %
Test CRC 6555ED3C
Copy CRC 6555ED3C
Track not present in AccurateRip database
Copy OK

Track 4

Filename F:\Torrents of Autumn\Kinks, the [1969] Arthur or the Decline and Fall of the British Empire (50th Anniv. Deluxe Box Set)\Disc 01~ Original Stereo Album, 2019 Remaster, Xtra traX\04. Drivin' (Stereo, 2019 Remaster).wav

Pre-gap length 0:00:03.26

Peak level 89.2 %
Extraction speed 5.7 X
Track quality 100.0 %
Test CRC 719E2971
Copy CRC 719E2971
Track not present in AccurateRip database
Copy OK

Track 5

Filename F:\Torrents of Autumn\Kinks, the [1969] Arthur or the Decline and Fall of the British Empire (50th Anniv. Deluxe Box Set)\Disc 01~ Original Stereo Album, 2019 Remaster, Xtra traX\05. Brainwashed (Stereo, 2019 Remaster).wav

Pre-gap length 0:00:03.55

Peak level 86.1 %
Extraction speed 5.7 X
Track quality 100.0 %
Test CRC CCBD7196
Copy CRC CCBD7196
Track not present in AccurateRip database
Copy OK

Track 6

Filename F:\Torrents of Autumn\Kinks, the [1969] Arthur or the Decline and Fall of the British Empire (50th Anniv. Deluxe Box Set)\Disc 01~ Original Stereo Album, 2019 Remaster, Xtra traX\06. Australia (Stereo, 2019 Remaster).wav

Pre-gap length 0:00:02.37

Peak level 87.9 %
Extraction speed 6.3 X
Track quality 99.9 %
Test CRC 8A7CFB2E
Copy CRC 8A7CFB2E
Track not present in AccurateRip database
Copy OK

Track 7

Filename F:\Torrents of Autumn\Kinks, the [1969] Arthur or the Decline and Fall of the British Empire (50th Anniv. Deluxe Box Set)\Disc 01~ Original Stereo Album, 2019 Remaster, Xtra traX\07. Shangri-La (Stereo, 2019 Remaster).wav

Pre-gap length 0:00:04.00

Peak level 85.2 %
Extraction speed 7.1 X
Track quality 100.0 %
Test CRC F2A90853
Copy CRC F2A90853
Track not present in AccurateRip database
Copy OK

Track 8

Filename F:\Torrents of Autumn\Kinks, the [1969] Arthur or the Decline and Fall of the British Empire (50th Anniv. Deluxe Box Set)\Disc 01~ Original Stereo Album, 2019 Remaster, Xtra traX\08. Mr. Churchill Says (Stereo, 2019 Remaster).wav

Pre-gap length 0:00:01.53

Peak level 96.9 %
Extraction speed 7.3 X
Track quality 100.0 %
Test CRC A7E4E8B8
Copy CRC A7E4E8B8
Track not present in AccurateRip database
Copy OK

Track 9

Filename F:\Torrents of Autumn\Kinks, the [1969] Arthur or the Decline and Fall of the British Empire (50th Anniv. Deluxe Box Set)\Disc 01~ Original Stereo Album, 2019 Remaster, Xtra traX\09. She's Bought a Hat Like Princess Marina (Stereo, 2019 Remast

Pre-gap length 0:00:03.09

Peak level 88.4 %
Extraction speed 7.2 X
Track quality 100.0 %
Test CRC 981E8410
Copy CRC 981E8410
Track not present in AccurateRip database
Copy OK

Track 10

Filename F:\Torrents of Autumn\Kinks, the [1969] Arthur or the Decline and Fall of the British Empire (50th Anniv. Deluxe Box Set)\Disc 01~ Original Stereo Album, 2019 Remaster, Xtra traX\10. Young and Innocent Days (Stereo, 2019 Remaster).wav

Pre-gap length 0:00:04.00

Peak level 91.2 %
Extraction speed 7.3 X
Track quality 100.0 %
Test CRC 3B80DAF5
Copy CRC 3B80DAF5
Track not present in AccurateRip database
Copy OK

Track 11

Filename F:\Torrents of Autumn\Kinks, the [1969] Arthur or the Decline and Fall of the British Empire (50th Anniv. Deluxe Box Set)\Disc 01~ Original Stereo Album, 2019 Remaster, Xtra traX\11. Nothing to Say (Stereo, 2019 Remaster).wav

Pre-gap length 0:00:03.09

Peak level 88.7 %
Extraction speed 7.4 X
Track quality 100.0 %
Test CRC 7212B2CF
Copy CRC 7212B2CF
Track not present in AccurateRip database
Copy OK

Track 12

Filename F:\Torrents of Autumn\Kinks, the [1969] Arthur or the Decline and Fall of the British Empire (50th Anniv. Deluxe Box Set)\Disc 01~ Original Stereo Album, 2019 Remaster, Xtra traX\12. Arthur (Stereo, 2019 Remaster).wav

Pre-gap length 0:00:01.53

Peak level 90.6 %
Extraction speed 8.2 X
Track quality 100.0 %
Test CRC CDB32C18
Copy CRC CDB32C18
Track not present in AccurateRip database
Copy OK

Track 13

Filename F:\Torrents of Autumn\Kinks, the [1969] Arthur or the Decline and Fall of the British Empire (50th Anniv. Deluxe Box Set)\Disc 01~ Original Stereo Album, 2019 Remaster, Xtra traX\13. Plastic Man (Stereo)[bonus track].wav

Pre-gap length 0:00:03.65

Peak level 90.0 %
Extraction speed 7.8 X
Track quality 100.0 %
Test CRC 0E5725BA
Copy CRC 0E5725BA
Track not present in AccurateRip database
Copy OK

Track 14

Filename F:\Torrents of Autumn\Kinks, the [1969] Arthur or the Decline and Fall of the British Empire (50th Anniv. Deluxe Box Set)\Disc 01~ Original Stereo Album, 2019 Remaster, Xtra traX\14. Victoria (Alternate Stereo Remix)[bonus track].wav

Pre-gap length 0:00:01.10

Peak level 92.5 %
Extraction speed 7.2 X
Track quality 99.9 %
Test CRC 6A3F9B7B
Copy CRC 6A3F9B7B
Track not present in AccurateRip database
Copy OK

Track 15

Filename F:\Torrents of Autumn\Kinks, the [1969] Arthur or the Decline and Fall of the British Empire (50th Anniv. Deluxe Box Set)\Disc 01~ Original Stereo Album, 2019 Remaster, Xtra traX\15. Yes Sir, No Sir (Alternate Stereo Remix)[bonus track].wav

Peak level 87.4 %
Extraction speed 8.3 X
Track quality 100.0 %
Test CRC CB9344C1
Copy CRC CB9344C1
Track not present in AccurateRip database
Copy OK

Track 16

Filename F:\Torrents of Autumn\Kinks, the [1969] Arthur or the Decline and Fall of the British Empire (50th Anniv. Deluxe Box Set)\Disc 01~ Original Stereo Album, 2019 Remaster, Xtra traX\16. Drivin' (Alternate Stereo Remix)[bonus track].wav

Peak level 98.3 %
Extraction speed 7.4 X
Track quality 99.9 %
Test CRC FBF4D418
Copy CRC FBF4D418
Track not present in AccurateRip database
Copy OK

Track 17

Filename F:\Torrents of Autumn\Kinks, the [1969] Arthur or the Decline and Fall of the British Empire (50th Anniv. Deluxe Box Set)\Disc 01~ Original Stereo Album, 2019 Remaster, Xtra traX\17. Brainwashed (Alternate Stereo Remix)[bonus track].wav

Peak level 94.6 %
Extraction speed 8.1 X
Track quality 100.0 %
Test CRC 356CA51B
Copy CRC 356CA51B
Track not present in AccurateRip database
Copy OK

Track 18

Filename F:\Torrents of Autumn\Kinks, the [1969] Arthur or the Decline and Fall of the British Empire (50th Anniv. Deluxe Box Set)\Disc 01~ Original Stereo Album, 2019 Remaster, Xtra traX\18. Australia (Alternate Stereo Remix)[bonus track].wav

Peak level 93.7 %
Extraction speed 9.4 X
Track quality 100.0 %
Test CRC 681F9827
Copy CRC 681F9827
Track not present in AccurateRip database
Copy OK

Track 19

Filename F:\Torrents of Autumn\Kinks, the [1969] Arthur or the Decline and Fall of the British Empire (50th Anniv. Deluxe Box Set)\Disc 01~ Original Stereo Album, 2019 Remaster, Xtra traX\19. Shangri-La (Alternate Stereo Remix)[bonus track].wav

Peak level 94.0 %
Extraction speed 8.7 X
Track quality 99.9 %
Test CRC E1CDD5F2
Copy CRC E1CDD5F2
Track not present in AccurateRip database
Copy OK


None of the tracks are present in the AccurateRip database

No errors occurred

End of status report

–– CUETools DB Plugin V2.1.6

[CTDB TOCID: yEIhIdzRG3LiiglcCTVu8pbk5LQ-] found
Submit result: yEIhIdzRG3LiiglcCTVu8pbk5LQ- has been confirmed
Track | CTDB Status
1 | (7/7) Accurately ripped
2 | (7/7) Accurately ripped
3 | (7/7) Accurately ripped
4 | (7/7) Accurately ripped
5 | (7/7) Accurately ripped
6 | (7/7) Accurately ripped
7 | (7/7) Accurately ripped
8 | (7/7) Accurately ripped
9 | (7/7) Accurately ripped
10 | (7/7) Accurately ripped
11 | (7/7) Accurately ripped
12 | (7/7) Accurately ripped
13 | (7/7) Accurately ripped
14 | (7/7) Accurately ripped
15 | (7/7) Accurately ripped
16 | (7/7) Accurately ripped
17 | (7/7) Accurately ripped
18 | (7/7) Accurately ripped
19 | (7/7) Accurately ripped


==== Log checksum 8EC5025D966C8466DDA1A68BE4F1101998C04228A9338A56611906AD2B185BDC ====

Track List CD2 - Original Mono Album, 2019 Remaster:

01. Victoria (Mono) [3:44]
02. Yes Sir, No Sir (Mono) [3:50]
03. Some Mother's Son (Mono) [3:29]
04. Drivin' (Mono) [3:16]
05. Brainwashed (Mono) [2:39]
06. Australia (Mono) [6:48]
07. Shangri-La (Mono) [5:23]
08. Mr. Churchill Says (Mono) [4:45]
09. She's Bought a Hat Like Princess Marina (Mono) [3:11]
10. Young and Innocent Days (Mono) [3:24]
11. Nothing to Say (Mono) [3:11]
12. Arthur (Mono) [5:30]
13. Plastic Man (Mono)[bonus track] [3:05]
14. King Kong (Mono)[bonus track] [3:26]
15. Victoria (Mono Rough Mix)[bonus track] [3:39]
16. Australia (Mono Acetate Mix)[bonus track] [7:03]
17. Shangri-La (Mono Rough Mix)[bonus track] [5:22]
18. She's Bought a Hat Like Princess Marina (Mono Rough Mix)[bonus track] [3:07]
19. Australia (Australian Single Mix/Edit)[bonus track] [2:40]

Exact Audio Copy V1.3 from 2. September 2016

EAC extraction logfile from 29. October 2019, 23:26

The Kinks / Arthur or the Decline & Fall of the British Empire [2019 Super Deluxe Edition] (Disc 2)

Used drive : ASUS BW-12D1S-U Adapter: 1 ID: 1

Read mode : Secure
Utilize accurate stream : Yes
Defeat audio cache : Yes
Make use of C2 pointers : No

Read offset correction : 667
Overread into Lead-In and Lead-Out : No
Fill up missing offset samples with silence : Yes
Delete leading and trailing silent blocks : No
Null samples used in CRC calculations : Yes
Used interface : Native Win32 interface for Win NT & 2000
Gap handling : Appended to previous track

Used output format : User Defined Encoder
Selected bitrate : 1024 kBit/s
Quality : High
Add ID3 tag : No
Command line compressor : C:\Program Files (x86)\Exact Audio Copy\FLAC\FLAC.EXE
Additional command line options : -V -8 -T "Genre=%genre%" -T "Artist=%artist%" -T "Title=%title%" -T "Album=%albumtitle%" -T "Date=%year%" -T "Tracknumber=%tracknr%" -T "Comment=%comment%" %source%


TOC of the extracted CD

Track | Start | Length | Start sector | End sector
––––––––––––––––––––––––––––-
1 | 0:00.00 | 3:44.32 | 0 | 16831
2 | 3:44.32 | 3:49.56 | 16832 | 34062
3 | 7:34.13 | 3:28.68 | 34063 | 49730
4 | 11:03.06 | 3:15.61 | 49731 | 64416
5 | 14:18.67 | 2:38.40 | 64417 | 76306
6 | 16:57.32 | 6:48.09 | 76307 | 106915
7 | 23:45.41 | 5:23.35 | 106916 | 131175
8 | 29:09.01 | 4:45.01 | 131176 | 152551
9 | 33:54.02 | 3:10.68 | 152552 | 166869
10 | 37:04.70 | 3:24.31 | 166870 | 182200
11 | 40:29.26 | 3:11.11 | 182201 | 196536
12 | 43:40.37 | 5:29.41 | 196537 | 221252
13 | 49:10.03 | 3:04.66 | 221253 | 235118
14 | 52:14.69 | 3:26.04 | 235119 | 250572
15 | 55:40.73 | 3:38.38 | 250573 | 266960
16 | 59:19.36 | 7:03.14 | 266961 | 298699
17 | 66:22.50 | 5:21.66 | 298700 | 322840
18 | 71:44.41 | 3:06.69 | 322841 | 336859
19 | 74:51.35 | 2:39.38 | 336860 | 348822


Track 1

Filename F:\Torrents of Autumn\Kinks, the [1969] Arthur or the Decline and Fall of the British Empire (50th Anniv. Deluxe Box Set)\Disc 02~ Original Mono Album, 2019 Remaster, Xtra traX\01. Victoria (Mono).wav

Pre-gap length 0:00:02.00

Peak level 85.2 %
Extraction speed 4.2 X
Track quality 99.9 %
Test CRC 40F7E502
Copy CRC 40F7E502
Track not present in AccurateRip database
Copy OK

Track 2

Filename F:\Torrents of Autumn\Kinks, the [1969] Arthur or the Decline and Fall of the British Empire (50th Anniv. Deluxe Box Set)\Disc 02~ Original Mono Album, 2019 Remaster, Xtra traX\02. Yes Sir, No Sir (Mono).wav

Peak level 96.9 %
Extraction speed 4.7 X
Track quality 99.9 %
Test CRC 8CDA1F36
Copy CRC 8CDA1F36
Track not present in AccurateRip database
Copy OK

Track 3

Filename F:\Torrents of Autumn\Kinks, the [1969] Arthur or the Decline and Fall of the British Empire (50th Anniv. Deluxe Box Set)\Disc 02~ Original Mono Album, 2019 Remaster, Xtra traX\03. Some Mother's Son (Mono).wav

Peak level 86.8 %
Extraction speed 5.6 X
Track quality 100.0 %
Test CRC D8B30AF4
Copy CRC D8B30AF4
Track not present in AccurateRip database
Copy OK

Track 4

Filename F:\Torrents of Autumn\Kinks, the [1969] Arthur or the Decline and Fall of the British Empire (50th Anniv. Deluxe Box Set)\Disc 02~ Original Mono Album, 2019 Remaster, Xtra traX\04. Drivin' (Mono).wav

Peak level 90.8 %
Extraction speed 5.8 X
Track quality 100.0 %
Test CRC 1DA507F2
Copy CRC 1DA507F2
Track not present in AccurateRip database
Copy OK

Track 5

Filename F:\Torrents of Autumn\Kinks, the [1969] Arthur or the Decline and Fall of the British Empire (50th Anniv. Deluxe Box Set)\Disc 02~ Original Mono Album, 2019 Remaster, Xtra traX\05. Brainwashed (Mono).wav

Peak level 84.6 %
Extraction speed 5.9 X
Track quality 100.0 %
Test CRC 389F50CC
Copy CRC 389F50CC
Track not present in AccurateRip database
Copy OK

Track 6

Filename F:\Torrents of Autumn\Kinks, the [1969] Arthur or the Decline and Fall of the British Empire (50th Anniv. Deluxe Box Set)\Disc 02~ Original Mono Album, 2019 Remaster, Xtra traX\06. Australia (Mono).wav

Peak level 91.0 %
Extraction speed 6.9 X
Track quality 100.0 %
Test CRC BA34E757
Copy CRC BA34E757
Track not present in AccurateRip database
Copy OK

Track 7

Filename F:\Torrents of Autumn\Kinks, the [1969] Arthur or the Decline and Fall of the British Empire (50th Anniv. Deluxe Box Set)\Disc 02~ Original Mono Album, 2019 Remaster, Xtra traX\07. Shangri-La (Mono).wav

Peak level 87.2 %
Extraction speed 7.2 X
Track quality 100.0 %
Test CRC 5BC934E4
Copy CRC 5BC934E4
Track not present in AccurateRip database
Copy OK

Track 8

Filename F:\Torrents of Autumn\Kinks, the [1969] Arthur or the Decline and Fall of the British Empire (50th Anniv. Deluxe Box Set)\Disc 02~ Original Mono Album, 2019 Remaster, Xtra traX\08. Mr. Churchill Says (Mono).wav

Peak level 93.5 %
Extraction speed 7.5 X
Track quality 100.0 %
Test CRC 15CD0015
Copy CRC 15CD0015
Track not present in AccurateRip database
Copy OK

Track 9

Filename F:\Torrents of Autumn\Kinks, the [1969] Arthur or the Decline and Fall of the British Empire (50th Anniv. Deluxe Box Set)\Disc 02~ Original Mono Album, 2019 Remaster, Xtra traX\09. She's Bought a Hat Like Princess Marina (Mono).wav

Peak level 83.0 %
Extraction speed 6.2 X
Track quality 99.9 %
Test CRC 8358405E
Copy CRC 8358405E
Track not present in AccurateRip database
Copy OK

Track 10

Filename F:\Torrents of Autumn\Kinks, the [1969] Arthur or the Decline and Fall of the British Empire (50th Anniv. Deluxe Box Set)\Disc 02~ Original Mono Album, 2019 Remaster, Xtra traX\10. Young and Innocent Days (Mono).wav

Peak level 84.1 %
Extraction speed 7.3 X
Track quality 100.0 %
Test CRC 028CD239
Copy CRC 028CD239
Track not present in AccurateRip database
Copy OK

Track 11

Filename F:\Torrents of Autumn\Kinks, the [1969] Arthur or the Decline and Fall of the British Empire (50th Anniv. Deluxe Box Set)\Disc 02~ Original Mono Album, 2019 Remaster, Xtra traX\11. Nothing to Say (Mono).wav

Peak level 87.9 %
Extraction speed 7.4 X
Track quality 100.0 %
Test CRC 4D545CD3
Copy CRC 4D545CD3
Track not present in AccurateRip database
Copy OK

Track 12

Filename F:\Torrents of Autumn\Kinks, the [1969] Arthur or the Decline and Fall of the British Empire (50th Anniv. Deluxe Box Set)\Disc 02~ Original Mono Album, 2019 Remaster, Xtra traX\12. Arthur (Mono).wav

Peak level 88.0 %
Extraction speed 8.0 X
Track quality 100.0 %
Test CRC 61A74FB8
Copy CRC 61A74FB8
Track not present in AccurateRip database
Copy OK

Track 13

Filename F:\Torrents of Autumn\Kinks, the [1969] Arthur or the Decline and Fall of the British Empire (50th Anniv. Deluxe Box Set)\Disc 02~ Original Mono Album, 2019 Remaster, Xtra traX\13. Plastic Man (Mono)[bonus track].wav

Peak level 75.3 %
Extraction speed 7.7 X
Track quality 100.0 %
Test CRC CEC50901
Copy CRC CEC50901
Track not present in AccurateRip database
Copy OK

Track 14

Filename F:\Torrents of Autumn\Kinks, the [1969] Arthur or the Decline and Fall of the British Empire (50th Anniv. Deluxe Box Set)\Disc 02~ Original Mono Album, 2019 Remaster, Xtra traX\14. King Kong (Mono)[bonus track].wav

Peak level 75.8 %
Extraction speed 8.0 X
Track quality 100.0 %
Test CRC 34D6911B
Copy CRC 34D6911B
Track not present in AccurateRip database
Copy OK

Track 15

Filename F:\Torrents of Autumn\Kinks, the [1969] Arthur or the Decline and Fall of the British Empire (50th Anniv. Deluxe Box Set)\Disc 02~ Original Mono Album, 2019 Remaster, Xtra traX\15. Victoria (Mono Rough Mix)[bonus track].wav

Peak level 91.8 %
Extraction speed 8.3 X
Track quality 100.0 %
Test CRC 061A94DA
Copy CRC 061A94DA
Track not present in AccurateRip database
Copy OK

Track 16

Filename F:\Torrents of Autumn\Kinks, the [1969] Arthur or the Decline and Fall of the British Empire (50th Anniv. Deluxe Box Set)\Disc 02~ Original Mono Album, 2019 Remaster, Xtra traX\16. Australia (Mono Acetate Mix)[bonus track].wav

Peak level 92.4 %
Extraction speed 9.1 X
Track quality 100.0 %
Test CRC 4C34F38B
Copy CRC 4C34F38B
Track not present in AccurateRip database
Copy OK

Track 17

Filename F:\Torrents of Autumn\Kinks, the [1969] Arthur or the Decline and Fall of the British Empire (50th Anniv. Deluxe Box Set)\Disc 02~ Original Mono Album, 2019 Remaster, Xtra traX\17. Shangri-La (Mono Rough Mix)[bonus track].wav

Peak level 89.8 %
Extraction speed 9.1 X
Track quality 100.0 %
Test CRC 0F4007F6
Copy CRC 0F4007F6
Track not present in AccurateRip database
Copy OK

Track 18

Filename F:\Torrents of Autumn\Kinks, the [1969] Arthur or the Decline and Fall of the British Empire (50th Anniv. Deluxe Box Set)\Disc 02~ Original Mono Album, 2019 Remaster, Xtra traX\18. She's Bought a Hat Like Princess Marina (Mono Rough Mix)[bonus

Peak level 90.4 %
Extraction speed 7.4 X
Track quality 99.9 %
Test CRC 9ADC9FB6
Copy CRC 9ADC9FB6
Track not present in AccurateRip database
Copy OK

Track 19

Filename F:\Torrents of Autumn\Kinks, the [1969] Arthur or the Decline and Fall of the British Empire (50th Anniv. Deluxe Box Set)\Disc 02~ Original Mono Album, 2019 Remaster, Xtra traX\19. Australia (Australian Single Mix,Edit)[bonus track].wav

Peak level 76.3 %
Extraction speed 8.6 X
Track quality 100.0 %
Test CRC FA84CB8C
Copy CRC FA84CB8C
Track not present in AccurateRip database
Copy OK


None of the tracks are present in the AccurateRip database

No errors occurred

End of status report

–– CUETools DB Plugin V2.1.6

[CTDB TOCID: sxcEo5_aeyy9MKtbQuKb8Rg1KEE-] found
Submit result: sxcEo5_aeyy9MKtbQuKb8Rg1KEE- has been confirmed
Track | CTDB Status
1 | (7/7) Accurately ripped
2 | (7/7) Accurately ripped
3 | (7/7) Accurately ripped
4 | (7/7) Accurately ripped
5 | (7/7) Accurately ripped
6 | (7/7) Accurately ripped
7 | (7/7) Accurately ripped
8 | (7/7) Accurately ripped
9 | (7/7) Accurately ripped
10 | (7/7) Accurately ripped
11 | (7/7) Accurately ripped
12 | (7/7) Accurately ripped
13 | (7/7) Accurately ripped
14 | (7/7) Accurately ripped
15 | (7/7) Accurately ripped
16 | (7/7) Accurately ripped
17 | (7/7) Accurately ripped
18 | (7/7) Accurately ripped
19 | (7/7) Accurately ripped


==== Log checksum 23B02C91EB99BAFACA1908228BF11202D239F72CC02EB0CDF15C0E722FF23AD8 ====

Track List CD3 - The Great Lost Dave Davies Album (Stereo):

01. This Man He Weeps Tonight (Stereo) [2:43]
02. Mindless Child of Motherhood (Stereo) [3:14]
03. Hold My Hand (Stereo) [3:17]
04. Do You Wish to Be a Man? (Stereo) [2:45]
05. Are You Ready (Stereo) [4:05]
06. Creeping Jean (Stereo) [3:14]
07. I'm Crying (Stereo) [2:43]
08. Lincoln County (Stereo - Original Mix) [3:27]
09. Mr. Shoemaker's Daughter (Stereo - Original Mix) [3:12]
10. Mr. Reporter (Stereo - Original Mix) [3:43]
11. Groovy Movies (Stereo - Original Mix) [2:37]
12. There Is No Life Without Love (Stereo) [1:56]
13. Lincoln County (Mono Single Mix/Edit)[bonus track] [3:13]
14. There Is No Life Without Love (Mono Single Mix)[bonus track] [2:04]
15. Hold My Hand (Mono Single Mix)[bonus track] [3:20]
16. Creeping Jean (Mono Single Mix/Edit)[bonus track] [3:16]
17. Mindless Child Of Motherhood (Mono Single Mix)[bonus track] [3:16]
18. This Man He Weeps Tonight (Mono Single Mix)[bonus track] [2:43]
19. Mr. Shoemaker's Daughter (Stereo Remix)[bonus track] [3:22]
20. Mr. Reporter (Stereo Remix)[bonus track] [4:08]
21. Groovy Movies (Stereo Remix)[bonus track] [3:18]
22. Lincoln County (Acoustic Stereo Remix)[bonus track] [3:47]
23. Hold My Hand (Alternate Take)[bonus track] [2:58]

Exact Audio Copy V1.3 from 2. September 2016

EAC extraction logfile from 30. October 2019, 0:15

The Kinks / Arthur or the Decline & Fall of the British Empire [2019 Super Deluxe Edition] (Disc 3)

Used drive : ASUS BW-12D1S-U Adapter: 1 ID: 1

Read mode : Secure
Utilize accurate stream : Yes
Defeat audio cache : Yes
Make use of C2 pointers : No

Read offset correction : 667
Overread into Lead-In and Lead-Out : No
Fill up missing offset samples with silence : Yes
Delete leading and trailing silent blocks : No
Null samples used in CRC calculations : Yes
Used interface : Native Win32 interface for Win NT & 2000
Gap handling : Appended to previous track

Used output format : User Defined Encoder
Selected bitrate : 1024 kBit/s
Quality : High
Add ID3 tag : No
Command line compressor : C:\Program Files (x86)\Exact Audio Copy\FLAC\FLAC.EXE
Additional command line options : -V -8 -T "Genre=%genre%" -T "Artist=%artist%" -T "Title=%title%" -T "Album=%albumtitle%" -T "Date=%year%" -T "Tracknumber=%tracknr%" -T "Comment=%comment%" %source%


TOC of the extracted CD

Track | Start | Length | Start sector | End sector
––––––––––––––––––––––––––––-
1 | 0:00.00 | 2:42.72 | 0 | 12221
2 | 2:42.72 | 3:13.61 | 12222 | 26757
3 | 5:56.58 | 3:17.17 | 26758 | 41549
4 | 9:14.00 | 2:44.73 | 41550 | 53922
5 | 11:58.73 | 4:05.35 | 53923 | 72332
6 | 16:04.33 | 3:14.30 | 72333 | 86912
7 | 19:18.63 | 2:43.02 | 86913 | 99139
8 | 22:01.65 | 3:26.64 | 99140 | 114653
9 | 25:28.54 | 3:11.72 | 114654 | 129050
10 | 28:40.51 | 3:43.33 | 129051 | 145808
11 | 32:24.09 | 2:36.74 | 145809 | 157582
12 | 35:01.08 | 1:55.48 | 157583 | 166255
13 | 36:56.56 | 3:12.64 | 166256 | 180719
14 | 40:09.45 | 2:04.17 | 180720 | 190036
15 | 42:13.62 | 3:20.25 | 190037 | 205061
16 | 45:34.12 | 3:15.59 | 205062 | 219745
17 | 48:49.71 | 3:15.65 | 219746 | 234435
18 | 52:05.61 | 2:42.69 | 234436 | 246654
19 | 54:48.55 | 3:21.54 | 246655 | 261783
20 | 58:10.34 | 4:08.05 | 261784 | 280388
21 | 62:18.39 | 3:18.08 | 280389 | 295246
22 | 65:36.47 | 3:46.63 | 295247 | 312259
23 | 69:23.35 | 2:57.69 | 312260 | 325603


Track 1

Filename F:\Torrents of Autumn\Kinks, the [1969] Arthur or the Decline and Fall of the British Empire (50th Anniv. Deluxe Box Set)\Disc 03~ The Great Lost Dave Davies Album, Xtra traX\01. This Man He Weeps Tonight (Stereo).wav

Pre-gap length 0:00:02.00

Peak level 85.2 %
Extraction speed 4.2 X
Track quality 100.0 %
Test CRC 73FE7AF9
Copy CRC 73FE7AF9
Track not present in AccurateRip database
Copy OK

Track 2

Filename F:\Torrents of Autumn\Kinks, the [1969] Arthur or the Decline and Fall of the British Empire (50th Anniv. Deluxe Box Set)\Disc 03~ The Great Lost Dave Davies Album, Xtra traX\02. Mindless Child of Motherhood (Stereo).wav

Peak level 98.8 %
Extraction speed 4.6 X
Track quality 100.0 %
Test CRC F1FF5E6C
Copy CRC F1FF5E6C
Track not present in AccurateRip database
Copy OK

Track 3

Filename F:\Torrents of Autumn\Kinks, the [1969] Arthur or the Decline and Fall of the British Empire (50th Anniv. Deluxe Box Set)\Disc 03~ The Great Lost Dave Davies Album, Xtra traX\03. Hold My Hand (Stereo).wav

Peak level 73.1 %
Extraction speed 4.4 X
Track quality 99.9 %
Test CRC 3697A774
Copy CRC 3697A774
Track not present in AccurateRip database
Copy OK

Track 4

Filename F:\Torrents of Autumn\Kinks, the [1969] Arthur or the Decline and Fall of the British Empire (50th Anniv. Deluxe Box Set)\Disc 03~ The Great Lost Dave Davies Album, Xtra traX\04. Do You Wish to Be a Man (Stereo).wav

Peak level 83.7 %
Extraction speed 4.4 X
Track quality 99.9 %
Test CRC C1982A28
Copy CRC C1982A28
Track not present in AccurateRip database
Copy OK

Track 5

Filename F:\Torrents of Autumn\Kinks, the [1969] Arthur or the Decline and Fall of the British Empire (50th Anniv. Deluxe Box Set)\Disc 03~ The Great Lost Dave Davies Album, Xtra traX\05. Are You Ready (Stereo).wav

Peak level 86.8 %
Extraction speed 5.7 X
Track quality 100.0 %
Test CRC 8662E4BE
Copy CRC 8662E4BE
Track not present in AccurateRip database
Copy OK

Track 6

Filename F:\Torrents of Autumn\Kinks, the [1969] Arthur or the Decline and Fall of the British Empire (50th Anniv. Deluxe Box Set)\Disc 03~ The Great Lost Dave Davies Album, Xtra traX\06. Creeping Jean (Stereo).wav

Peak level 86.0 %
Extraction speed 5.8 X
Track quality 100.0 %
Test CRC 7673634D
Copy CRC 7673634D
Track not present in AccurateRip database
Copy OK

Track 7

Filename F:\Torrents of Autumn\Kinks, the [1969] Arthur or the Decline and Fall of the British Empire (50th Anniv. Deluxe Box Set)\Disc 03~ The Great Lost Dave Davies Album, Xtra traX\07. I'm Crying (Stereo).wav

Peak level 79.5 %
Extraction speed 5.0 X
Track quality 99.9 %
Test CRC 75AFB531
Copy CRC 75AFB531
Track not present in AccurateRip database
Copy OK

Track 8

Filename F:\Torrents of Autumn\Kinks, the [1969] Arthur or the Decline and Fall of the British Empire (50th Anniv. Deluxe Box Set)\Disc 03~ The Great Lost Dave Davies Album, Xtra traX\08. Lincoln County (Stereo - Original Mix).wav

Peak level 82.4 %
Extraction speed 6.2 X
Track quality 100.0 %
Test CRC 069C126C
Copy CRC 069C126C
Track not present in AccurateRip database
Copy OK

Track 9

Filename F:\Torrents of Autumn\Kinks, the [1969] Arthur or the Decline and Fall of the British Empire (50th Anniv. Deluxe Box Set)\Disc 03~ The Great Lost Dave Davies Album, Xtra traX\09. Mr. Shoemaker's Daughter (Stereo - Original Mix).wav

Peak level 80.3 %
Extraction speed 6.4 X
Track quality 100.0 %
Test CRC 29A9B637
Copy CRC 29A9B637
Track not present in AccurateRip database
Copy OK

Track 10

Filename F:\Torrents of Autumn\Kinks, the [1969] Arthur or the Decline and Fall of the British Empire (50th Anniv. Deluxe Box Set)\Disc 03~ The Great Lost Dave Davies Album, Xtra traX\10. Mr. Reporter (Stereo - Original Mix).wav

Peak level 97.8 %
Extraction speed 6.0 X
Track quality 99.9 %
Test CRC E898E76B
Copy CRC E898E76B
Track not present in AccurateRip database
Copy OK

Track 11

Filename F:\Torrents of Autumn\Kinks, the [1969] Arthur or the Decline and Fall of the British Empire (50th Anniv. Deluxe Box Set)\Disc 03~ The Great Lost Dave Davies Album, Xtra traX\11. Groovy Movies (Stereo - Original Mix).wav

Peak level 85.5 %
Extraction speed 6.6 X
Track quality 100.0 %
Test CRC BAF7E6CD
Copy CRC BAF7E6CD
Track not present in AccurateRip database
Copy OK

Track 12

Filename F:\Torrents of Autumn\Kinks, the [1969] Arthur or the Decline and Fall of the British Empire (50th Anniv. Deluxe Box Set)\Disc 03~ The Great Lost Dave Davies Album, Xtra traX\12. There Is No Life Without Love (Stereo).wav

Peak level 74.0 %
Extraction speed 6.2 X
Track quality 100.0 %
Test CRC B4F18631
Copy CRC B4F18631
Track not present in AccurateRip database
Copy OK

Track 13

Filename F:\Torrents of Autumn\Kinks, the [1969] Arthur or the Decline and Fall of the British Empire (50th Anniv. Deluxe Box Set)\Disc 03~ The Great Lost Dave Davies Album, Xtra traX\13. Lincoln County (Mono Single Mix,Edit)[bonus track].wav

Peak level 80.8 %
Extraction speed 7.1 X
Track quality 100.0 %
Test CRC 369BB603
Copy CRC 369BB603
Track not present in AccurateRip database
Copy OK

Track 14

Filename F:\Torrents of Autumn\Kinks, the [1969] Arthur or the Decline and Fall of the British Empire (50th Anniv. Deluxe Box Set)\Disc 03~ The Great Lost Dave Davies Album, Xtra traX\14. There Is No Life Without Love (Mono Single Mix)[bonus track].wav

Peak level 75.7 %
Extraction speed 6.5 X
Track quality 100.0 %
Test CRC AA1CA712
Copy CRC AA1CA712
Track not present in AccurateRip database
Copy OK

Track 15

Filename F:\Torrents of Autumn\Kinks, the [1969] Arthur or the Decline and Fall of the British Empire (50th Anniv. Deluxe Box Set)\Disc 03~ The Great Lost Dave Davies Album, Xtra traX\15. Hold My Hand (Mono Single Mix)[bonus track].wav

Peak level 79.4 %
Extraction speed 7.2 X
Track quality 100.0 %
Test CRC DFDB43E5
Copy CRC DFDB43E5
Track not present in AccurateRip database
Copy OK

Track 16

Filename F:\Torrents of Autumn\Kinks, the [1969] Arthur or the Decline and Fall of the British Empire (50th Anniv. Deluxe Box Set)\Disc 03~ The Great Lost Dave Davies Album, Xtra traX\16. Creeping Jean (Mono Single Mix,Edit)[bonus track].wav

Peak level 76.0 %
Extraction speed 7.3 X
Track quality 100.0 %
Test CRC 7F93F783
Copy CRC 7F93F783
Track not present in AccurateRip database
Copy OK

Track 17

Filename F:\Torrents of Autumn\Kinks, the [1969] Arthur or the Decline and Fall of the British Empire (50th Anniv. Deluxe Box Set)\Disc 03~ The Great Lost Dave Davies Album, Xtra traX\17. Mindless Child Of Motherhood (Mono Single Mix)[bonus track].wav

Peak level 84.4 %
Extraction speed 6.5 X
Track quality 99.9 %
Test CRC AECC39C0
Copy CRC AECC39C0
Track not present in AccurateRip database
Copy OK

Track 18

Filename F:\Torrents of Autumn\Kinks, the [1969] Arthur or the Decline and Fall of the British Empire (50th Anniv. Deluxe Box Set)\Disc 03~ The Great Lost Dave Davies Album, Xtra traX\18. This Man He Weeps Tonight (Mono Single Mix)[bonus track].wav

Peak level 84.3 %
Extraction speed 7.4 X
Track quality 100.0 %
Test CRC 757210CF
Copy CRC 757210CF
Track not present in AccurateRip database
Copy OK

Track 19

Filename F:\Torrents of Autumn\Kinks, the [1969] Arthur or the Decline and Fall of the British Empire (50th Anniv. Deluxe Box Set)\Disc 03~ The Great Lost Dave Davies Album, Xtra traX\19. Mr. Shoemaker's Daughter (Stereo Remix)[bonus track].wav

Peak level 86.2 %
Extraction speed 7.8 X
Track quality 100.0 %
Test CRC 5081E6DE
Copy CRC 5081E6DE
Track not present in AccurateRip database
Copy OK

Track 20

Filename F:\Torrents of Autumn\Kinks, the [1969] Arthur or the Decline and Fall of the British Empire (50th Anniv. Deluxe Box Set)\Disc 03~ The Great Lost Dave Davies Album, Xtra traX\20. Mr. Reporter (Stereo Remix)[bonus track].wav

Peak level 96.3 %
Extraction speed 8.2 X
Track quality 100.0 %
Test CRC 1E49734F
Copy CRC 1E49734F
Track not present in AccurateRip database
Copy OK

Track 21

Filename F:\Torrents of Autumn\Kinks, the [1969] Arthur or the Decline and Fall of the British Empire (50th Anniv. Deluxe Box Set)\Disc 03~ The Great Lost Dave Davies Album, Xtra traX\21. Groovy Movies (Stereo Remix)[bonus track].wav

Peak level 94.4 %
Extraction speed 8.0 X
Track quality 100.0 %
Test CRC 5EEED7A6
Copy CRC 5EEED7A6
Track not present in AccurateRip database
Copy OK

Track 22

Filename F:\Torrents of Autumn\Kinks, the [1969] Arthur or the Decline and Fall of the British Empire (50th Anniv. Deluxe Box Set)\Disc 03~ The Great Lost Dave Davies Album, Xtra traX\22. Lincoln County (Acoustic Stereo Remix)[bonus track].wav

Peak level 79.9 %
Extraction speed 8.3 X
Track quality 100.0 %
Test CRC 64DDC2B5
Copy CRC 64DDC2B5
Track not present in AccurateRip database
Copy OK

Track 23

Filename F:\Torrents of Autumn\Kinks, the [1969] Arthur or the Decline and Fall of the British Empire (50th Anniv. Deluxe Box Set)\Disc 03~ The Great Lost Dave Davies Album, Xtra traX\23. Hold My Hand (Alternate Take)[bonus track].wav

Peak level 79.4 %
Extraction speed 8.2 X
Track quality 100.0 %
Test CRC 89ED0314
Copy CRC 89ED0314
Track not present in AccurateRip database
Copy OK


None of the tracks are present in the AccurateRip database

No errors occurred

End of status report

–– CUETools DB Plugin V2.1.6

[CTDB TOCID: LSSVp2Ptz7JBALwxb0pG0yoezsU-] found
Submit result: LSSVp2Ptz7JBALwxb0pG0yoezsU- has been confirmed
Track | CTDB Status
1 | (8/8) Accurately ripped
2 | (8/8) Accurately ripped
3 | (8/8) Accurately ripped
4 | (8/8) Accurately ripped
5 | (8/8) Accurately ripped
6 | (8/8) Accurately ripped
7 | (8/8) Accurately ripped
8 | (8/8) Accurately ripped
9 | (8/8) Accurately ripped
10 | (8/8) Accurately ripped
11 | (8/8) Accurately ripped
12 | (8/8) Accurately ripped
13 | (8/8) Accurately ripped
14 | (8/8) Accurately ripped
15 | (8/8) Accurately ripped
16 | (8/8) Accurately ripped
17 | (8/8) Accurately ripped
18 | (8/8) Accurately ripped
19 | (8/8) Accurately ripped
20 | (8/8) Accurately ripped
21 | (8/8) Accurately ripped
22 | (8/8) Accurately ripped
23 | (8/8) Accurately ripped


==== Log checksum 38EE76CB07E8CF39B7E8ADD3C33B80ADCAE5367C73C2136A46327B2362C9DAFC ====

Track List CD4 - Demos / Rehearsals / BBC Mixes / Theatrical / Doo Wop / Remixes:

01. Arthur's Journey (Introduction) (Stereo) [1:34]
02. Australia (2019 Remix) (Stereo) [6:52]
03. Home Demos Medley, 1969: Arthur, Victoria, Some Mother's Son, Drivin', Brainw… [7:49]
04. Shangri-La (2019 Remix) (Stereo) [5:54]
05. My Big Sister (Theatrical Version) (Stereo) [1:11]
06. Stevenage (Theatrical Version) (Stereo) [1:37]
07. Space (Theatrical Version) (Stereo) [3:32]
08. The Future (Doo-Wop Version) (Stereo) [2:26]
09. Arthur (Doo-Wop Version) (Stereo) [3:48]
10. The Virgin Soldiers March (Mono) [2:33]
11. Soldier's Coming Home (Mono) [0:54]
12. King Kong (BBC Mix) (Mono) [2:16]
13. Victoria (Live) (Stereo) [2:59]
14. Arthur (BBC Mix) (Mono) [3:23]

Exact Audio Copy V1.3 from 2. September 2016

EAC extraction logfile from 30. October 2019, 0:59

The Kinks / Arthur or the Decline & Fall of the British Empire [2019 Super Deluxe Edition] (Disc 4)

Used drive : ASUS BW-12D1S-U Adapter: 1 ID: 1

Read mode : Secure
Utilize accurate stream : Yes
Defeat audio cache : Yes
Make use of C2 pointers : No

Read offset correction : 667
Overread into Lead-In and Lead-Out : No
Fill up missing offset samples with silence : Yes
Delete leading and trailing silent blocks : No
Null samples used in CRC calculations : Yes
Used interface : Native Win32 interface for Win NT & 2000
Gap handling : Appended to previous track

Used output format : User Defined Encoder
Selected bitrate : 1024 kBit/s
Quality : High
Add ID3 tag : No
Command line compressor : C:\Program Files (x86)\Exact Audio Copy\FLAC\FLAC.EXE
Additional command line options : -V -8 -T "Genre=%genre%" -T "Artist=%artist%" -T "Title=%title%" -T "Album=%albumtitle%" -T "Date=%year%" -T "Tracknumber=%tracknr%" -T "Comment=%comment%" %source%


TOC of the extracted CD

Track | Start | Length | Start sector | End sector
––––––––––––––––––––––––––––-
1 | 0:00.00 | 1:34.21 | 0 | 7070
2 | 1:34.21 | 6:52.09 | 7071 | 37979
3 | 8:26.30 | 7:48.69 | 37980 | 73148
4 | 16:15.24 | 5:54.24 | 73149 | 99722
5 | 22:09.48 | 1:10.57 | 99723 | 105029
6 | 23:20.30 | 1:36.58 | 105030 | 112287
7 | 24:57.13 | 3:32.35 | 112288 | 128222
8 | 28:29.48 | 2:25.58 | 128223 | 139155
9 | 30:55.31 | 3:48.25 | 139156 | 156280
10 | 34:43.56 | 2:33.07 | 156281 | 167762
11 | 37:16.63 | 0:54.36 | 167763 | 171848
12 | 38:11.24 | 2:15.47 | 171849 | 182020
13 | 40:26.71 | 2:58.57 | 182021 | 195427
14 | 43:25.53 | 3:23.15 | 195428 | 210667


Track 1

Filename F:\Torrents of Autumn\Kinks, the [1969] Arthur or the Decline and Fall of the British Empire (50th Anniv. Deluxe Box Set)\Disc 04~ Demos, Rehearsals, BBC Mixes, Theatrical, Doo Wop, Remixes\01. Arthur's Journey (Introduction) (Stereo).wav

Pre-gap length 0:00:02.00

Peak level 89.1 %
Extraction speed 2.8 X
Track quality 99.8 %
Test CRC 0983A1A6
Copy CRC 0983A1A6
Track not present in AccurateRip database
Copy OK

Track 2

Filename F:\Torrents of Autumn\Kinks, the [1969] Arthur or the Decline and Fall of the British Empire (50th Anniv. Deluxe Box Set)\Disc 04~ Demos, Rehearsals, BBC Mixes, Theatrical, Doo Wop, Remixes\02. Australia (2019 Remix) (Stereo).wav

Peak level 88.0 %
Extraction speed 4.9 X
Track quality 100.0 %
Test CRC F30BEFBF
Copy CRC F30BEFBF
Track not present in AccurateRip database
Copy OK

Track 3

Filename F:\Torrents of Autumn\Kinks, the [1969] Arthur or the Decline and Fall of the British Empire (50th Anniv. Deluxe Box Set)\Disc 04~ Demos, Rehearsals, BBC Mixes, Theatrical, Doo Wop, Remixes\03. Home Demos Medley, 1969- Arthur, Victoria, Some M

Peak level 81.2 %
Extraction speed 5.8 X
Track quality 100.0 %
Test CRC F002899C
Copy CRC F002899C
Track not present in AccurateRip database
Copy OK

Track 4

Filename F:\Torrents of Autumn\Kinks, the [1969] Arthur or the Decline and Fall of the British Empire (50th Anniv. Deluxe Box Set)\Disc 04~ Demos, Rehearsals, BBC Mixes, Theatrical, Doo Wop, Remixes\04. Shangri-La (2019 Remix) (Stereo).wav

Peak level 85.9 %
Extraction speed 6.2 X
Track quality 100.0 %
Test CRC 826CC00F
Copy CRC 826CC00F
Track not present in AccurateRip database
Copy OK

Track 5

Filename F:\Torrents of Autumn\Kinks, the [1969] Arthur or the Decline and Fall of the British Empire (50th Anniv. Deluxe Box Set)\Disc 04~ Demos, Rehearsals, BBC Mixes, Theatrical, Doo Wop, Remixes\05. My Big Sister (Theatrical Version) (Stereo).wav

Peak level 75.9 %
Extraction speed 4.7 X
Track quality 100.0 %
Test CRC 7B8D91E6
Copy CRC 7B8D91E6
Track not present in AccurateRip database
Copy OK

Track 6

Filename F:\Torrents of Autumn\Kinks, the [1969] Arthur or the Decline and Fall of the British Empire (50th Anniv. Deluxe Box Set)\Disc 04~ Demos, Rehearsals, BBC Mixes, Theatrical, Doo Wop, Remixes\06. Stevenage (Theatrical Version) (Stereo).wav

Peak level 69.2 %
Extraction speed 5.3 X
Track quality 100.0 %
Test CRC F575956E
Copy CRC F575956E
Track not present in AccurateRip database
Copy OK

Track 7

Filename F:\Torrents of Autumn\Kinks, the [1969] Arthur or the Decline and Fall of the British Empire (50th Anniv. Deluxe Box Set)\Disc 04~ Demos, Rehearsals, BBC Mixes, Theatrical, Doo Wop, Remixes\07. Space (Theatrical Version) (Stereo).wav

Peak level 79.1 %
Extraction speed 5.7 X
Track quality 99.9 %
Test CRC C138B26A
Copy CRC C138B26A
Track not present in AccurateRip database
Copy OK

Track 8

Filename F:\Torrents of Autumn\Kinks, the [1969] Arthur or the Decline and Fall of the British Empire (50th Anniv. Deluxe Box Set)\Disc 04~ Demos, Rehearsals, BBC Mixes, Theatrical, Doo Wop, Remixes\08. The Future (Doo-Wop Version) (Stereo).wav

Peak level 77.1 %
Extraction speed 5.2 X
Track quality 99.9 %
Test CRC AE76EF00
Copy CRC AE76EF00
Track not present in AccurateRip database
Copy OK

Track 9

Filename F:\Torrents of Autumn\Kinks, the [1969] Arthur or the Decline and Fall of the British Empire (50th Anniv. Deluxe Box Set)\Disc 04~ Demos, Rehearsals, BBC Mixes, Theatrical, Doo Wop, Remixes\09. Arthur (Doo-Wop Version) (Stereo).wav

Peak level 70.6 %
Extraction speed 6.8 X
Track quality 100.0 %
Test CRC 834ED87D
Copy CRC 834ED87D
Track not present in AccurateRip database
Copy OK

Track 10

Filename F:\Torrents of Autumn\Kinks, the [1969] Arthur or the Decline and Fall of the British Empire (50th Anniv. Deluxe Box Set)\Disc 04~ Demos, Rehearsals, BBC Mixes, Theatrical, Doo Wop, Remixes\10. The Virgin Soldiers March (Mono).wav

Peak level 76.1 %
Extraction speed 6.6 X
Track quality 100.0 %
Test CRC 6084043A
Copy CRC 6084043A
Track not present in AccurateRip database
Copy OK

Track 11

Filename F:\Torrents of Autumn\Kinks, the [1969] Arthur or the Decline and Fall of the British Empire (50th Anniv. Deluxe Box Set)\Disc 04~ Demos, Rehearsals, BBC Mixes, Theatrical, Doo Wop, Remixes\11. Soldier's Coming Home (Mono).wav

Peak level 72.8 %
Extraction speed 4.8 X
Track quality 100.0 %
Test CRC A13924E3
Copy CRC A13924E3
Track not present in AccurateRip database
Copy OK

Track 12

Filename F:\Torrents of Autumn\Kinks, the [1969] Arthur or the Decline and Fall of the British Empire (50th Anniv. Deluxe Box Set)\Disc 04~ Demos, Rehearsals, BBC Mixes, Theatrical, Doo Wop, Remixes\12. King Kong (BBC Mix) (Mono).wav

Peak level 74.9 %
Extraction speed 6.5 X
Track quality 100.0 %
Test CRC 64E85703
Copy CRC 64E85703
Track not present in AccurateRip database
Copy OK

Track 13

Filename F:\Torrents of Autumn\Kinks, the [1969] Arthur or the Decline and Fall of the British Empire (50th Anniv. Deluxe Box Set)\Disc 04~ Demos, Rehearsals, BBC Mixes, Theatrical, Doo Wop, Remixes\13. Victoria (Live) (Stereo).wav

Peak level 85.7 %
Extraction speed 7.0 X
Track quality 100.0 %
Test CRC B0278EA1
Copy CRC B0278EA1
Track not present in AccurateRip database
Copy OK

Track 14

Filename F:\Torrents of Autumn\Kinks, the [1969] Arthur or the Decline and Fall of the British Empire (50th Anniv. Deluxe Box Set)\Disc 04~ Demos, Rehearsals, BBC Mixes, Theatrical, Doo Wop, Remixes\14. Arthur (BBC Mix) (Mono).wav

Peak level 77.2 %
Extraction speed 6.4 X
Track quality 99.9 %
Test CRC 4813F0A3
Copy CRC 4813F0A3
Track not present in AccurateRip database
Copy OK


None of the tracks are present in the AccurateRip database

No errors occurred

End of status report

–– CUETools DB Plugin V2.1.6

[CTDB TOCID: gugrsq1T3DRIZE5a41FTFuSlgrw-] found
Submit result: gugrsq1T3DRIZE5a41FTFuSlgrw- has been confirmed
Track | CTDB Status
1 | (9/9) Accurately ripped
2 | (9/9) Accurately ripped
3 | (9/9) Accurately ripped
4 | (9/9) Accurately ripped
5 | (9/9) Accurately ripped
6 | (9/9) Accurately ripped
7 | (9/9) Accurately ripped
8 | (9/9) Accurately ripped
9 | (9/9) Accurately ripped
10 | (9/9) Accurately ripped
11 | (9/9) Accurately ripped
12 | (9/9) Accurately ripped
13 | (9/9) Accurately ripped
14 | (9/9) Accurately ripped


==== Log checksum F6599591397318EA80E051BD83F418671B24F981A8CDED503ECD4C091AF76E44 ====

Personnel:
(except as otherwise indicated on Disc 04)

Ray Davies - vocals, guitars, keyboards
Dave Davies - vocals, guitars
Mick Avory - drums, maracas, tambourine
John Dalton - bass guitar (CD1 tracks 1-12, 14-19; CD2 tracks 1-12, 15-19; CD3 track 2; CD4 tracks 2-4, 14), kazoo, wobble board
Pete Quaife - bass guitar, backing vocals (CD1 tracks 13; CD2 tracks 13, 14; CD3 track 1, 3-16, 18-23; CD4 tracks 3, 12)
Lew Warburton - horn and string arrangements
Rasa Davies - backing vocals

CD4 track 13:
Ray Davies - guitar, vocals
Bill Shanley - electric guitar, vocals
Dick Nolan - bass guitar
Damon Wilson - drums
Ian Gibbons - keyboards
The DR Symphony & Vocal Ensemble

The Kinks - Arthur Or The Decline & Fall Of The British Empire (1969) {2019, 50th Anniversary Deluxe Box Set} PROPER


All thanks go to DoobieBro

>>> "The Kinks" in my Blog <<<

DOWNLOAD: