Subcategories

The Legendary Pink Dots - Discography on AH. Part1: Albums (1982 - 1994)

Posted By: v3122
The Legendary Pink Dots - Discography on AH. Part1: Albums (1982 - 1994)

The Legendary Pink Dots - Discography on AH. Part1 Albums (1982 - 1994)
Psychedelic Rock, Experimental EAC Rip Flac(Image) + Cue + Log & MP3 CBR 320Kbps
Scans (JPG) Included Label Various ~ 3313 or 2031 Mb

Formed in London in 1980, the Legendary Pink Dots moved to Amsterdam in the middle of the decade. Members throughout the band's career have been Edward Ka-Spel (vocals, keyboards) and Phil Knight (keyboards), also known as the Silver Man, with a shifting supporting cast over the years. The Dots' music is by turns melodic pop and exotic psychedelia, with classical influences, sampling, and relentlessly dark, violent, apocalyptic lyrics. After several releases for Mirrodot and Inphaze during the early '80s, the group signed to Play It Again Sam distribution for 1985's The Lovers, and released much of their best material (1990's Crushed Velvet Apocalypse, 1991's The Maria Dimension) on the label. Even as the Legendary Pink Dots neared their two-decade anniversary, the group continued to tour Europe and America quite consistently, appreciated by several generations of dark industrialgoth audiences (and documented by the 2000 live album Farewell, Milky Way). After releasing Your Children Placate You from Premature Graves in spring of 2006, the band embarked on their 25th anniversary tour.

by Steve Huey, AMG

The Legendary Pink Dots - Discography on AH. Part1: Albums (1982 - 1994)

The Legendary Pink Dots (LPD) - музыкальный коллектив, основанный в 1980 году в Лондоне и примерно через полгода переехавший в Амстердам, где и была написана большая часть его музыки. На счету группы около 30 альбомов.

По официальной версии свое название группа получила благодаря старому пианино 1908 года, которое стояло в студии. Его клавиши по неизвестной причине были покрыты пятнами розового лака для ногтей. Изначальное название группы - «One Day»

LPD - это непростые для понимания, мифологичные тексты Эдварда Ка-Спела и эклектичная, на стыке стилей, музыка. Группа не пользуется большой известностью, однако ее творчество вдохновляет многих преданных поклонников по всему миру.

~ lastfm
The Legendary Pink Dots - Discography on AH. Part1 Albums (1982 - 1994)

The Legendary Pink Dots - Discography on AH. Part1: Albums (1982 - 1994)

The Legendary Pink Dots - Brighter Now (1982)
Psychedelic Rock, Experimental EAC Rip Flac(Image) + Cue + Log MP3 CBR 320Kbps
Scans (JPG) Included The Terminal Kaleidoscope, TK 001-CD ~ 217 or 106 Mb

Tracklist

01. Red Castles (0328)
02. Louder After 6 (0506)
03. The Wedding (0407)
04. Apocalypse Then (0724)
05. Legacy (0317)
06. City Ghosts (0544)
07. Hanging Gardens (0613)
08. Soma Bath (0349)
09. Premonition 4 (0520)

Exact Audio Copy V1.0 beta 1 from 15. November 2010

EAC extraction logfile from 22. March 2011, 2206

Legendary Pink Dots Brighter Now

Used drive TEAC DVD+-RW DVW28SLC Adapter 0 ID 0

Read mode Secure
Utilize accurate stream Yes
Defeat audio cache Yes
Make use of C2 pointers No

Read offset correction 48
Overread into Lead-In and Lead-Out No
Fill up missing offset samples with silence Yes
Delete leading and trailing silent blocks No
Null samples used in CRC calculations Yes
Used interface Native Win32 interface for Win NT & 2000

Used output format Internal WAV Routines
Sample format 44.100 Hz; 16 Bit; Stereo


TOC of the extracted CD

Track Start Length Start sector End sector
––––––––––––––––––––––––––––-
1 000.00 328.20 0 15619
2 328.20 506.62 15620 38631
3 835.07 406.50 38632 57131
4 1241.57 724.33 57132 90464
5 2006.15 318.02 90465 105316
6 2324.17 542.65 105317 131031
7 2907.07 614.43 131032 159124
8 3521.50 348.32 159125 176256
9 3910.07 519.05 176257 200186


Range status and errors

Selected range

Filename ZSeedingLegendary Pink DotsAlbums1982-Brighter Nowbrighternow.wav

Peak level 93.9 %
Extraction speed 0.3 X
Range quality 99.9 %
Test CRC 09B6CAD4
Copy CRC 09B6CAD4
Copy OK

No errors occurred


AccurateRip summary

Track 1 accurately ripped (confidence 6) [23D6EA2E]
Track 2 accurately ripped (confidence 6) [6DFEA90D]
Track 3 accurately ripped (confidence 6) [167D729C]
Track 4 accurately ripped (confidence 6) [4A4E428B]
Track 5 accurately ripped (confidence 6) [E841D320]
Track 6 accurately ripped (confidence 6) [6331DC93]
Track 7 accurately ripped (confidence 6) [9D5219FB]
Track 8 accurately ripped (confidence 5) [AAD96E19]
Track 9 accurately ripped (confidence 5) [FAD06CFD]

All tracks accurately ripped

End of status report

AUDIOCHECKER v2.0 beta (build 457) - by Dester - opdester@freemail.hu
~~~~~~~~~~~~~~~~~~~~~~~~~~~~~~~~~~
-=== DO NOT EDIT THIS FILE! ===-

Path …1982 - Brighter Now

01 -=- brighternow.flac -=- CDDA (100%)

83077060

[Verification date 25.09.2011 164247]
[Disc ID 000edbc7-006e729b-610a6d09]
Track [ CRC ] Status
01 [23d6ea2e] (0606) Accurately ripped as in pressing(s) #1
02 [6dfea90d] (0606) Accurately ripped as in pressing(s) #1
03 [167d729c] (0606) Accurately ripped as in pressing(s) #1
04 [4a4e428b] (0606) Accurately ripped as in pressing(s) #1
05 [e841d320] (0606) Accurately ripped as in pressing(s) #1
06 [6331dc93] (0606) Accurately ripped as in pressing(s) #1
07 [9d5219fb] (0606) Accurately ripped as in pressing(s) #1
08 [aad96e19] (0505) Accurately ripped as in pressing(s) #1
09 [fad06cfd] (0505) Accurately ripped as in pressing(s) #1

Track [ CRC32 ] [WO NULL] [ LOG ]
– [09B6CAD4] [AEFBF221] CRC32
01 [D78C87B3] [C26F12DF]
02 [F5EAA2AB] [72CCF583]
03 [0C565B2F] [EB758C47]
04 [2F2F584D] [72A4D4F2]
05 [442835C5] [0365BDCD]
06 [B424721D] [136FED29]
07 [086991FC] [D5200357]
08 [3DCFF643] [EB459A80]
09 [A97A6145] [6DFBFAC3]

==============================

The Legendary Pink Dots - Discography on AH. Part1: Albums (1982 - 1994)

The Legendary Pink Dots - Curse (1983)
Psychedelic Rock, Experimental EAC Rip Flac(Image) + Cue + Log & MP3 CBR 320Kbps
Scans (JPG) Included The Terminal Kaleidoscope, TK 002-CD ~ 226 or 112 Mb

Tracklist

01. Love Puppets (0657)
02. Wall Purges Night (0416)
03. Lisa's Party (0344)
04. Arzhklahh Olgevezh! (0615)
05. TITLE Prmptje Kurss (0159)
06. Waving At The Aeroplanes (0311)
07. Hiding (0100)
08. Dolls' House (0752)
09. The Palace Of Love (0517)
10. Stoned Obituary (0632)

Exact Audio Copy V1.0 beta 1 from 15. November 2010

EAC extraction logfile from 22. March 2011, 2300

The Legendary Pink Dots Curse

Used drive HL-DT-STDVD-ROM GDR8082N Adapter 1 ID 0

Read mode Secure
Utilize accurate stream Yes
Defeat audio cache Yes
Make use of C2 pointers No

Read offset correction 102
Overread into Lead-In and Lead-Out No
Fill up missing offset samples with silence Yes
Delete leading and trailing silent blocks No
Null samples used in CRC calculations Yes
Used interface Installed external ASPI interface

Used output format Internal WAV Routines
Sample format 44.100 Hz; 16 Bit; Stereo


TOC of the extracted CD

Track Start Length Start sector End sector
––––––––––––––––––––––––––––-
1 000.00 656.47 0 31246
2 656.47 416.20 31247 50466
3 1112.67 343.40 50467 67231
4 1456.32 615.35 67232 95391
5 2111.67 202.40 95392 104581
6 2314.32 307.73 104582 118679
7 2622.30 102.30 118680 123359
8 2724.60 750.10 123360 158619
9 3514.70 516.72 158620 182391
10 4031.67 631.45 182392 211761


Range status and errors

Selected range

Filename Zdatamp3SeedingLegendary Pink DotsAlbums1983-Cursecurse.wav

Peak level 100.0 %
Extraction speed 0.4 X
Range quality 100.0 %
Test CRC A8F91BC4
Copy CRC A8F91BC4
Copy OK

No errors occurred


AccurateRip summary

Track 1 accurately ripped (confidence 5) [7853E9DC]
Track 2 accurately ripped (confidence 5) [94ED283F]
Track 3 accurately ripped (confidence 5) [803097BF]
Track 4 accurately ripped (confidence 5) [FB00F1FD]
Track 5 accurately ripped (confidence 5) [5D3D3CD3]
Track 6 accurately ripped (confidence 5) [38AF0498]
Track 7 accurately ripped (confidence 5) [F070A9AF]
Track 8 accurately ripped (confidence 5) [9F7DB529]
Track 9 accurately ripped (confidence 5) [F04A467E]
Track 10 accurately ripped (confidence 5) [1DE98D78]

All tracks accurately ripped

End of status report

AUDIOCHECKER v2.0 beta (build 457) - by Dester - opdester@freemail.hu
~~~~~~~~~~~~~~~~~~~~~~~~~~~~~~~~~~
-=== DO NOT EDIT THIS FILE! ===-

Path …1983 - Curse

01 -=- curse.flac -=- CDDA (100%)

148424468

Verification date 25.09.2011 163951]
[Disc ID 001173b6-00891cc6-920b070a]
Track [ CRC ] Status
01 [7853e9dc] (0608) Accurately ripped as in pressing(s) #1
02 [94ed283f] (0608) Accurately ripped as in pressing(s) #1
03 [803097bf] (0608) Accurately ripped as in pressing(s) #1
04 [fb00f1fd] (0608) Accurately ripped as in pressing(s) #1
05 [5d3d3cd3] (0608) Accurately ripped as in pressing(s) #1
06 [38af0498] (0608) Accurately ripped as in pressing(s) #1
07 [f070a9af] (0606) Accurately ripped as in pressing(s) #1
08 [9f7db529] (0608) Accurately ripped as in pressing(s) #1
09 [f04a467e] (0608) Accurately ripped as in pressing(s) #1
10 [1de98d78] (0608) Accurately ripped as in pressing(s) #1
Offsetted by -268
01 [0b47bf95] (0208) Accurately ripped as in pressing(s) #2
02 [99992ea0] (0208) Accurately ripped as in pressing(s) #2
03 [9dfbeb29] (0208) Accurately ripped as in pressing(s) #2
04 [f9b1eb52] (0208) Accurately ripped as in pressing(s) #2
05 [2e1a8c04] (0208) Accurately ripped as in pressing(s) #2
06 [54e44bc6] (0208) Accurately ripped as in pressing(s) #2
07 [cde92e8f] (0006) No matches
08 [e480b925] (0208) Accurately ripped as in pressing(s) #2
09 [e92ce23f] (0208) Accurately ripped as in pressing(s) #2
10 [58c89e28] (0208) Accurately ripped as in pressing(s) #2

Track [ CRC32 ] [WO NULL] [ LOG ]
– [A8F91BC4] [1E2FE60B] CRC32
01 [744AFA26] [8DC1908A]
02 [EAD237D8] [BFF0FB0D]
03 [50B0FE7E] [7DE81525]
04 [A037E6DA] [5E214806]
05 [8511D813] [C5C3B3B5]
06 [F7059639] [65B57FD3]
07 [A20BCD02] [0E69315E]
08 [DCAB3712] [106B6126]
09 [2BD9BA64] [377A699E]
10 [99671C93] [FF1C7962]

==============================

The Legendary Pink Dots - Discography on AH. Part1: Albums (1982 - 1994)

The Legendary Pink Dots - The Tower (1983)
Psychedelic Rock, Experimental EAC Rip Flac(Image) + Cue + Log & MP3 CBR 320Kbps
Scans (JPG) Included The Terminal Kaleidoscope, TK 003-CD ~ 226 or 204 Mb

Tracklist

01. Black Zone (0305)
02. Break Day (0335)
03. Tower One (0505)
04. Vigil-Anti (0424)
05. A Lust For Powder (0316)
06. Poppy Day (0357)
07. Tower Two (0110)
08. Tower Two (0248)
09. Astrid Rope And Glory (0434)
10. Tower Three (0312)
11. Tower Three (0053)
12. Tower Four Tower Five (0647)

Exact Audio Copy V1.0 beta 1 from 15. November 2010

EAC extraction logfile from 24. March 2011, 2036

The Legendary Pink Dots The Tower

Used drive HL-DT-STDVD-ROM GDR8082N Adapter 1 ID 0

Read mode Secure
Utilize accurate stream Yes
Defeat audio cache Yes
Make use of C2 pointers No

Read offset correction 102
Overread into Lead-In and Lead-Out No
Fill up missing offset samples with silence Yes
Delete leading and trailing silent blocks No
Null samples used in CRC calculations Yes
Used interface Installed external ASPI interface

Used output format Internal WAV Routines
Sample format 44.100 Hz; 16 Bit; Stereo


TOC of the extracted CD

Track Start Length Start sector End sector
––––––––––––––––––––––––––––-
1 000.00 305.37 0 13911
2 305.37 334.58 13912 30019
3 640.20 504.57 30020 52876
4 1145.02 424.28 52877 72704
5 1609.30 316.20 72705 87424
6 1925.50 357.32 87425 105231
7 2323.07 109.15 105232 110421
8 2432.22 247.53 110422 122999
9 2720.00 433.45 123000 143519
10 3153.45 311.47 143520 157891
11 3505.17 053.63 157892 161929
12 3559.05 646.05 161930 192384


Range status and errors

Selected range

Filename Zdatamp3SeedingLegendary Pink DotsAlbums1983-The Towertower.wav

Peak level 85.1 %
Extraction speed 0.4 X
Range quality 100.0 %
Test CRC 2001BBBA
Copy CRC 2001BBBA
Copy OK

No errors occurred


AccurateRip summary

Track 1 accurately ripped (confidence 11) [D05AFDEB]
Track 2 accurately ripped (confidence 11) [5CAC0851]
Track 3 accurately ripped (confidence 11) [947C6951]
Track 4 accurately ripped (confidence 11) [92F7D9AC]
Track 5 accurately ripped (confidence 11) [1FC9CB7C]
Track 6 accurately ripped (confidence 11) [275FB0C2]
Track 7 accurately ripped (confidence 11) [0FF40683]
Track 8 accurately ripped (confidence 11) [65C4E746]
Track 9 accurately ripped (confidence 11) [6541F464]
Track 10 accurately ripped (confidence 11) [EE43FE66]
Track 11 accurately ripped (confidence 11) [EAA9DDBA]
Track 12 accurately ripped (confidence 11) [982EF12A]

All tracks accurately ripped

End of status report

AUDIOCHECKER v2.0 beta (build 457) - by Dester - opdester@freemail.hu
~~~~~~~~~~~~~~~~~~~~~~~~~~~~~~~~~~
-=== DO NOT EDIT THIS FILE! ===-

Path …1983 - The Tower

01 -=- tower.flac -=- CDDA (100%)

253736868

[Verification date 25.09.2011 164025]
[Disc ID 001317f8-00b066c5-910a050c]
Track [ CRC ] Status
01 [d05afdeb] (1113) Accurately ripped as in pressing(s) #1
02 [5cac0851] (1113) Accurately ripped as in pressing(s) #1
03 [947c6951] (1113) Accurately ripped as in pressing(s) #1
04 [92f7d9ac] (1113) Accurately ripped as in pressing(s) #1
05 [1fc9cb7c] (1113) Accurately ripped as in pressing(s) #1
06 [275fb0c2] (1113) Accurately ripped as in pressing(s) #1
07 [0ff40683] (1113) Accurately ripped as in pressing(s) #1
08 [65c4e746] (1113) Accurately ripped as in pressing(s) #1
09 [6541f464] (1113) Accurately ripped as in pressing(s) #1
10 [ee43fe66] (1113) Accurately ripped as in pressing(s) #1
11 [eaa9ddba] (1113) Accurately ripped as in pressing(s) #1
12 [982ef12a] (1113) Accurately ripped as in pressing(s) #1

Track [ CRC32 ] [WO NULL] [ LOG ]
– [2001BBBA] [D703D373] CRC32
01 [2CDBB8FE] [E97389D8]
02 [5E790DF5] [B2877920]
03 [353C8B82] [A76B2A3A]
04 [87B58A23] [F7149FCE]
05 [265E985A] [FF2DADB0]
06 [8BC90ABA] [DBF43466]
07 [3A6E1346] [650E5A8A]
08 [6DBA1FC0] [8D84BA1D]
09 [3681F9AB] [EBC2E9C3]
10 [EA3E6374] [A1A1F783]
11 [13759021] [0B0311D1]
12 [CE7B0FD5] [A8D590D0]

==============================

The Legendary Pink Dots - Discography on AH. Part1: Albums (1982 - 1994)

The Legendary Pink Dots - Faces In The Fire (1984)
Psychedelic Rock, Experimental EAC Rip Flac(Image) + Cue + Log & MP3 CBR 320Kbps
Scans (JPG) Included Play It Again Sam, BIAS 1-CD ~ 129 or 60 Mb

Tracklist

01. Blasto (0329)
02. Love In A Plain Brown Envelope (0544)
03. Sleeso (0243)
04. Neon Gladiators (0652)
05. Kitto (0109)
06. Eight Minutes To Live (0347)

Exact Audio Copy V1.0 beta 1 from 15. November 2010

EAC extraction logfile from 27. March 2011, 1733

The Legendary Pink Dots Faces In The Fire

Used drive HL-DT-STDVD-ROM GDR8082N Adapter 1 ID 0

Read mode Secure
Utilize accurate stream Yes
Defeat audio cache Yes
Make use of C2 pointers No

Read offset correction 102
Overread into Lead-In and Lead-Out No
Fill up missing offset samples with silence Yes
Delete leading and trailing silent blocks No
Null samples used in CRC calculations Yes
Used interface Installed external ASPI interface

Used output format Internal WAV Routines
Sample format 44.100 Hz; 16 Bit; Stereo


TOC of the extracted CD

Track Start Length Start sector End sector
––––––––––––––––––––––––––––-
1 000.00 328.67 0 15666
2 328.67 544.45 15667 41511
3 913.37 244.63 41512 53874
4 1158.25 650.10 53875 84634
5 1848.35 108.15 84635 89749
6 1956.50 346.42 89750 106741


Range status and errors

Selected range

Filename Zdatamp3SeedingLegendary Pink DotsAlbums1984-Faces In The Firefaces.wav

Peak level 99.9 %
Extraction speed 0.3 X
Range quality 99.9 %
Test CRC EAE8AE63
Copy CRC EAE8AE63
Copy OK

No errors occurred


AccurateRip summary

Track 1 accurately ripped (confidence 8) [9033A48D]
Track 2 accurately ripped (confidence 8) [7A251071]
Track 3 accurately ripped (confidence 8) [9592C4C8]
Track 4 accurately ripped (confidence 8) [2D8574D5]
Track 5 accurately ripped (confidence 8) [94BFCEF9]
Track 6 accurately ripped (confidence 8) [3800255F]

All tracks accurately ripped

End of status report

AUDIOCHECKER v2.0 beta (build 457) - by Dester - opdester@freemail.hu
~~~~~~~~~~~~~~~~~~~~~~~~~~~~~~~~~~
-=== DO NOT EDIT THIS FILE! ===-

Path …1984 - Faces In The Fire

01 -=- faces.flac -=- CDDA (100%)

232760564

[Verification date 25.09.2011 164051]
[Disc ID 0005fbf5-001fbdf0-35058f06]
Track [ CRC ] Status
01 [9033a48d] (0812) Accurately ripped as in pressing(s) #1
02 [7a251071] (0812) Accurately ripped as in pressing(s) #1
03 [9592c4c8] (0812) Accurately ripped as in pressing(s) #1
04 [2d8574d5] (0812) Accurately ripped as in pressing(s) #1
05 [94bfcef9] (0812) Accurately ripped as in pressing(s) #1
06 [3800255f] (0812) Accurately ripped as in pressing(s) #1
Offsetted by -891
01 [5ccf8da5] (0212) Accurately ripped as in pressing(s) #2
02 [a293e594] (0212) Accurately ripped as in pressing(s) #2
03 [cedc5970] (0212) Accurately ripped as in pressing(s) #2
04 [7c93933c] (0212) Accurately ripped as in pressing(s) #2
05 [3482fcc6] (0212) Accurately ripped as in pressing(s) #2
06 [fe240ae9] (0212) Accurately ripped as in pressing(s) #2

Track [ CRC32 ] [WO NULL] [ LOG ]
– [EAE8AE63] [BFCE568C] CRC32
01 [9A5581B1] [AE4E58A6]
02 [B260331B] [318F8753]
03 [A831EDAE] [D6AAD240]
04 [28F8FD91] [D40A50C2]
05 [94072052] [9D625244]
06 [BCAE3504] [C71FD2E4]

==============================

The Legendary Pink Dots - Discography on AH. Part1: Albums (1982 - 1994)

The Legendary Pink Dots - Asylum (1985)
Psychedelic Rock, Experimental EAC Rip MP3 CBR 320Kbps
Scans (JPG) Included Play It Again Sam, BIAS 12-CD 182 Mb

Tracklist

01. Echo Police (0449)
02. Gorgon Zola's Baby (0230)
03. Fifteen Flies in the Marmalade (0246)
04. Femme Mirage (0335)
05. The Hill (0422)
06. Demonism (0238)
07. Prisoner (0510)
08. So Gallantly Screaming (1113)
09. I'm the Way, the Truth, the Light (0801)
10. Agape (0348)
11. Golden Dawn (0553)
12. The Last Straw (0453)
13. A Message from Our Sponsor (0406)
14. Go Ask Alice (0325)
15. This Could Be the End (0802)

Exact Audio Copy V1.0 beta 1 from 15. November 2010

EAC extraction logfile from 25. February 2011, 2301

The Legendary Pink Dots Asylum

Used drive HL-DT-STDVD-ROM GDR8082N Adapter 1 ID 0

Read mode Secure
Utilize accurate stream Yes
Defeat audio cache Yes
Make use of C2 pointers No

Read offset correction 102
Overread into Lead-In and Lead-Out No
Fill up missing offset samples with silence Yes
Delete leading and trailing silent blocks No
Null samples used in CRC calculations Yes
Used interface Installed external ASPI interface

Used output format Internal WAV Routines
Sample format 44.100 Hz; 16 Bit; Stereo


TOC of the extracted CD

Track Start Length Start sector End sector
––––––––––––––––––––––––––––-
1 000.33 448.55 33 21687
2 449.13 229.45 21688 32907
3 718.58 247.02 32908 45434
4 1005.60 335.20 45435 61579
5 1341.05 422.50 61580 81279
6 1803.55 235.48 81280 92952
7 2039.28 511.35 92953 116312
8 2550.63 1113.30 116313 166817
9 3704.18 801.05 166818 202897
10 4505.23 349.17 202898 220089
11 4854.40 549.70 220090 246334
12 5444.35 453.33 246335 268342
13 5937.68 406.35 268343 286827
14 6344.28 325.35 286828 302237
15 6709.63 801.45 302238 338357


Range status and errors

Selected range

Filename Zdatamp3Seedingasylum.wav

Peak level 95.2 %
Extraction speed 0.3 X
Range quality 99.9 %
Test CRC 9F18E0B0
Copy CRC 9F18E0B0
Copy OK

No errors occurred


AccurateRip summary

Track 1 accurately ripped (confidence 5) [1E7A3E9C]
Track 2 accurately ripped (confidence 5) [998E4385]
Track 3 accurately ripped (confidence 5) [3B572784]
Track 4 accurately ripped (confidence 5) [A5345011]
Track 5 accurately ripped (confidence 5) [6A0E4376]
Track 6 accurately ripped (confidence 5) [DEEE3117]
Track 7 accurately ripped (confidence 5) [682B76A2]
Track 8 accurately ripped (confidence 5) [A615226B]
Track 9 accurately ripped (confidence 5) [DB1F2F03]
Track 10 accurately ripped (confidence 5) [5B0103A0]
Track 11 accurately ripped (confidence 5) [D2BFB4EE]
Track 12 accurately ripped (confidence 5) [21CEB6CC]
Track 13 accurately ripped (confidence 5) [A1CBFB6C]
Track 14 accurately ripped (confidence 5) [4A30736E]
Track 15 accurately ripped (confidence 5) [C1E2A982]

All tracks accurately ripped

End of status report

Go to Flac = Legendary Pink Dots - Asylum (1985) by uff

==============================

The Legendary Pink Dots - Discography on AH. Part1: Albums (1982 - 1994)

The Legendary Pink Dots - Island Of Jewels (1986)
Psychedelic Rock, Experimental EAC Rip Flac(Image) + Cue + Log & MP3 CBR 320Kbps
Scans (JPG) Included Play It Again Sam, BIAS 41-CD ~ 288 or 110 Mb

Tracklist

01. Tower 6 (0244)
02. The Red and the Black (0439)
03. The Dairy (0353)
04. Emblem Parade (0306)
05. Jewel on an Island (0433)
06. Rattlesnake Arena (0337)
07. The Shock of Contact (0503)
08. Jewel in the Crown (0458)
09. Our Lady in Chambers (0342)
10. Our Lady in Kharki (0240)
11. Our Lady in Darkness (0453)
12. The Guardians of Eden (0138)

Exact Audio Copy V1.0 beta 1 from 15. November 2010

EAC extraction logfile from 27. March 2011, 1739

The Legendary Pink Dots Island of Jewels

Used drive TEAC DVD+-RW DVW28SLC Adapter 0 ID 0

Read mode Secure
Utilize accurate stream Yes
Defeat audio cache Yes
Make use of C2 pointers No

Read offset correction 48
Overread into Lead-In and Lead-Out No
Fill up missing offset samples with silence Yes
Delete leading and trailing silent blocks No
Null samples used in CRC calculations Yes
Used interface Native Win32 interface for Win NT & 2000

Used output format Internal WAV Routines
Sample format 44.100 Hz; 16 Bit; Stereo


TOC of the extracted CD

Track Start Length Start sector End sector
––––––––––––––––––––––––––––-
1 000.00 245.27 0 12401
2 245.27 439.35 12402 33361
3 724.62 353.03 33362 50839
4 1117.65 306.20 50840 64809
5 1424.10 433.10 64810 85294
6 1857.20 338.27 85295 101671
7 2235.47 501.73 101672 124319
8 2737.45 457.45 124320 146639
9 3235.15 340.10 146640 163149
10 3615.25 240.32 163150 175181
11 3855.57 455.28 175182 197334
12 4351.10 134.65 197335 204449


Range status and errors

Selected range

Filename ZSeedingLegendary Pink DotsAlbums1986-Island Of Jewelsisland.wav

Peak level 94.5 %
Extraction speed 0.0 X
Range quality 100.0 %
Test CRC C333ED9A
Copy CRC C333ED9A
Copy OK

No errors occurred


AccurateRip summary

Track 1 not present in database
Track 2 not present in database
Track 3 not present in database
Track 4 not present in database
Track 5 not present in database
Track 6 not present in database
Track 7 not present in database
Track 8 not present in database
Track 9 not present in database
Track 10 not present in database
Track 11 not present in database
Track 12 not present in database

None of the tracks are present in the AccurateRip database

End of status report

AUDIOCHECKER v2.0 beta (build 457) - by Dester - opdester@freemail.hu
~~~~~~~~~~~~~~~~~~~~~~~~~~~~~~~~~~
-=== DO NOT EDIT THIS FILE! ===-

Path …1986 - Island of Jewels

01 -=- island.flac -=- CDDA (99%)

65948244

Verification date 25.09.2011 164329]
[Disc ID 0014be62-00c2ec43-bf0aa60c]
Track [ CRC ] Status
01 [86b51341] (1012) Accurately ripped as in pressing(s) #1
02 [ecaa3587] (0911) Accurately ripped as in pressing(s) #1
03 [a455f447] (0911) Accurately ripped as in pressing(s) #1
04 [a3a9c3f2] (0911) Accurately ripped as in pressing(s) #1
05 [c37c4938] (0911) Accurately ripped as in pressing(s) #1
06 [db49be39] (0911) Accurately ripped as in pressing(s) #1
07 [281249ec] (0911) Accurately ripped as in pressing(s) #1
08 [bf743ceb] (0911) Accurately ripped as in pressing(s) #1
09 [10ee9dbc] (0911) Accurately ripped as in pressing(s) #1
10 [2d00d18e] (0911) Accurately ripped as in pressing(s) #1
11 [fe2c553d] (0911) Accurately ripped as in pressing(s) #1
12 [092caa11] (1012) Accurately ripped as in pressing(s) #1

Track [ CRC32 ] [WO NULL] [ LOG ]
– [C333ED9A] [4B396216] CRC32
01 [9EA2E6C4] [9F21F496]
02 [40863266] [DDF83742]
03 [A9334F0C] [3C25CADB]
04 [C05704E5] [3F623639]
05 [C1AF4DBB] [A8B2FEA6]
06 [4C0C2FCE] [AFBB12F4]
07 [085E0EB5] [7E95D57B]
08 [5868078D] [FE443C63]
09 [48BCB7F8] [9F05BDFA]
10 [C6365A3C] [EEA8CF0B]
11 [6DFBF9FB] [0BD95B31]
12 [ED71A0CB] [1E4C9F40]

==============================

The Legendary Pink Dots - Discography on AH. Part1: Albums (1982 - 1994)

The Legendary Pink Dots - Any Day Now (1987) Repost
Psychedelic Rock, Experimental EAC Rip Flac(Image) + Cue + Log & MP3 CBR 320Kbps
Scans (JPG) Included Play It Again Sam, BIAS 80-CD ~ 314 or 136 Mb

Tracklist

01. Casting the Runes (0547)
02. A Strychnine Kiss (0322)
03. Laguna Beach (0223)
04. The Gallery (0332)
05. Neon Mariners (0447)
06. True Love (0323)
07. The Peculiar Fun Fair (0032)
08. Waiting for the Cloud (1019)
09. Cloud Zero (0550)
10. Under Glass (0708)
11. The Light in My Little Girl's Eyes (0503)
12. The Plasma Twins (0257)

Exact Audio Copy V1.0 beta 1 from 15. November 2010

EAC extraction logfile from 27. March 2011, 2149

The Legendary Pink Dots Any Day Now

Used drive HL-DT-STDVD-ROM GDR8082N Adapter 1 ID 0

Read mode Secure
Utilize accurate stream Yes
Defeat audio cache Yes
Make use of C2 pointers No

Read offset correction 102
Overread into Lead-In and Lead-Out No
Fill up missing offset samples with silence Yes
Delete leading and trailing silent blocks No
Null samples used in CRC calculations Yes
Used interface Installed external ASPI interface

Used output format Internal WAV Routines
Sample format 44.100 Hz; 16 Bit; Stereo


TOC of the extracted CD

Track Start Length Start sector End sector
––––––––––––––––––––––––––––-
1 000.00 549.47 0 26221
2 549.47 321.35 26222 41331
3 911.07 222.48 41332 52029
4 1133.55 330.70 52030 67849
5 1504.50 448.07 67850 89456
6 1952.57 321.60 89457 104591
7 2314.42 033.25 104592 107091
8 2347.67 1020.18 107092 153609
9 3408.10 550.00 153610 179859
10 3958.10 708.37 179860 211996
11 4706.47 501.70 211997 234641
12 5208.42 255.70 234642 247836


Range status and errors

Selected range

Filename Zdatamp3SeedingLegendary Pink DotsAlbums1987-Any Day Nowanydaynow.wav

Peak level 96.4 %
Extraction speed 0.1 X
Range quality 100.0 %
Test CRC 186B9536
Copy CRC 186B9536
Copy OK

No errors occurred


AccurateRip summary

Track 1 accurately ripped (confidence 9) [35BDFEFE]
Track 2 accurately ripped (confidence 8) [22CB9368]
Track 3 accurately ripped (confidence 8) [88CD0002]
Track 4 accurately ripped (confidence 8) [C69FCFCE]
Track 5 accurately ripped (confidence 8) [1097DDDB]
Track 6 accurately ripped (confidence 8) [E7D5E3DB]
Track 7 accurately ripped (confidence 8) [6C0380F8]
Track 8 accurately ripped (confidence 8) [8D8AEC99]
Track 9 accurately ripped (confidence 8) [68626993]
Track 10 accurately ripped (confidence 8) [5A930ECC]
Track 11 accurately ripped (confidence 8) [4B945D9E]
Track 12 accurately ripped (confidence 8) [88A3BF59]

All tracks accurately ripped

End of status report

AUDIOCHECKER v2.0 beta (build 457) - by Dester - opdester@freemail.hu
~~~~~~~~~~~~~~~~~~~~~~~~~~~~~~~~~~
-=== DO NOT EDIT THIS FILE! ===-

Path …1987 - Any Day Now

01 -=- anydaynow.flac -=- CDDA (92%)

83411748

[Verification date 25.09.2011 164423]
[Disc ID 001723e9-00dbba4b-950ce80c]
Track [ CRC ] Status
01 [35bdfefe] (0920) Accurately ripped as in pressing(s) #1
02 [22cb9368] (0819) Accurately ripped as in pressing(s) #1
03 [88cd0002] (0819) Accurately ripped as in pressing(s) #1
04 [c69fcfce] (0819) Accurately ripped as in pressing(s) #1
05 [1097dddb] (0819) Accurately ripped as in pressing(s) #1
06 [e7d5e3db] (0819) Accurately ripped as in pressing(s) #1
07 [6c0380f8] (0819) Accurately ripped as in pressing(s) #1
08 [8d8aec99] (0819) Accurately ripped as in pressing(s) #1
09 [68626993] (0819) Accurately ripped as in pressing(s) #1
10 [5a930ecc] (0819) Accurately ripped as in pressing(s) #1
11 [4b945d9e] (0819) Accurately ripped as in pressing(s) #1
12 [88a3bf59] (0819) Accurately ripped as in pressing(s) #1
Offsetted by -1355
01 [fc3bdb4b] (0320) Accurately ripped as in pressing(s) #3
02 [47c81ff1] (0319) Accurately ripped as in pressing(s) #3
03 [78b5b975] (0319) Accurately ripped as in pressing(s) #3
04 [ba757818] (0319) Accurately ripped as in pressing(s) #3
05 [89885937] (0319) Accurately ripped as in pressing(s) #3
06 [f49b819f] (0319) Accurately ripped as in pressing(s) #3
07 [53e1ca39] (0319) Accurately ripped as in pressing(s) #3
08 [2cc52bf0] (0319) Accurately ripped as in pressing(s) #3
09 [43ba2c42] (0319) Accurately ripped as in pressing(s) #3
10 [b3b4de13] (0319) Accurately ripped as in pressing(s) #3
11 [594dec8a] (0319) Accurately ripped as in pressing(s) #3
12 [b14f9336] (0319) Accurately ripped as in pressing(s) #3
Offsetted by -669
01 [84d99009] (0220) Accurately ripped as in pressing(s) #4
02 [1128e757] (0219) Accurately ripped as in pressing(s) #4
03 [c4defb37] (0219) Accurately ripped as in pressing(s) #4
04 [fa1fd0b9] (0219) Accurately ripped as in pressing(s) #4
05 [0afa5a2a] (0219) Accurately ripped as in pressing(s) #4
06 [fe2df6d0] (0219) Accurately ripped as in pressing(s) #4
07 [82d6f202] (0219) Accurately ripped as in pressing(s) #4
08 [d9b395ca] (0219) Accurately ripped as in pressing(s) #4
09 [5bc3c6ac] (0219) Accurately ripped as in pressing(s) #4
10 [d4fcbc8d] (0219) Accurately ripped as in pressing(s) #4
11 [28faf052] (0219) Accurately ripped as in pressing(s) #4
12 [5c1b2854] (0219) Accurately ripped as in pressing(s) #4
Offsetted by 1366
01 [734e9b24] (0420) Accurately ripped as in pressing(s) #2
02 [a1e0a016] (0419) Accurately ripped as in pressing(s) #2
03 [1e37c85c] (0419) Accurately ripped as in pressing(s) #2
04 [e9bd15d2] (0419) Accurately ripped as in pressing(s) #2
05 [ab07ecfb] (0419) Accurately ripped as in pressing(s) #2
06 [b44063d3] (0419) Accurately ripped as in pressing(s) #2
07 [fb5dba3e] (0419) Accurately ripped as in pressing(s) #2
08 [2614502b] (0419) Accurately ripped as in pressing(s) #2
09 [4922b075] (0419) Accurately ripped as in pressing(s) #2
10 [cf98d67e] (0419) Accurately ripped as in pressing(s) #2
11 [2650e4c6] (0419) Accurately ripped as in pressing(s) #2
12 [ede7085f] (0419) Accurately ripped as in pressing(s) #2

Track [ CRC32 ] [WO NULL] [ LOG ]
– [186B9536] [07482C4C] CRC32
01 [7E24A1BE] [296228B3]
02 [FE9247F9] [E62A4931]
03 [BD79BCDB] [69B3C8D0]
04 [6DAB3369] [6A8AA2DA]
05 [C9E6CD9F] [3A303C35]
06 [057B68B6] [04AC553C]
07 [BA07CBD2] [86821359]
08 [DCE2184A] [59FE79A8]
09 [016ED2D6] [081F0A62]
10 [28DA3147] [E3F367A6]
11 [6DCFABC6] [0D988D33]
12 [7BB4DE63] [ACA26A8B]

==============================

The Legendary Pink Dots - Discography on AH. Part1: Albums (1982 - 1994)

The Legendary Pink Dots - The Golden Age (1988)
Psychedelic Rock, Experimental EAC Rip Flac(Image) + Cue + Log & MP3 CBR 320Kbps
Scans (JPG) Included Play It Again Sam, BIAS 103-CD ~ 356 or 145 Mb

Tracklist

01. Maniac (0405)
02. The Talent Contest (0402)
03. The More It Changes (0330)
04. Hotel Noir (0646)
05. Stille Nacht (0335)
06. The Month After (0458)
07. Lisa's Separation (0545)
08. The Golden Age (0159)
09. Black Castles (0525)
10. And Even the Vegetables Screamed (0136)
11. Regression (0148)
12. Blacklist (0644)
13. Methods (0414)
14. Our Lady in Cervetori (0444)

Exact Audio Copy V1.0 beta 1 from 15. November 2010

EAC extraction logfile from 22. March 2011, 2205

The Legendary Pink Dots The Golden Age

Used drive HL-DT-STDVD-ROM GDR8082N Adapter 1 ID 0

Read mode Secure
Utilize accurate stream Yes
Defeat audio cache Yes
Make use of C2 pointers No

Read offset correction 102
Overread into Lead-In and Lead-Out No
Fill up missing offset samples with silence Yes
Delete leading and trailing silent blocks No
Null samples used in CRC calculations Yes
Used interface Installed external ASPI interface

Used output format Internal WAV Routines
Sample format 44.100 Hz; 16 Bit; Stereo


TOC of the extracted CD

Track Start Length Start sector End sector
––––––––––––––––––––––––––––-
1 000.00 407.22 0 18546
2 407.22 402.18 18547 36714
3 809.40 330.42 36715 52506
4 1140.07 645.40 52507 82921
5 1825.47 336.05 82922 99126
6 2201.52 456.73 99127 121399
7 2658.50 542.55 121400 147104
8 3241.30 200.12 147105 156116
9 3441.42 524.40 156117 180456
10 4006.07 135.38 180457 187619
11 4141.45 151.07 187620 195951
12 4332.52 644.30 195952 226281
13 5017.07 413.68 226282 245324
14 5431.00 440.15 245325 266339


Range status and errors

Selected range

Filename Zdatamp3SeedingLegendary Pink DotsAlbums1988-The Golden Agegoldenage.wav

Peak level 99.2 %
Extraction speed 0.2 X
Range quality 100.0 %
Test CRC C212AA5C
Copy CRC C212AA5C
Copy OK

No errors occurred


AccurateRip summary

Track 1 accurately ripped (confidence 4) [07941686]
Track 2 accurately ripped (confidence 4) [28143912]
Track 3 accurately ripped (confidence 4) [0969C008]
Track 4 accurately ripped (confidence 4) [A0A99E8D]
Track 5 accurately ripped (confidence 4) [F938287C]
Track 6 accurately ripped (confidence 4) [3B605FD6]
Track 7 accurately ripped (confidence 4) [2BCC2F20]
Track 8 accurately ripped (confidence 4) [CEF0B365]
Track 9 accurately ripped (confidence 4) [3CF0A4ED]
Track 10 accurately ripped (confidence 4) [9BFC11D7]
Track 11 accurately ripped (confidence 4) [5EE6DCC3]
Track 12 accurately ripped (confidence 4) [B5D9192A]
Track 13 accurately ripped (confidence 4) [B1E3D60E]
Track 14 accurately ripped (confidence 4) [634CA6E9]

All tracks accurately ripped

End of status report

AUDIOCHECKER v2.0 beta (build 457) - by Dester - opdester@freemail.hu
~~~~~~~~~~~~~~~~~~~~~~~~~~~~~~~~~~
-=== DO NOT EDIT THIS FILE! ===-

Path …1988 - The Golden Age

01 -=- goldenage.flac -=- CDDA (100%)

13253076

[Verification date 25.09.2011 164939]
[Disc ID 001ec4a0-01466097-a40ddf0e]
Track [ CRC ] Status
01 [07941686] (0418) Accurately ripped as in pressing(s) #2
02 [28143912] (0418) Accurately ripped as in pressing(s) #2
03 [0969c008] (0418) Accurately ripped as in pressing(s) #2
04 [a0a99e8d] (0418) Accurately ripped as in pressing(s) #2
05 [f938287c] (0418) Accurately ripped as in pressing(s) #2
06 [3b605fd6] (0418) Accurately ripped as in pressing(s) #2
07 [2bcc2f20] (0418) Accurately ripped as in pressing(s) #2
08 [cef0b365] (0418) Accurately ripped as in pressing(s) #2
09 [3cf0a4ed] (0418) Accurately ripped as in pressing(s) #2
10 [9bfc11d7] (0418) Accurately ripped as in pressing(s) #2
11 [5ee6dcc3] (0418) Accurately ripped as in pressing(s) #2
12 [b5d9192a] (0418) Accurately ripped as in pressing(s) #2
13 [b1e3d60e] (0418) Accurately ripped as in pressing(s) #2
14 [634ca6e9] (0417) Accurately ripped as in pressing(s) #2
Offsetted by -669
01 [d0ded06d] (0218) Accurately ripped as in pressing(s) #3
02 [f4aad42c] (0218) Accurately ripped as in pressing(s) #3
03 [16c8d66d] (0218) Accurately ripped as in pressing(s) #3
04 [08bba471] (0218) Accurately ripped as in pressing(s) #3
05 [eca17a37] (0218) Accurately ripped as in pressing(s) #3
06 [47781279] (0218) Accurately ripped as in pressing(s) #3
07 [ee14eeed] (0218) Accurately ripped as in pressing(s) #3
08 [39ef8a06] (0218) Accurately ripped as in pressing(s) #3
09 [5c0e307e] (0218) Accurately ripped as in pressing(s) #3
10 [adbcddfb] (0218) Accurately ripped as in pressing(s) #3
11 [ee6cf9f5] (0218) Accurately ripped as in pressing(s) #3
12 [c847730f] (0218) Accurately ripped as in pressing(s) #3
13 [94870678] (0218) Accurately ripped as in pressing(s) #3
14 [1cfb8bb8] (0217) Accurately ripped as in pressing(s) #3
Offsetted by 273
01 [4e1e5903] (1218) Accurately ripped as in pressing(s) #1
02 [843bc990] (1218) Accurately ripped as in pressing(s) #1
03 [00833c0f] (1218) Accurately ripped as in pressing(s) #1
04 [3959f119] (1218) Accurately ripped as in pressing(s) #1
05 [ce2423d5] (1218) Accurately ripped as in pressing(s) #1
06 [11b4d6a7] (1218) Accurately ripped as in pressing(s) #1
07 [5ba8f8af] (1218) Accurately ripped as in pressing(s) #1
08 [c8b65060] (1218) Accurately ripped as in pressing(s) #1
09 [573394fc] (1218) Accurately ripped as in pressing(s) #1
10 [9d9f6ce4] (1218) Accurately ripped as in pressing(s) #1
11 [1f8d9604] (1218) Accurately ripped as in pressing(s) #1
12 [325843b1] (1218) Accurately ripped as in pressing(s) #1
13 [c35ae838] (1218) Accurately ripped as in pressing(s) #1
14 [246f106f] (1117) Accurately ripped as in pressing(s) #1

Track [ CRC32 ] [WO NULL] [ LOG ]
– [C212AA5C] [FA0FCA89] CRC32
01 [3A4C19E9] [8DDDA2B2]
02 [4CC65F3E] [B57E046A]
03 [09A40471] [E212E2D1]
04 [412D9B5B] [575534D7]
05 [86BF7125] [5457AFE4]
06 [4790565D] [0255C373]
07 [0F9EE17A] [78392E49]
08 [15721936] [5EBD3AAC]
09 [D0362727] [85CBBB81]
10 [82C99BD1] [22D8BF11]
11 [08477567] [0840779A]
12 [41C5D4F4] [405C19B0]
13 [924697C0] [1AED43FC]
14 [2982E16B] [CE6AF1C0]

==============================

The Legendary Pink Dots - Discography on AH. Part1: Albums (1982 - 1994)

The Legendary Pink Dots - The Crushed Velvet Apocalypse (1990)
Psychedelic Rock, Experimental EAC Rip MP3 CBR 320Kbps
Scans (JPG) Included Play It Again Sam, BIAS 149-CD ~ 166 Mb

Tracklist

01. I Love You in Your Tragic Beauty (0432)
02. Green Gang (0735)
03. Hellsville (0534)
04. Hellowe'en (0127)
05. The Safe Way (0432)
06. Just a Lifetime (0747)
07. The Death of Jack the Ripper (0526)
08. New Tomorrow (0955)
09. Princess Coldheart (0638)
10. The Pleasure Palace (0812)
11. The Collector (0523)
12. C.V.A. (0126)

Exact Audio Copy V1.0 beta 1 from 15. November 2010

EAC extraction logfile from 15. July 2011, 1113

The Legendary Pink Dots The Crushed Velvet Apocalypse

Used drive TEAC DVD+-RW DVW28SLC Adapter 0 ID 0

Read mode Secure
Utilize accurate stream Yes
Defeat audio cache Yes
Make use of C2 pointers No

Read offset correction 48
Overread into Lead-In and Lead-Out No
Fill up missing offset samples with silence Yes
Delete leading and trailing silent blocks No
Null samples used in CRC calculations Yes
Used interface Native Win32 interface for Win NT & 2000

Used output format Internal WAV Routines
Sample format 44.100 Hz; 16 Bit; Stereo


TOC of the extracted CD

Track Start Length Start sector End sector
––––––––––––––––––––––––––––-
1 000.32 431.63 32 20419
2 432.20 734.57 20420 54526
3 1207.02 534.10 54527 79586
4 1741.12 126.73 79587 86109
5 1908.10 431.55 86110 106489
6 2339.65 746.62 106490 141501
7 3126.52 525.50 141502 165926
8 3652.27 955.20 165927 210571
9 4647.47 638.00 210572 240421
10 5325.47 813.10 240422 277406
11 6138.57 522.40 277407 301596
12 6701.22 125.10 301597 307981


Range status and errors

Selected range

Filename CMusiccrushedvelvet.wav

Peak level 99.2 %
Extraction speed 0.0 X
Range quality 100.0 %
Test CRC 6152B984
Copy CRC 6152B984
Copy OK

No errors occurred


AccurateRip summary

Track 1 not present in database
Track 2 not present in database
Track 3 not present in database
Track 4 not present in database
Track 5 not present in database
Track 6 not present in database
Track 7 not present in database
Track 8 not present in database
Track 9 not present in database
Track 10 not present in database
Track 11 not present in database
Track 12 not present in database

None of the tracks are present in the AccurateRip database

End of status report

Go to Flac = Legendary Pink Dots - The Crushed Velvet Apocalypse (1990) by uff

==============================

The Legendary Pink Dots - Discography on AH. Part1: Albums (1982 - 1994)

The Legendary Pink Dots - The Crushed Velvet Apocalypse (1990) [2010, Remastered]
Psychedelic Rock, Experimental EAC Rip Flac(Image) + Cue + Log & MP3 CBR 320Kbps
Scans (JPG) Included Soleilmoon, SOL 175 CD ~ 450 or 193 Mb

Produced by the Legendary Pink Dots. Engineered by Hanz Meyer. Remastered in 2010 by Raymond Steeg. Cover painting by Barbery. All photos by Klaus Totzler.

This reissue is dedicated in loving memory of Bob Pistoor.

Tracklist

01. I Love You in Your Tragic Beauty (0431)
02. Green Gang (0735)
03. Hellsville (0534)
04. Hellowe'en (0127)
05. The Safe Way (0431)
06. Just a Lifetime (0747)
07. The Death of Jack the Ripper (0526)
08. New Tomorrow (0955)
09. Princess Coldheart (0637)
10. The Pleasure Palace (0811)
11. The Collector (0521)
12. C.V.A. (0124)

Exact Audio Copy V0.99 prebeta 5 from 4. May 2009

EAC extraction logfile from 1. November 2010, 1550

The Legendary Pink Dots The Crushed Velvet Apocalypse

Used drive _NEC DVD_RW ND-3500AG Adapter 3 ID 1

Read mode Secure
Utilize accurate stream Yes
Defeat audio cache Yes
Make use of C2 pointers No

Read offset correction 48
Overread into Lead-In and Lead-Out No
Fill up missing offset samples with silence Yes
Delete leading and trailing silent blocks No
Null samples used in CRC calculations Yes
Used interface Native Win32 interface for Win NT & 2000

Used output format Internal WAV Routines
Sample format 44.100 Hz; 16 Bit; Stereo


TOC of the extracted CD

Track Start Length Start sector End sector
––––––––––––––––––––––––––––-
1 000.00 430.64 0 20313
2 430.64 734.57 20314 54420
3 1205.46 534.10 54421 79480
4 1739.56 126.73 79481 86003
5 1906.54 431.10 86004 106338
6 2337.64 746.38 106339 141326
7 3124.27 525.50 141327 165751
8 3650.02 954.70 165752 210371
9 4644.72 636.66 210372 240137
10 5321.63 811.01 240138 276963
11 6132.64 520.59 276964 301022
12 6653.48 123.69 301023 307316


Range status and errors

Selected range

Filename CcygwintmpThe Legendary Pink Dots - The Crushed Velvet ApocalypseThe Crushed Velvet Apocalypse.wav

Peak level 99.9 %
Range quality 99.9 %
Test CRC 72EBC580
Copy CRC 72EBC580
Copy finished

No errors occurred


AccurateRip summary

Track 1 not present in database
Track 2 not present in database
Track 3 not present in database
Track 4 not present in database
Track 5 not present in database
Track 6 not present in database
Track 7 not present in database
Track 8 not present in database
Track 9 not present in database
Track 10 not present in database
Track 11 not present in database
Track 12 not present in database

None of the tracks are present in the AccurateRip database

End of status report

AUDIOCHECKER v2.0 beta (build 457) - by Dester - opdester@freemail.hu
~~~~~~~~~~~~~~~~~~~~~~~~~~~~~~~~~~
-=== DO NOT EDIT THIS FILE! ===-

Path …1990 - The Crushed Velvet Apocalypse [2010, Remastered]

01 -=- The Crushed Velvet Apocalypse.flac -=- CDDA (99%)

177564500

[Verification date 25.09.2011 165120]
[Disc ID 001e5b4c-011fb010-9810010c]
Track [ CRC ] Status
01 [0e8b6b71] (0101) Accurately ripped as in pressing(s) #1
02 [26b2f283] (0101) Accurately ripped as in pressing(s) #1
03 [64a6a9ed] (0101) Accurately ripped as in pressing(s) #1
04 [0bc89d55] (0101) Accurately ripped as in pressing(s) #1
05 [c11862e2] (0101) Accurately ripped as in pressing(s) #1
06 [baf0de55] (0101) Accurately ripped as in pressing(s) #1
07 [64b8dd0c] (0101) Accurately ripped as in pressing(s) #1
08 [28146cce] (0101) Accurately ripped as in pressing(s) #1
09 [f344432e] (0101) Accurately ripped as in pressing(s) #1
10 [daba4f53] (0101) Accurately ripped as in pressing(s) #1
11 [711de90f] (0101) Accurately ripped as in pressing(s) #1
12 [d7125319] (0101) Partial match to pressing(s) #1

Track [ CRC32 ] [WO NULL] [ LOG ]
– [72EBC580] [CF1EB14D] CRC32
01 [F7F57AE7] [844D5EFE]
02 [F0A2DE93] [5F0E6EBF]
03 [1D83FBFD] [D438AB79]
04 [D0C86CE1] [4572634F]
05 [54C81C0D] [B1695125]
06 [2A836F8B] [9524F0B1]
07 [8D68126E] [B58DD3E3]
08 [01C25B05] [98975F35]
09 [BD16373B] [027C465B]
10 [6FB35B0B] [301FA024]
11 [A0BE4671] [14332291]
12 [4C3152BB] [93967BEE]

==============================

The Legendary Pink Dots - Discography on AH. Part1: Albums (1982 - 1994)

The Legendary Pink Dots - The Maria Dimension (1991)
Psychedelic Rock, Experimental EAC Rip Flac(Image) + Cue + Log & MP3 CBR 320Kbps
Scans (JPG) Included Play It Again Sam, BIAS 184-CD ~ 522 or 239 Mb

Tracklist

01. Disturbance (0527)
02. Pennies For Heaven (0421)
03. Third Secret (0430)
04. The Grain Kings (0816)
05. The Ocean Cried 'Blue Murder' (0405)
06. Belladonna (0408)
07. A Space Between (0634)
08. Evolution (0854)
09. Cheraderama (0502)
10. Lilith (0412)
11. Fourth Secret (0302)
12. Expresso Noir (0341)
13. Home (0535)
14. Crushed Velvet (0644)

Exact Audio Copy V1.0 beta 1 from 15. November 2010

EAC extraction logfile from 15. July 2011, 931

The Legendary Pink Dots The Maria Dimension

Used drive TEAC DVD+-RW DVW28SLC Adapter 0 ID 0

Read mode Secure
Utilize accurate stream Yes
Defeat audio cache Yes
Make use of C2 pointers No

Read offset correction 48
Overread into Lead-In and Lead-Out No
Fill up missing offset samples with silence Yes
Delete leading and trailing silent blocks No
Null samples used in CRC calculations Yes
Used interface Native Win32 interface for Win NT & 2000

Used output format Internal WAV Routines
Sample format 44.100 Hz; 16 Bit; Stereo


TOC of the extracted CD

Track Start Length Start sector End sector
––––––––––––––––––––––––––––-
1 000.32 528.00 32 24631
2 528.32 419.55 24632 44111
3 948.12 429.53 44112 64339
4 1417.65 817.52 64340 101666
5 2235.42 403.08 101667 119899
6 2638.50 407.60 119900 138484
7 3046.35 633.57 138485 168016
8 3720.17 855.70 168017 208211
9 4616.12 500.23 208212 230734
10 5116.35 411.47 230735 249606
11 5528.07 303.63 249607 263394
12 5831.70 340.12 263395 279906
13 6212.07 533.68 279907 304949
14 6746.00 644.20 304950 335269


Range status and errors

Selected range

Filename ZSeedingLegendary Pink DotsAlbums1991-The Maria Dimensionmariadimension.wav

Peak level 88.4 %
Extraction speed 0.3 X
Range quality 99.9 %
Test CRC 091FECE7
Copy CRC 091FECE7
Copy OK

No errors occurred


AccurateRip summary

Track 1 accurately ripped (confidence 12) [EFECC02D]
Track 2 accurately ripped (confidence 12) [4D6043CE]
Track 3 accurately ripped (confidence 12) [F9766D51]
Track 4 accurately ripped (confidence 12) [E8D28BE5]
Track 5 accurately ripped (confidence 12) [C44EDD82]
Track 6 accurately ripped (confidence 12) [D8409BA7]
Track 7 accurately ripped (confidence 12) [B20848B8]
Track 8 accurately ripped (confidence 12) [DDE635FC]
Track 9 accurately ripped (confidence 12) [5EC2ABBB]
Track 10 accurately ripped (confidence 12) [48437224]
Track 11 accurately ripped (confidence 12) [BB1D8258]
Track 12 accurately ripped (confidence 12) [AE190BD6]
Track 13 accurately ripped (confidence 12) [1735EE55]
Track 14 accurately ripped (confidence 12) [6C41AA37]

All tracks accurately ripped

End of status report

AUDIOCHECKER v2.0 beta (build 457) - by Dester - opdester@freemail.hu
~~~~~~~~~~~~~~~~~~~~~~~~~~~~~~~~~~
-=== DO NOT EDIT THIS FILE! ===-

Path …1991 - The Maria Dimension

01 -=- mariadimension.flac -=- CDDA (100%)

83478900

[Verification date 25.09.2011 165239]
[Disc ID 0026a78d-019c1092-c411760e]
Pregap length 000032.
Track [ CRC ] Status
01 [efecc02d] (1214) Accurately ripped as in pressing(s) #1
02 [4d6043ce] (1214) Accurately ripped as in pressing(s) #1
03 [f9766d51] (1214) Accurately ripped as in pressing(s) #1
04 [e8d28be5] (1214) Accurately ripped as in pressing(s) #1
05 [c44edd82] (1214) Accurately ripped as in pressing(s) #1
06 [d8409ba7] (1214) Accurately ripped as in pressing(s) #1
07 [b20848b8] (1214) Accurately ripped as in pressing(s) #1
08 [dde635fc] (1214) Accurately ripped as in pressing(s) #1
09 [5ec2abbb] (1214) Accurately ripped as in pressing(s) #1
10 [48437224] (1214) Accurately ripped as in pressing(s) #1
11 [bb1d8258] (1214) Accurately ripped as in pressing(s) #1
12 [ae190bd6] (1214) Accurately ripped as in pressing(s) #1
13 [1735ee55] (1214) Accurately ripped as in pressing(s) #1
14 [6c41aa37] (1214) Accurately ripped as in pressing(s) #1
Offsetted by -669
01 [d50ec5f6] (0214) Accurately ripped as in pressing(s) #2
02 [48ac7796] (0214) Accurately ripped as in pressing(s) #2
03 [ade62844] (0214) Accurately ripped as in pressing(s) #2
04 [aa053daa] (0214) Accurately ripped as in pressing(s) #2
05 [1eca3072] (0214) Accurately ripped as in pressing(s) #2
06 [1ca79657] (0214) Accurately ripped as in pressing(s) #2
07 [0b26ae47] (0214) Accurately ripped as in pressing(s) #2
08 [9bc9e3c2] (0214) Accurately ripped as in pressing(s) #2
09 [4c96d186] (0214) Accurately ripped as in pressing(s) #2
10 [fbc2b076] (0214) Accurately ripped as in pressing(s) #2
11 [47d8847b] (0214) Accurately ripped as in pressing(s) #2
12 [d900e316] (0214) Accurately ripped as in pressing(s) #2
13 [d24701d4] (0214) Accurately ripped as in pressing(s) #2
14 [bf4d0270] (0214) Accurately ripped as in pressing(s) #2

Track [ CRC32 ] [WO NULL] [ LOG ]
– [091FECE7] [BEBAF420] CRC32
01 [2FDCCDBD] [DCF2C175]
02 [F7E341B8] [8F02BC6F]
03 [07778DD2] [223218CF]
04 [8785787E] [2A820BB4]
05 [6215E47E] [D700B02E]
06 [98E554AB] [DDA8AC33]
07 [23A950B4] [FF39296D]
08 [9946BA9C] [47BE4B37]
09 [11E4CDB1] [12497F6F]
10 [A3889DB1] [9CCC136E]
11 [117F526A] [3ADC2D7E]
12 [31674D0A] [C6660D18]
13 [5E11BEEE] [57A25FA4]
14 [6C98EC91] [064B247C]

Tracklist Bonus CD

01. I Dream of Jeannie (0355)
02. Little Oyster (0359)
03. She Gave Me an Apple (0309)
04. Stirred But Not Shaken (0214)
05. Where No Man (0638)

Exact Audio Copy V0.99 prebeta 5 from 4. May 2009

EAC extraction logfile from 14. September 2010, 1008

The Legendary Pink Dots Maria Dimension Bonus CD

Used drive LITE-ON LTR-40125S Adapter 4 ID 1

Read mode Secure
Utilize accurate stream Yes
Defeat audio cache Yes
Make use of C2 pointers No

Read offset correction 12
Overread into Lead-In and Lead-Out No
Fill up missing offset samples with silence Yes
Delete leading and trailing silent blocks No
Null samples used in CRC calculations Yes
Used interface Installed external ASPI interface

Used output format Internal WAV Routines
Sample format 44.100 Hz; 16 Bit; Stereo


TOC of the extracted CD

Track Start Length Start sector End sector
––––––––––––––––––––––––––––-
1 000.00 355.30 0 17654
2 355.30 359.17 17655 35596
3 754.47 309.30 35597 49801
4 1104.02 214.60 49802 59911
5 1318.62 636.53 59912 89664


Range status and errors

Selected range

Filename Zdatamp3SeedingLegendary Pink Dots1991-The Maria Dimension Bonus CDThe Maria Dimension Bonus CD.wav

Peak level 99.9 %
Range quality 100.0 %
Test CRC 006B7067
Copy CRC 006B7067
Copy OK

No errors occurred


AccurateRip summary

Track 1 accurately ripped (confidence 1) [BA8B3A15]
Track 2 accurately ripped (confidence 1) [B46C8ACC]
Track 3 accurately ripped (confidence 1) [EBFB587E]
Track 4 accurately ripped (confidence 1) [92D32F18]
Track 5 accurately ripped (confidence 1) [EB9FA276]

All tracks accurately ripped

End of status report

AUDIOCHECKER v2.0 beta (build 457) - by Dester - opdester@freemail.hu
~~~~~~~~~~~~~~~~~~~~~~~~~~~~~~~~~~
-=== DO NOT EDIT THIS FILE! ===-

Path …1991 - Maria Dimension Bonus CD

01 -=- The Maria Dimension Bonus CD.flac -=- CDDA (100%)

247629540

[Verification date 25.09.2011 165147]
[Disc ID 0003dad7-0011fcec-3904ab05]
Track [ CRC ] Status
01 [ba8b3a15] (0202) Accurately ripped as in pressing(s) #1
02 [b46c8acc] (0202) Accurately ripped as in pressing(s) #1
03 [ebfb587e] (0202) Accurately ripped as in pressing(s) #1
04 [92d32f18] (0202) Accurately ripped as in pressing(s) #1
05 [eb9fa276] (0202) Accurately ripped as in pressing(s) #1

Track [ CRC32 ] [WO NULL] [ LOG ]
– [EC976FED] [006B7067] WO NULL
01 [0BCFF4E8] [29C12726]
02 [5E8539FA] [9979C50B]
03 [4F086C76] [418080D2]
04 [06FAC838] [8ACA33F6]
05 [E2789FE4] [E632ECF6]

==============================

The Legendary Pink Dots - Discography on AH. Part1: Albums (1982 - 1994)

The Legendary Pink Dots - Shadow Weaver (1992)
Psychedelic Rock, Experimental EAC Rip Flac(Image) + Cue + Log & MP3 CBR 320Kbps
Scans (JPG) Included Play It Again Sam, BIAS 225-CD ~ 276 or 153 Mb

Tracklist

01. Zero Zero (0739)
02. Guilty Man (0608)
03. Ghosts of Unborn Children (0655)
04. City of Needles (0516)
05. Stitching Time (0623)
06. Twilight Hour (0537)
07. The Key to Heaven (0546)
08. Laughing Guest (0646)
09. Prague Spring (0326)
10. Leper Colony (0628)

Exact Audio Copy V1.0 beta 1 from 15. November 2010

EAC extraction logfile from 14. July 2011, 2011

The Legendary Pink Dots Shadow Weaver

Used drive TEAC DVD+-RW DVW28SLC Adapter 0 ID 0

Read mode Secure
Utilize accurate stream Yes
Defeat audio cache Yes
Make use of C2 pointers No

Read offset correction 48
Overread into Lead-In and Lead-Out No
Fill up missing offset samples with silence Yes
Delete leading and trailing silent blocks No
Null samples used in CRC calculations Yes
Used interface Native Win32 interface for Win NT & 2000

Used output format Internal WAV Routines
Sample format 44.100 Hz; 16 Bit; Stereo


TOC of the extracted CD

Track Start Length Start sector End sector
––––––––––––––––––––––––––––-
1 000.32 739.03 32 34459
2 739.35 607.45 34460 62029
3 1347.05 655.37 62030 93191
4 2042.42 516.15 93192 116906
5 2558.57 622.43 116907 145599
6 3221.25 537.15 145600 170889
7 3758.40 545.60 170890 196824
8 4344.25 645.40 196825 227239
9 5029.65 326.35 227240 242724
10 5356.25 628.07 242725 271831


Range status and errors

Selected range

Filename ZSeedingLegendary Pink DotsAlbums1992-Shadow Weaver Part Ishadowweaver.wav

Peak level 94.4 %
Extraction speed 0.3 X
Range quality 100.0 %
Test CRC 6E7932DA
Copy CRC 6E7932DA
Copy OK

No errors occurred


AccurateRip summary

Track 1 accurately ripped (confidence 3) [D763B3A3]
Track 2 accurately ripped (confidence 3) [A5C61250]
Track 3 accurately ripped (confidence 3) [F27D73A7]
Track 4 accurately ripped (confidence 3) [AD0D2DFB]
Track 5 accurately ripped (confidence 3) [E5497459]
Track 6 accurately ripped (confidence 3) [3AFD372E]
Track 7 accurately ripped (confidence 3) [D97D7BD0]
Track 8 accurately ripped (confidence 3) [A94C7452]
Track 9 accurately ripped (confidence 3) [A9FFA36D]
Track 10 accurately ripped (confidence 3) [EA1651A9]

All tracks accurately ripped

End of status report

AUDIOCHECKER v2.0 beta (build 457) - by Dester - opdester@freemail.hu
~~~~~~~~~~~~~~~~~~~~~~~~~~~~~~~~~~
-=== DO NOT EDIT THIS FILE! ===-

Path …1992 - Shadow Weaver

01 -=- shadowweaver.flac -=- CDDA (100%)

20849476

[Verification date 25.09.2011 165324]
[Disc ID 0017d485-00bbfa69-7b0e280a]
Pregap length 000032.
Track [ CRC ] Status
01 [d763b3a3] (0314) Accurately ripped as in pressing(s) #2
02 [a5c61250] (0314) Accurately ripped as in pressing(s) #2
03 [f27d73a7] (0314) Accurately ripped as in pressing(s) #2
04 [ad0d2dfb] (0314) Accurately ripped as in pressing(s) #2
05 [e5497459] (0314) Accurately ripped as in pressing(s) #2
06 [3afd372e] (0314) Accurately ripped as in pressing(s) #2
07 [d97d7bd0] (0314) Accurately ripped as in pressing(s) #2
08 [a94c7452] (0314) Accurately ripped as in pressing(s) #2
09 [a9ffa36d] (0314) Accurately ripped as in pressing(s) #2
10 [ea1651a9] (0314) Accurately ripped as in pressing(s) #2
Offsetted by -669
01 [78085c4f] (0214) Accurately ripped as in pressing(s) #4
02 [e07db114] (0214) Accurately ripped as in pressing(s) #4
03 [e7a0cadb] (0214) Accurately ripped as in pressing(s) #4
04 [c3972c72] (0214) Accurately ripped as in pressing(s) #4
05 [1476c297] (0214) Accurately ripped as in pressing(s) #4
06 [2f218a81] (0214) Accurately ripped as in pressing(s) #4
07 [ba42c378] (0214) Accurately ripped as in pressing(s) #4
08 [96d5f5b2] (0214) Accurately ripped as in pressing(s) #4
09 [0d184d3f] (0214) Accurately ripped as in pressing(s) #4
10 [07fc3154] (0214) Accurately ripped as in pressing(s) #4
Offsetted by -664
01 [7565e2ee] (0314) Accurately ripped as in pressing(s) #3
02 [ff558d48] (0314) Accurately ripped as in pressing(s) #3
03 [f446c54b] (0314) Accurately ripped as in pressing(s) #3
04 [4c81b495] (0314) Accurately ripped as in pressing(s) #3
05 [c6446011] (0314) Accurately ripped as in pressing(s) #3
06 [895d656b] (0314) Accurately ripped as in pressing(s) #3
07 [6769e572] (0314) Accurately ripped as in pressing(s) #3
08 [0b8ac212] (0314) Accurately ripped as in pressing(s) #3
09 [303f9555] (0314) Accurately ripped as in pressing(s) #3
10 [696ae4ed] (0314) Accurately ripped as in pressing(s) #3

Track [ CRC32 ] [WO NULL] [ LOG ]
– [6E7932DA] [C45A9C75] CRC32
01 [D1861E1E] [B0273222]
02 [8ECDC4F7] [0E2FFC45]
03 [8137F438] [54FBC123]
04 [F1B16509] [F29C6F12]
05 [2B06CD54] [4B3F4002]
06 [581C1443] [A12F404A]
07 [2079467D] [15C09EDF]
08 [339AAB33] [06AE72A2]
09 [77E196D0] [043571B7]
10 [B5B3F7EC] [F6F31886]

==============================

The Legendary Pink Dots - Discography on AH. Part1: Albums (1982 - 1994)

The Legendary Pink Dots - Malachai. Shadow Weaver Part II (1993)
Psychedelic Rock, Experimental EAC Rip Flac(Image) + Cue + Log & MP3 CBR 320Kbps
Scans (JPG) Included Play It Again Sam, BIAS 236-CD ~ 309 or 171 Mb

Tracklist

01. Joey The Canary (0629)
02. Kingdom Of The Flies (0413)
03. Encore Une Fois (0503)
04. Wildlife Estate (0502)
05. Pavane (0503)
06. Window On The World (1154)
07. On The Boards (0647)
08. We Bring The Day (1903)
09. Paris 4AM (0655)

Exact Audio Copy V1.0 beta 1 from 15. November 2010

EAC extraction logfile from 14. July 2011, 2308

The Legendary Pink Dots Malachai (Shadow Weaver Part Two)

Used drive TEAC DVD+-RW DVW28SLC Adapter 0 ID 0

Read mode Secure
Utilize accurate stream Yes
Defeat audio cache Yes
Make use of C2 pointers No

Read offset correction 48
Overread into Lead-In and Lead-Out No
Fill up missing offset samples with silence Yes
Delete leading and trailing silent blocks No
Null samples used in CRC calculations Yes
Used interface Native Win32 interface for Win NT & 2000

Used output format Internal WAV Routines
Sample format 44.100 Hz; 16 Bit; Stereo


TOC of the extracted CD

Track Start Length Start sector End sector
––––––––––––––––––––––––––––-
1 000.32 628.13 32 29144
2 628.45 413.40 29145 48159
3 1042.10 502.35 48160 70844
4 1544.45 501.45 70845 93464
5 2046.15 503.12 93465 116201
6 2549.27 1153.60 116202 169736
7 3743.12 649.03 169737 200414
8 4432.15 1901.05 200415 285994
9 6333.20 655.12 285995 317131


Range status and errors

Selected range

Filename ZSeedingLegendary Pink DotsAlbums1993-Malachai - Shadow Weaver Part IImalachai.wav

Peak level 99.2 %
Extraction speed 0.3 X
Range quality 100.0 %
Test CRC 50DAEB4B
Copy CRC 50DAEB4B
Copy OK

No errors occurred


AccurateRip summary

Track 1 accurately ripped (confidence 3) [FD2427BE]
Track 2 accurately ripped (confidence 3) [1386D583]
Track 3 accurately ripped (confidence 3) [3E84CBD8]
Track 4 accurately ripped (confidence 3) [8FCDFF87]
Track 5 accurately ripped (confidence 3) [B32F5655]
Track 6 accurately ripped (confidence 3) [096B5BB8]
Track 7 accurately ripped (confidence 3) [FA94FE69]
Track 8 accurately ripped (confidence 3) [324B304B]
Track 9 accurately ripped (confidence 3) [74645B88]

All tracks accurately ripped

End of status report

AUDIOCHECKER v2.0 beta (build 457) - by Dester - opdester@freemail.hu
~~~~~~~~~~~~~~~~~~~~~~~~~~~~~~~~~~
-=== DO NOT EDIT THIS FILE! ===-

Path …1993 - Malachai (Shadow Weaver Part Two)

01 -=- malachai.flac -=- CDDA (100%)

145311812

[Verification date 25.09.2011 165416]
[Disc ID 00144fb8-009b72d1-7d108409]
Pregap length 000032.
Track [ CRC ] Status
01 [fd2427be] (0305) Accurately ripped as in pressing(s) #1
02 [1386d583] (0305) Accurately ripped as in pressing(s) #1
03 [3e84cbd8] (0305) Accurately ripped as in pressing(s) #1
04 [8fcdff87] (0305) Accurately ripped as in pressing(s) #1
05 [b32f5655] (0305) Accurately ripped as in pressing(s) #1
06 [096b5bb8] (0305) Accurately ripped as in pressing(s) #1
07 [fa94fe69] (0305) Accurately ripped as in pressing(s) #1
08 [324b304b] (0305) Accurately ripped as in pressing(s) #1
09 [74645b88] (0305) Accurately ripped as in pressing(s) #1

Track [ CRC32 ] [WO NULL] [ LOG ]
– [50DAEB4B] [8AFED5F6] CRC32
01 [0043532B] [F3B8E255]
02 [5B53CBCD] [AD926BD2]
03 [53E78D01] [16ADBAD0]
04 [E9F6B3E6] [B929F48D]
05 [7823AC79] [48B3A62B]
06 [F10866B8] [FF791468]
07 [DC6AB2A7] [621136D2]
08 [188AF1E9] [1121988C]
09 [1518DE1A] [2F2443BF]

==============================

The Legendary Pink Dots - Discography on AH. Part1: Albums (1982 - 1994)

The Legendary Pink Dots - 9 Lives To Wonder (1994)
Psychedelic Rock, Experimental EAC Rip MP3 CBR 320Kbps
Scans (JPG) Included Play It Again Sam, BIAS 280-CD ~ 154 Mb

Tracklist

01. Madame Guillotine (0531)
02. On Another Shore (0624)
03. Softly Softly (0205)
04. Crumbs on the Carpet (0455)
05. Hotel Z (0746)
06. Oasis Malade (0259)
07. A Crack in Melancholy Time (0535)
08. Siren (0532)
09. The Angel Trail (0200)
10. Nine Shades to the Circle (1022)
11. A Terra Firma Welcome Find a Bin to Put It In (0519)

Exact Audio Copy V1.0 beta 1 from 15. November 2010

EAC extraction logfile from 14. July 2011, 822

The Legendary Pink Dots 9 Lives to Wonder

Used drive TEAC DVD+-RW DVW28SLC Adapter 0 ID 0

Read mode Secure
Utilize accurate stream Yes
Defeat audio cache Yes
Make use of C2 pointers No

Read offset correction 48
Overread into Lead-In and Lead-Out No
Fill up missing offset samples with silence Yes
Delete leading and trailing silent blocks No
Null samples used in CRC calculations Yes
Used interface Native Win32 interface for Win NT & 2000

Used output format Internal WAV Routines
Sample format 44.100 Hz; 16 Bit; Stereo


TOC of the extracted CD

Track Start Length Start sector End sector
––––––––––––––––––––––––––––-
1 000.32 530.70 32 24851
2 531.27 624.05 24852 53656
3 1155.32 205.15 53657 63046
4 1400.47 455.40 63047 85211
5 1856.12 746.50 85212 120211
6 2642.62 257.50 120212 133536
7 2940.37 536.68 133537 158804
8 3517.30 530.40 158805 183594
9 4047.70 200.15 183595 192609
10 4248.10 1023.32 192610 239366
11 5311.42 517.65 239367 263206


Range status and errors

Selected range

Filename ZSeedingLegendary Pink DotsAlbums1994-9 Lives To Wonder9lives.wav

Peak level 99.2 %
Extraction speed 0.3 X
Range quality 100.0 %
Test CRC 28C4BE01
Copy CRC 28C4BE01
Copy OK

No errors occurred


AccurateRip summary

Track 1 accurately ripped (confidence 2) [5395A767]
Track 2 accurately ripped (confidence 2) [2BA82C25]
Track 3 accurately ripped (confidence 2) [C117E3DE]
Track 4 accurately ripped (confidence 2) [887AACE0]
Track 5 accurately ripped (confidence 2) [897AA101]
Track 6 accurately ripped (confidence 2) [DE12B374]
Track 7 accurately ripped (confidence 2) [2DB58E61]
Track 8 accurately ripped (confidence 2) [CFCCBBE3]
Track 9 accurately ripped (confidence 2) [B5310383]
Track 10 accurately ripped (confidence 2) [5D48D0FA]
Track 11 accurately ripped (confidence 2) [25A64DE8]

All tracks accurately ripped

End of status report

Go to Flac = The Legendary Pink Dots - 9 Lives to Wonder (1994) by intothe

All thanks to hexonut and fiendover

Download The Legendary Pink Dots - Discography on AH. Part1 Albums (1982 - 1994)