Subcategories

The Life & Songs of Emmylou Harris - An AllStar Concert Celebration (2016)

Posted By: v3122
The Life & Songs of Emmylou Harris - An AllStar Concert Celebration (2016)

The Life & Songs of Emmylou Harris - An AllStar Concert Celebration (2016)
Blu-ray: MPEG-4 AVC 12939kbps, 1920*1080i, 29,970fps, 16:9, High Profile 4.1
DTS-HD MA 5.1, 48 kHz, 4692 kbps, 24-bit & 2.0, 48 kHz, 2281 kbps, 24-bit
Country, Country Rock, Progressive Country | 01:51:34 | ~ 19.13 Gb

~ Recorded at Dar Constitution Hall, Washington, D.C. January 10, 2015 ~

• On January 10, 2015, a remarkable and diverse assemblage of artists gathered together at Washington, DC's DAR Constitution Hall to honor one of the most distinctive and deeply-admired musicians of our time. The house band, led by co-musical directors Buddy Miller (guitars) and Don Was (bass), featured Sam Bush (mandolin, banjo, fiddle), Audley Freed (guitars), Fred Eltringham (drums), Matt Rollings (keyboards), Greg Leisz (pedal steel, lap steel), and Sara Watkins (fiddle, harmony vocals).
• The recording of that event, The Life & Songs of Emmylou Harris: An All-Star Concert Celebration, created and produced by Keith Wortman, CEO of Blackbird Presents - released last Friday in multiple formats, including Blu-ray, DVD, CD, and various combo packs – certainly lives up to its title. Captured and presented in stunning HD with true Dolby 5.1 surround stereo, the concert film and companion audio recordings include a wide range of songs Harris has recorded, including "Born to Run," "Red Dirt Girl," "Boulder to Birmingham," "Two More Bottles of Wine," "Till I Gain Control Again," and "Sin City."
The Life & Songs of Emmylou Harris - An AllStar Concert Celebration (2016)):

Tracklist:

1. One Of These Days - Buddy Miller
2. Will The Circle Be Unbroken - Mavis Staples
3. Red Dirt Girl - Shawn Colvin
4. Michelangelo - The Milk Carton Kids
5. Wheels - Chris Hillman & Herb Pedersen
6. Orphan Girl - Holly Williams & Chris Coleman
7. Bluebird Wine - Trampled By Turtles
8. Hickory Wind - Lucinda Williams
9. You're Still On My Mind - Rodney Crowell
10. Born To Run - Lee Ann Womack
11. When We're Gone, Long Gone - John Starling & Emmylou Harris
12. Blackhawk - Daniel Lanois & Emmylou Harris
13. Wrecking Ball- Iron & Wine, Daniel Lanois
14. Leaving Louisiana In The Broad Daylight - Shovels & Rope
15. All The Roadrunning - Mary Chapin Carpenter & Vince Gill
16. The Pearl - Conor Oberst, Shawn Colvin & Patty Griffin
17. When I Stop Dreaming - Martina McBride
18. Prayer In Open D - Patty Griffin
19. Pancho And Lefty - Steve Earle, Lee Ann Womack & Herb Pedersen
20. Together Again - Vince Gill
21. Two More Bottles of Wine - Sheryl Crow, Vince Gill
22. Loving Her Was Easier (Than Anything I'll Ever Do Again) - Kris Kristofferson
23. Till I Gain Control Again - Alison Krauss
24. Cash On The Barrelhead - Alison Krauss
25. Boulder To Birmingham - Emmylou Harris (with Full Ensemble)

Bonus : [00:08:04]
26. Sin City - Steve Earle
27. Darkest Hour Is Just Before Dawn - Sara Watkins

Disc Title: The Life & Songs of Emmylou Harris.An AllStar Concert Celebration.2016.BD1080i
Disc Size: 19 464 044 700 bytes
Protection: AACS
BD-Java: No
BDInfo: 0.5.8

Notes:

BDINFO HOME:
Cinema Squid
http://www.cinemasquid.com/blu-ray/tools/bdinfo

INCLUDES FORUMS REPORT FOR:
AVS Forum Blu-ray Audio and Video Specifications Thread
http://www.avsforum.com/avs-vb/showthread.php?t=1155731

WARNING: Report is incomplete because: Scan has not been run.

********************
PLAYLIST: 00000.MPLS
********************

<–- BEGIN FORUMS PASTE –->
                                                                                                                Total   Video                                             
Title                                                           Codec   Length  Movie Size      Disc Size       Bitrate Bitrate Main Audio Track                          Secondary Audio Track
-----                                                           ------  ------- --------------  --------------  ------- ------- ------------------                        ---------------------
00000.MPLS                                                      AVC     1:51:34 0               19 464 044 700  0,00    0,00    DTS-HD Master 5.1 (48kHz/24-bit)          DTS-HD Master 2.0 (48kHz/24-bit)


DISC INFO:

Disc Title:     The Life & Songs of Emmylou Harris.An AllStar Concert Celebration.2016.BD1080i
Disc Size:      19 464 044 700 bytes
Protection:     AACS
BD-Java:        No
BDInfo:         0.5.8

PLAYLIST REPORT:

Name:                   00000.MPLS
Length:                 1:51:34.287 (h:m:s.ms)
Size:                   0 bytes
Total Bitrate:          0,00 Mbps

VIDEO:

Codec                   Bitrate             Description     
-----                   -------             -----------     
MPEG-4 AVC Video        0 kbps              1080i / 29,970 fps / 16:9 / High Profile 4.1

AUDIO:

Codec                           Language        Bitrate         Description     
-----                           --------        -------         -----------     
DTS-HD Master Audio             English         0 kbps          5.1 / 48 kHz / 24-bit (DTS Core: 5.1 / 48 kHz / 1509 kbps / 24-bit)
DTS-HD Master Audio             English         0 kbps          2.0 / 48 kHz / 24-bit (DTS Core: 2.0 / 48 kHz / 1509 kbps / 24-bit)

FILES:

Name            Time In         Length          Size            Total Bitrate   
----            -------         ------          ----            -------------   
00008.M2TS      0:00:00.000     1:51:34.287     0               0               

CHAPTERS:

Number          Time In         Length          Avg Video Rate  Max 1-Sec Rate  Max 1-Sec Time  Max 5-Sec Rate  Max 5-Sec Time  Max 10Sec Rate  Max 10Sec Time  Avg Frame Size  Max Frame Size  Max Frame Time  
------          -------         ------          --------------  --------------  --------------  --------------  --------------  --------------  --------------  --------------  --------------  --------------  
1               0:00:00.000     0:01:25.885     0 kbps          0 kbps          00:00:00.000    0 kbps          00:00:00.000    0 kbps          00:00:00.000    0 bytes         0 bytes         00:00:00.000    
2               0:01:25.885     0:03:03.149     0 kbps          0 kbps          00:00:00.000    0 kbps          00:00:00.000    0 kbps          00:00:00.000    0 bytes         0 bytes         00:00:00.000    
3               0:04:29.035     0:04:26.299     0 kbps          0 kbps          00:00:00.000    0 kbps          00:00:00.000    0 kbps          00:00:00.000    0 bytes         0 bytes         00:00:00.000    
4               0:08:55.334     0:04:50.556     0 kbps          0 kbps          00:00:00.000    0 kbps          00:00:00.000    0 kbps          00:00:00.000    0 bytes         0 bytes         00:00:00.000    
5               0:13:45.891     0:05:44.711     0 kbps          0 kbps          00:00:00.000    0 kbps          00:00:00.000    0 kbps          00:00:00.000    0 bytes         0 bytes         00:00:00.000    
6               0:19:30.602     0:03:09.889     0 kbps          0 kbps          00:00:00.000    0 kbps          00:00:00.000    0 kbps          00:00:00.000    0 bytes         0 bytes         00:00:00.000    
7               0:22:40.492     0:03:52.098     0 kbps          0 kbps          00:00:00.000    0 kbps          00:00:00.000    0 kbps          00:00:00.000    0 bytes         0 bytes         00:00:00.000    
8               0:26:32.590     0:03:21.568     0 kbps          0 kbps          00:00:00.000    0 kbps          00:00:00.000    0 kbps          00:00:00.000    0 bytes         0 bytes         00:00:00.000    
9               0:29:54.159     0:04:24.030     0 kbps          0 kbps          00:00:00.000    0 kbps          00:00:00.000    0 kbps          00:00:00.000    0 bytes         0 bytes         00:00:00.000    
10              0:34:18.189     0:03:39.185     0 kbps          0 kbps          00:00:00.000    0 kbps          00:00:00.000    0 kbps          00:00:00.000    0 bytes         0 bytes         00:00:00.000    
11              0:37:57.375     0:04:13.319     0 kbps          0 kbps          00:00:00.000    0 kbps          00:00:00.000    0 kbps          00:00:00.000    0 bytes         0 bytes         00:00:00.000    
12              0:42:10.694     0:04:06.646     0 kbps          0 kbps          00:00:00.000    0 kbps          00:00:00.000    0 kbps          00:00:00.000    0 bytes         0 bytes         00:00:00.000    
13              0:46:17.341     0:05:46.446     0 kbps          0 kbps          00:00:00.000    0 kbps          00:00:00.000    0 kbps          00:00:00.000    0 bytes         0 bytes         00:00:00.000    
14              0:52:03.787     0:04:55.995     0 kbps          0 kbps          00:00:00.000    0 kbps          00:00:00.000    0 kbps          00:00:00.000    0 bytes         0 bytes         00:00:00.000    
15              0:56:59.783     0:03:48.962     0 kbps          0 kbps          00:00:00.000    0 kbps          00:00:00.000    0 kbps          00:00:00.000    0 bytes         0 bytes         00:00:00.000    
16              1:00:48.745     0:05:01.934     0 kbps          0 kbps          00:00:00.000    0 kbps          00:00:00.000    0 kbps          00:00:00.000    0 bytes         0 bytes         00:00:00.000    
17              1:05:50.680     0:05:08.808     0 kbps          0 kbps          00:00:00.000    0 kbps          00:00:00.000    0 kbps          00:00:00.000    0 bytes         0 bytes         00:00:00.000    
18              1:10:59.488     0:03:39.252     0 kbps          0 kbps          00:00:00.000    0 kbps          00:00:00.000    0 kbps          00:00:00.000    0 bytes         0 bytes         00:00:00.000    
19              1:14:38.740     0:04:38.378     0 kbps          0 kbps          00:00:00.000    0 kbps          00:00:00.000    0 kbps          00:00:00.000    0 bytes         0 bytes         00:00:00.000    
20              1:19:17.119     0:05:00.500     0 kbps          0 kbps          00:00:00.000    0 kbps          00:00:00.000    0 kbps          00:00:00.000    0 bytes         0 bytes         00:00:00.000    
21              1:24:17.619     0:04:18.157     0 kbps          0 kbps          00:00:00.000    0 kbps          00:00:00.000    0 kbps          00:00:00.000    0 bytes         0 bytes         00:00:00.000    
22              1:28:35.777     0:03:19.699     0 kbps          0 kbps          00:00:00.000    0 kbps          00:00:00.000    0 kbps          00:00:00.000    0 bytes         0 bytes         00:00:00.000    
23              1:31:55.476     0:03:28.808     0 kbps          0 kbps          00:00:00.000    0 kbps          00:00:00.000    0 kbps          00:00:00.000    0 bytes         0 bytes         00:00:00.000    
24              1:35:24.285     0:05:39.639     0 kbps          0 kbps          00:00:00.000    0 kbps          00:00:00.000    0 kbps          00:00:00.000    0 bytes         0 bytes         00:00:00.000    
25              1:41:03.924     0:03:14.694     0 kbps          0 kbps          00:00:00.000    0 kbps          00:00:00.000    0 kbps          00:00:00.000    0 bytes         0 bytes         00:00:00.000    
26              1:44:18.619     0:04:55.728     0 kbps          0 kbps          00:00:00.000    0 kbps          00:00:00.000    0 kbps          00:00:00.000    0 bytes         0 bytes         00:00:00.000    
27              1:49:14.347     0:02:19.939     0 kbps          0 kbps          00:00:00.000    0 kbps          00:00:00.000    0 kbps          00:00:00.000    0 bytes         0 bytes         00:00:00.000    

STREAM DIAGNOSTICS:

File            PID             Type            Codec           Language                Seconds                 Bitrate                 Bytes           Packets         
----            ---             ----            -----           --------                --------------          --------------          -------------   -----           
00008.M2TS      4113 (0x1011)   0x1B            AVC                                     0,033                   0                       0               0               
00008.M2TS      4352 (0x1100)   0x86            DTS-HD MA       eng (English)           0,033                   0                       0               0               
00008.M2TS      4353 (0x1101)   0x86            DTS-HD MA       eng (English)           0,033                   0                       0               0               

<–– END FORUMS PASTE ––>

QUICK SUMMARY:

Disc Title: The Life & Songs of Emmylou Harris.An AllStar Concert Celebration.2016.BD1080i
Disc Size: 19 464 044 700 bytes
Protection: AACS
BD-Java: No
Playlist: 00000.MPLS
Size: 0 bytes
Length: 1:51:34.287
Total Bitrate: 0,00 Mbps
Video: MPEG-4 AVC Video / 0 kbps / 1080i / 29,970 fps / 16:9 / High Profile 4.1
Audio: English / DTS-HD Master Audio / 5.1 / 48 kHz / 24-bit (DTS Core: 5.1 / 48 kHz / 1509 kbps / 24-bit)
Audio: English / DTS-HD Master Audio / 2.0 / 48 kHz / 24-bit (DTS Core: 2.0 / 48 kHz / 1509 kbps / 24-bit)


********************
PLAYLIST: 00001.MPLS
********************

<–- BEGIN FORUMS PASTE –->
                                                                                                                Total   Video                                             
Title                                                           Codec   Length  Movie Size      Disc Size       Bitrate Bitrate Main Audio Track                          Secondary Audio Track
-----                                                           ------  ------- --------------  --------------  ------- ------- ------------------                        ---------------------
00001.MPLS                                                      AVC     0:08:04 0               19 464 044 700  0,00    0,00    DTS-HD Master 5.1 (48kHz/24-bit)          DTS-HD Master 2.0 (48kHz/24-bit)


DISC INFO:

Disc Title:     The Life & Songs of Emmylou Harris.An AllStar Concert Celebration.2016.BD1080i
Disc Size:      19 464 044 700 bytes
Protection:     AACS
BD-Java:        No
BDInfo:         0.5.8

PLAYLIST REPORT:

Name:                   00001.MPLS
Length:                 0:08:04.150 (h:m:s.ms)
Size:                   0 bytes
Total Bitrate:          0,00 Mbps

VIDEO:

Codec                   Bitrate             Description     
-----                   -------             -----------     
MPEG-4 AVC Video        0 kbps              1080i / 29,970 fps / 16:9 / High Profile 4.1

AUDIO:

Codec                           Language        Bitrate         Description     
-----                           --------        -------         -----------     
DTS-HD Master Audio             English         0 kbps          5.1 / 48 kHz / 24-bit (DTS Core: 5.1 / 48 kHz / 1509 kbps / 24-bit)
DTS-HD Master Audio             English         0 kbps          2.0 / 48 kHz / 24-bit (DTS Core: 2.0 / 48 kHz / 1509 kbps / 24-bit)

FILES:

Name            Time In         Length          Size            Total Bitrate   
----            -------         ------          ----            -------------   
00006.M2TS      0:00:00.000     0:05:02.168     0               0               
00007.M2TS      0:05:02.168     0:03:01.981     0               0               

CHAPTERS:

Number          Time In         Length          Avg Video Rate  Max 1-Sec Rate  Max 1-Sec Time  Max 5-Sec Rate  Max 5-Sec Time  Max 10Sec Rate  Max 10Sec Time  Avg Frame Size  Max Frame Size  Max Frame Time  
------          -------         ------          --------------  --------------  --------------  --------------  --------------  --------------  --------------  --------------  --------------  --------------  
1               0:00:00.000     0:05:02.168     0 kbps          0 kbps          00:00:00.000    0 kbps          00:00:00.000    0 kbps          00:00:00.000    0 bytes         0 bytes         00:00:00.000    
2               0:05:02.168     0:03:01.981     0 kbps          0 kbps          00:00:00.000    0 kbps          00:00:00.000    0 kbps       			  		 	 	  		 	    	 			   		  	   		  	   		 	    	 			   		   	  		 	 	  		      	 			   		  	   		 	  			    00:00:00.000    0 bytes         0 bytes         00:00:00.000    

STREAM DIAGNOSTICS:

File            PID             Type            Codec           Language                Seconds                 Bitrate                 Bytes           Packets         
----            ---             ----            -----           --------                --------------          --------------          -------------   -----           
00006.M2TS      4113 (0x1011)   0x1B            AVC                                     0,033                   0                       0               0               
00006.M2TS      4352 (0x1100)   0x86            DTS-HD MA       eng (English)           0,033                   0                       0               0               
00006.M2TS      4353 (0x1101)   0x86            DTS-HD MA       eng (English)           0,033                   0                       0               0               
00007.M2TS      4113 (0x1011)   0x1B            AVC                                     0,033                   0                       0               0               
00007.M2TS      4352 (0x1100)   0x86            DTS-HD MA       eng (English)           0,033                   0                       0               0               
00007.M2TS      4353 (0x1101)   0x86            DTS-HD MA       eng (English)           0,033                   0                       0               0               

<–– END FORUMS PASTE ––>

QUICK SUMMARY:

Disc Title: The Life & Songs of Emmylou Harris.An AllStar Concert Celebration.2016.BD1080i
Disc Size: 19 464 044 700 bytes
Protection: AACS
BD-Java: No
Playlist: 00001.MPLS
Size: 0 bytes
Length: 0:08:04.150
Total Bitrate: 0,00 Mbps
Video: MPEG-4 AVC Video / 0 kbps / 1080i / 29,970 fps / 16:9 / High Profile 4.1
Audio: English / DTS-HD Master Audio / 5.1 / 48 kHz / 24-bit (DTS Core: 5.1 / 48 kHz / 1509 kbps / 24-bit)
Audio: English / DTS-HD Master Audio / 2.0 / 48 kHz / 24-bit (DTS Core: 2.0 / 48 kHz / 1509 kbps / 24-bit)



The Life & Songs of Emmylou Harris - An AllStar Concert Celebration (2016)

The Life & Songs of Emmylou Harris - An AllStar Concert Celebration (2016)

The Life & Songs of Emmylou Harris - An AllStar Concert Celebration (2016)

The Life & Songs of Emmylou Harris - An AllStar Concert Celebration (2016)

The Life & Songs of Emmylou Harris - An AllStar Concert Celebration (2016)

All thanks go to the original releaser

Emmylou Harris in my Blog

Download The Life & Songs of Emmylou Harris - An AllStar Concert Celebration (2016):