Subcategories
Tags
Language
Tags

The Lovin’ Spoonful - Revelation: Revolution '69 (1969) {2008, Japanese Reissue}

Posted By: popsakov
The Lovin’ Spoonful - Revelation: Revolution '69 (1969) {2008, Japanese Reissue}

The Lovin’ Spoonful - Revelation: Revolution '69 (2008) {2008, Japanese Reissue}
EAC Rip | WavPack (Img) + Cue + Log ~ 297 Mb | MP3 CBR320 ~ 147 Mb
Full Scans | 00:39:49 | RAR 5% Recovery
Folk Rock, Psychedelic Rock, Pop Rock | BMG Japan, Inc. #BVCM-35456

The band is billed here as "the Lovin' Spoonful Featuring Joe Butler." Just when everybody had written them off after Sebastian's departure, this flawed gem came out of left field. Butler's smooth voice had graced a few tracks on all of the past LPs, in addition to having a few of his own tunes included. He comes into his own here, but unfortunately, his three originals are the weakest songs on the LP, especially the ultra-hip sound collage "War Games." However, the great pop team of Bonner and Gordon came up with three strong tunes, including the hit "Me About You" (previously done by The Turtles) and the fine "(Till I) Run with You" (the title of the LP as written on the label), with John Stewart supplying the best track, the gorgeous "Never Going Back."

~ Gary Mollica, All Music

***************

The Lovin’ Spoonful - Revelation: Revolution '69 (1969) {2008, Japanese Reissue}

Track List:

01. Amazing Air [2:57]
02. Never Going Back [2:56]
03. The Prophet [2:52]
04. Only Yesterday [2:49]
05. War Games [7:03]
06. (Til I) Run With You [1:59]
07. Jug of Wine [2:50]
08. Revelation: Revolution '69 [2:27]
09. Me About You [3:52]
10. Words [2:25]
11. Revelation: Revolution '69 (single version / alternate mix) [2:32]
12. Revelation: Revolution '69 (single version / alternate vocal) [2:21]
13. Me About You (single version) [2:49]

Exact Audio Copy V1.3 from 2. September 2016

EAC extraction logfile from 27. July 2019, 5:47

The Lovin’ Spoonful / Revelation. Revolution '69

Used drive : PLEXTOR DVDR PX-L890SA Adapter: 1 ID: 0

Read mode : Secure
Utilize accurate stream : Yes
Defeat audio cache : Yes
Make use of C2 pointers : No

Read offset correction : 6
Overread into Lead-In and Lead-Out : No
Fill up missing offset samples with silence : Yes
Delete leading and trailing silent blocks : No
Null samples used in CRC calculations : Yes
Used interface : Native Win32 interface for Win NT & 2000

Used output format : User Defined Encoder
Selected bitrate : 1024 kBit/s
Quality : High
Add ID3 tag : No
Command line compressor : C:\Program Files (x86)\Exact Audio Copy\wavpack.exe
Additional command line options : -lm %source%


TOC of the extracted CD

Track | Start | Length | Start sector | End sector
––––––––––––––––––––––––––––-
1 | 0:00.00 | 2:56.65 | 0 | 13264
2 | 2:56.65 | 2:55.54 | 13265 | 26443
3 | 5:52.44 | 2:51.71 | 26444 | 39339
4 | 8:44.40 | 2:48.56 | 39340 | 51995
5 | 11:33.21 | 7:02.41 | 51996 | 83686
6 | 18:35.62 | 1:58.38 | 83687 | 92574
7 | 20:34.25 | 2:49.70 | 92575 | 105319
8 | 23:24.20 | 2:26.66 | 105320 | 116335
9 | 25:51.11 | 3:52.28 | 116336 | 133763
10 | 29:43.39 | 2:24.64 | 133764 | 144627
11 | 32:08.28 | 2:31.47 | 144628 | 155999
12 | 34:40.00 | 2:20.61 | 156000 | 166560
13 | 37:00.61 | 2:48.42 | 166561 | 179202


Range status and errors

Selected range

Filename D:\wwphil\The Lovin’ Spoonful - Revelation. Revolution '69\The Lovin’ Spoonful - Revelation. Revolution '69.wav

Peak level 100.0 %
Extraction speed 7.9 X
Range quality 100.0 %
Test CRC B4DAB0DB
Copy CRC B4DAB0DB
Copy OK

No errors occurred


AccurateRip summary

Track 1 accurately ripped (confidence 2) [C0CDCAF4] (AR v2)
Track 2 accurately ripped (confidence 2) [56BC3753] (AR v2)
Track 3 accurately ripped (confidence 2) [9902B781] (AR v2)
Track 4 accurately ripped (confidence 2) [01FD3F97] (AR v2)
Track 5 accurately ripped (confidence 2) [FB2C5F95] (AR v2)
Track 6 accurately ripped (confidence 2) [590D9A0C] (AR v2)
Track 7 accurately ripped (confidence 2) [7BA8C724] (AR v2)
Track 8 accurately ripped (confidence 2) [70D3DB35] (AR v2)
Track 9 accurately ripped (confidence 2) [ABAC310D] (AR v2)
Track 10 accurately ripped (confidence 2) [73AAD86F] (AR v2)
Track 11 accurately ripped (confidence 2) [A915F07E] (AR v2)
Track 12 accurately ripped (confidence 2) [C8311EAF] (AR v2)
Track 13 accurately ripped (confidence 2) [7E312062] (AR v2)

All tracks accurately ripped

End of status report

==== Log checksum BDF1D039499D473C0CDE0D310CCC93F4BB1F19EDB622AB15706C9172BC3101BB ====

The Lovin’ Spoonful - Revelation: Revolution '69 (1969) {2008, Japanese Reissue}


All thanks go to wwphil

>>> My Blog <<<

DOWNLOAD: