Tags
Language
Tags

The Maypole - Falling Angels [Recorded 1973-1974] (2008) (Re-up)

Posted By: gribovar
The Maypole - Falling Angels [Recorded 1973-1974] (2008) (Re-up)

The Maypole - Falling Angels [Recorded 1973-1974] (2008)
EAC Rip | FLAC (tracks+.cue+log) - 252 MB | MP3 CBR 320 kbps (LAME 3.93) - 125 MB | Covers - 3 MB
Genre: Psychedelic Rock, Classic Rock | RAR 3% Rec. | Label: Gear Fab (GF-232)

Maypole were one of the great bands to explode on the scene in the late 60's. Originally from the Baltimore area, their 1970 LP "The Real" is revered by many collectors. This is the second album by Maypole, which consists of studio sessions recorded in Miami from 1973-1974 which have never been released before. 53 minutes of hard driving rock tastefully injected with some nice orchestration.
Tracklist:
01. Gotta Let Go
02. The Move
03. Got To Talk To You
04. The Dream
05. Searchin
06. Golden Boy
07. One Beat
08. Castle Tower
09. Eyes That See
10. Sunnyside
11. One More Drop
12. River Flow It Away

Total time: 53:13

Exact Audio Copy V1.0 beta 1 from 15. November 2010

EAC extraction logfile from 5. May 2011, 17:19

The Maypole / Falling Angels

Used drive : Optiarc DVD RW AD-7203A Adapter: 1 ID: 0

Read mode : Secure
Utilize accurate stream : Yes
Defeat audio cache : Yes
Make use of C2 pointers : No

Read offset correction : 48
Overread into Lead-In and Lead-Out : No
Fill up missing offset samples with silence : Yes
Delete leading and trailing silent blocks : No
Null samples used in CRC calculations : Yes
Used interface : Installed external ASPI interface
Gap handling : Appended to previous track

Used output format : Пользовательский кодировщик
Selected bitrate : 1024 kBit/s
Quality : High
Add ID3 tag : No
Command line compressor : C:\Program Files\Exact Audio Copy\FLAC\FLAC.EXE
Additional command line options : -6 -V -T "ARTIST=%a" -T "TITLE=%t" -T "ALBUM=%g" -T "DATE=%y" -T "TRACKNUMBER=%n" -T "GENRE=%m" -T "COMMENT=%e" %j–picture="%i"%j %s -o %d


TOC of the extracted CD

Track | Start | Length | Start sector | End sector
––––––––––––––––––––––––––––-
1 | 0:00.00 | 3:48.04 | 0 | 17103
2 | 3:48.04 | 4:11.37 | 17104 | 35965
3 | 7:59.41 | 3:30.48 | 35966 | 51763
4 | 11:30.14 | 4:04.39 | 51764 | 70102
5 | 15:34.53 | 4:37.50 | 70103 | 90927
6 | 20:12.28 | 4:32.53 | 90928 | 111380
7 | 24:45.06 | 4:25.60 | 111381 | 131315
8 | 29:10.66 | 4:29.50 | 131316 | 151540
9 | 33:40.41 | 5:12.07 | 151541 | 174947
10 | 38:52.48 | 3:31.20 | 174948 | 190792
11 | 42:23.68 | 6:00.18 | 190793 | 217810
12 | 48:24.11 | 4:49.38 | 217811 | 239523


Track 1

Filename C:\EAC\01. - Gotta Let Go.wav

Pre-gap length 0:00:02.00

Peak level 30.4 %
Extraction speed 2.2 X
Track quality 100.0 %
Test CRC 7BD55DF8
Copy CRC 7BD55DF8
Track not present in AccurateRip database
Copy OK

Track 2

Filename C:\EAC\02. - The Move.wav

Pre-gap length 0:00:02.00

Peak level 31.5 %
Extraction speed 2.5 X
Track quality 100.0 %
Test CRC CB767F24
Copy CRC CB767F24
Track not present in AccurateRip database
Copy OK

Track 3

Filename C:\EAC\03. - Got To Talk To You.wav

Pre-gap length 0:00:02.00

Peak level 30.0 %
Extraction speed 2.7 X
Track quality 100.0 %
Test CRC A647DA7A
Copy CRC A647DA7A
Track not present in AccurateRip database
Copy OK

Track 4

Filename C:\EAC\04. - The Dream.wav

Pre-gap length 0:00:02.00

Peak level 40.2 %
Extraction speed 2.9 X
Track quality 100.0 %
Test CRC 9CE50A21
Copy CRC 9CE50A21
Track not present in AccurateRip database
Copy OK

Track 5

Filename C:\EAC\05. - Searchin.wav

Pre-gap length 0:00:02.00

Peak level 39.4 %
Extraction speed 3.2 X
Track quality 100.0 %
Test CRC 2897B457
Copy CRC 2897B457
Track not present in AccurateRip database
Copy OK

Track 6

Filename C:\EAC\06. - Golden Boy.wav

Pre-gap length 0:00:02.00

Peak level 29.7 %
Extraction speed 3.4 X
Track quality 100.0 %
Test CRC 9AC501D7
Copy CRC 9AC501D7
Track not present in AccurateRip database
Copy OK

Track 7

Filename C:\EAC\07. - One Beat.wav

Pre-gap length 0:00:02.00

Peak level 30.1 %
Extraction speed 3.6 X
Track quality 100.0 %
Test CRC 0F90A22F
Copy CRC 0F90A22F
Track not present in AccurateRip database
Copy OK

Track 8

Filename C:\EAC\08. - Castle Tower.wav

Pre-gap length 0:00:02.00

Peak level 31.3 %
Extraction speed 3.8 X
Track quality 100.0 %
Test CRC 143A1153
Copy CRC 143A1153
Track not present in AccurateRip database
Copy OK

Track 9

Filename C:\EAC\09. - Eyes That See.wav

Pre-gap length 0:00:02.00

Peak level 30.7 %
Extraction speed 4.0 X
Track quality 100.0 %
Test CRC 47B507B9
Copy CRC 47B507B9
Track not present in AccurateRip database
Copy OK

Track 10

Filename C:\EAC\10. - Sunnyside.wav

Pre-gap length 0:00:02.00

Peak level 44.9 %
Extraction speed 4.0 X
Track quality 100.0 %
Test CRC 903B9433
Copy CRC 903B9433
Track not present in AccurateRip database
Copy OK

Track 11

Filename C:\EAC\11. - One More Drop.wav

Pre-gap length 0:00:02.00

Peak level 28.9 %
Extraction speed 4.4 X
Track quality 100.0 %
Test CRC 277A6AE7
Copy CRC 277A6AE7
Track not present in AccurateRip database
Copy OK

Track 12

Filename C:\EAC\12. - River Flow It Away.wav

Pre-gap length 0:00:02.00

Peak level 30.2 %
Extraction speed 4.5 X
Track quality 100.0 %
Test CRC 3DF90CF4
Copy CRC 3DF90CF4
Track not present in AccurateRip database
Copy OK


None of the tracks are present in the AccurateRip database

No errors occurred

End of status report

==== Log checksum C894D473C7F3546F85849E6A33DEE45262281A33598C00D9E0A2F62782DCDF8D ====

[CUETools log; Date: 25.09.2021 16:02:54; Version: 2.1.4]
[CTDB TOCID: 9E1t4SgXWGuGNlK3DoV9ivTnOco-] found.
Track | CTDB Status
1 | (2/2) Accurately ripped
2 | (2/2) Accurately ripped
3 | (2/2) Accurately ripped
4 | (2/2) Accurately ripped
5 | (2/2) Accurately ripped
6 | (2/2) Accurately ripped
7 | (2/2) Accurately ripped
8 | (2/2) Accurately ripped
9 | (2/2) Accurately ripped
10 | (2/2) Accurately ripped
11 | (2/2) Accurately ripped
12 | (2/2) Accurately ripped
[AccurateRip ID: 0016a1ab-00d5da51-950c790c] found.
Track [ CRC | V2 ] Status
01 [d41dffaf|2a5f9d7c] (0+1/1) Accurately ripped
02 [821338d1|e8162072] (0+1/1) Accurately ripped
03 [f317408d|b38ceb5c] (0+1/1) Accurately ripped
04 [e66a716d|b29d4a9f] (0+1/1) Accurately ripped
05 [bce20701|22276fbf] (0+1/1) Accurately ripped
06 [76d15b1e|89686420] (0+1/1) Accurately ripped
07 [31f32dd7|e067fb39] (0+1/1) Accurately ripped
08 [01c413ba|1461696f] (0+1/1) Accurately ripped
09 [4af0ec57|67f1b122] (0+1/1) Accurately ripped
10 [03d9104b|6a9b2e38] (0+1/1) Accurately ripped
11 [7411b84d|85b5e066] (0+1/1) Accurately ripped
12 [37e42887|5159ff70] (0+1/1) Accurately ripped

Track Peak [ CRC32 ] [W/O NULL] [ LOG ]
– 44,9 [EF0654BF] [1F50BA20]
01 30,4 [7BD55DF8] [B3ABED65] CRC32
02 31,5 [CB767F24] [D3DAA479] CRC32
03 30,0 [A647DA7A] [3D8A0F80] CRC32
04 40,2 [9CE50A21] [D9D3AF79] CRC32
05 39,4 [2897B457] [36FDD2F6] CRC32
06 29,7 [9AC501D7] [AA7697EE] CRC32
07 30,1 [0F90A22F] [336F2B29] CRC32
08 31,3 [143A1153] [6618CFBC] CRC32
09 30,7 [47B507B9] [585C174D] CRC32
10 44,9 [903B9433] [73AA74BD] CRC32
11 28,9 [277A6AE7] [33805DFA] CRC32
12 30,2 [3DF90CF4] [4A6962B7] CRC32

Thanks to Gera1957