The Moody Blues - The Story Of The Moody Blues... Legend Of A Band (1990) Repost / New Rip

Posted By: popsakov
The Moody Blues - The Story Of The Moody Blues... Legend Of A Band (1990) Repost / New Rip

The Moody Blues - The Story Of The Moody Blues… Legend Of A Band (1990)
EAC Rip | FLAC (Img) + Cue + Log ~ 405 Mb | MP3 CBR320 ~ 153 Mb
Scans (PNG, 400 dpi) ~ 65 Mb | RAR 5% Recovery
Classic Rock / Psychedelic Rock / Art Rock / Progressive Rock
Ⓟ 1989 / © 1990 PolyGram Records / Threshold Records / Polydor #840 659-2

With a career as illustrious as the Moody Blues, it's difficult to group together all their best material on a single disc, but Legend of a Band acts as a brief yet pleasant jaunt through some of their most popular work. While some of their early material is deemed slightly progressive because of lengthy keyboard suites and instrumental runs, it wasn't until the mid- to late '70s that their music began to take a more rock & roll-oriented path. Even though only 12 songs make up this hits collection, they do offer a definitive cross section of their music. The early tracks, which include classics like "Tuesday Afternoon," "Question," and "The Story in Your Eyes," as well as their highest-charting single, the dreamy "Nights in White Satin," aptly display their late-'60, early-'70s sound. It was songs such as these that melded a fairy-tale guitar feel and wavy synthesizer washes with Justin Hayward's fragile voice. This set also includes their late-'80s hits which contained a slightly edgier rock & roll sound, with a touch more bite on the guitars and friendlier, catchier choruses. Songs like "I Know You're Out There Somewhere" and "Your Wildest Dreams" come from the last years of their career, but still carry a certain magic that rides on Hayward's velvety singing. The Moody Blues' sound is one that is truly unique because of their curved melodies and glossy guitar/keyboard flow, unlike many bands of their era. This compilation acts as an excellent introduction for someone who is curious about their music.
~ Mike DeGagne, All Music
The Moody Blues - The Story Of The Moody Blues... Legend Of A Band (1990) Repost / New Rip


***************

The Moody Blues - The Story Of The Moody Blues... Legend Of A Band (1990) Repost / New Rip

The Moody Blues - The Story Of The Moody Blues... Legend Of A Band (1990) Repost / New Rip

Track List:

01. Your Wildest Dreams [4:51]
02. The Voice [5:17]
03. Gemini Dream [4:09]
04. The Story In Your Eyes (Single Version) [3:06]
05. Tuesday Afternoon [4:53]
06. Isn't Life Strange (1989 Version) [6:41]
07. Nights In White Satin (Incl. Late Lament) (Original Mix) [7:39]
08. I Know You're Out There Somewhere [6:39]
09. The Other Side Of Life [6:52]
10. Ride My See-Saw (Single Version) [3:47]
11. I'm Just A Singer (In A Rock And Roll Band) [4:20]
12. Question (1989 Version) [5:45]

Exact Audio Copy V1.1 from 23. June 2015

EAC extraction logfile from 3. June 2017, 19:31

The Moody Blues / Greatest Hits (1989 Polydor Canada 840 659-2)

Used drive : MATSHITADVD+-RW SW830 Adapter: 1 ID: 0

Read mode : Secure
Utilize accurate stream : Yes
Defeat audio cache : Yes
Make use of C2 pointers : No

Read offset correction : 6
Overread into Lead-In and Lead-Out : No
Fill up missing offset samples with silence : Yes
Delete leading and trailing silent blocks : No
Null samples used in CRC calculations : Yes
Used interface : Native Win32 interface for Win NT & 2000

Used output format : User Defined Encoder
Selected bitrate : 768 kBit/s
Quality : High
Add ID3 tag : No
Command line compressor : C:\Program Files (x86)\Exact Audio Copy\FLAC\FLAC.EXE
Additional command line options : -6 -V -T "ARTIST=%artist%" -T "TITLE=%title%" -T "ALBUM=%albumtitle%" -T "DATE=%year%" -T "TRACKNUMBER=%tracknr%" -T "GENRE=%genre%" -T "COMMENT=%comment%" -T "BAND=%albuminterpret%" -T "ALBUMARTIST=%albuminterpret%" -T "COMPOSER=%composer%" %haslyrics%–tag-from-file=LYRICS="%lyricsfile%"%haslyrics% -T "DISCNUMBER=%cdnumber%" -T "TOTALDISCS=%totalcds%" -T "TOTALTRACKS=%numtracks%" %hascover%–picture="%coverfile%"%hascover% %source% -o %dest%


TOC of the extracted CD

Track | Start | Length | Start sector | End sector
––––––––––––––––––––––––––––-
1 | 0:00.32 | 4:51.20 | 32 | 21876
2 | 4:51.52 | 5:16.73 | 21877 | 45649
3 | 10:08.50 | 4:08.50 | 45650 | 64299
4 | 14:17.25 | 3:05.70 | 64300 | 78244
5 | 17:23.20 | 4:52.47 | 78245 | 100191
6 | 22:15.67 | 6:40.58 | 100192 | 130249
7 | 28:56.50 | 7:38.70 | 130250 | 164669
8 | 36:35.45 | 6:38.70 | 164670 | 194589
9 | 43:14.40 | 6:51.70 | 194590 | 225484
10 | 50:06.35 | 3:46.40 | 225485 | 242474
11 | 53:53.00 | 4:19.50 | 242475 | 261949
12 | 58:12.50 | 5:44.65 | 261950 | 287814


Range status and errors

Selected range

Filename C:\Users\Boris\Desktop\MoodyBest\The Moody Blues - Greatest Hits (1989 Polydor Canada 840 659-2).wav

Peak level 100.0 %
Extraction speed 3.4 X
Range quality 100.0 %
Test CRC 4EB0D5E1
Copy CRC 4EB0D5E1
Copy OK

No errors occurred


AccurateRip summary

Track 1 accurately ripped (confidence 79) [B5E276E2] (AR v2)
Track 2 accurately ripped (confidence 77) [C3398295] (AR v2)
Track 3 accurately ripped (confidence 79) [E6F3696D] (AR v2)
Track 4 accurately ripped (confidence 78) [5716D2FA] (AR v2)
Track 5 accurately ripped (confidence 78) [B779379A] (AR v2)
Track 6 accurately ripped (confidence 77) [DEEE4616] (AR v2)
Track 7 accurately ripped (confidence 77) [A93E4330] (AR v2)
Track 8 accurately ripped (confidence 78) [19700D52] (AR v2)
Track 9 accurately ripped (confidence 77) [26A419B2] (AR v2)
Track 10 accurately ripped (confidence 78) [810ED0F7] (AR v2)
Track 11 accurately ripped (confidence 76) [48F286F4] (AR v2)
Track 12 accurately ripped (confidence 73) [59A1304E] (AR v2)

All tracks accurately ripped

End of status report

–– CUETools DB Plugin V2.1.6

[CTDB TOCID: WvKlR7fqccW5w1Wq3eLISmlx8Ug-] found
Submit result: WvKlR7fqccW5w1Wq3eLISmlx8Ug- has been confirmed
Track | CTDB Status
1 | (221/234) Accurately ripped
2 | (217/234) Accurately ripped
3 | (224/234) Accurately ripped
4 | (224/234) Accurately ripped
5 | (225/234) Accurately ripped
6 | (221/234) Accurately ripped
7 | (221/234) Accurately ripped
8 | (223/234) Accurately ripped
9 | (219/234) Accurately ripped
10 | (224/234) Accurately ripped
11 | (221/234) Accurately ripped
12 | (216/234) Accurately ripped, or (2/234) differs in 32 samples @04:54:24,05:03:40,05:09:58,05:11:56,05:16:36,05:19:64


==== Log checksum 6415501E1D903AA48124703AA2C7F5186AA56576501468AA7C7F0AA31E7E10B3 ====

foobar2000 1.2.6 / Dynamic Range Meter 1.1.1
log date: 2017-06-09 13:45:53

––––––––––––––––––––––––––––––––––––––––
Analyzed: The Moody Blues / Greatest Hits (1989 Polydor Canada 840 659-2)
––––––––––––––––––––––––––––––––––––––––

DR Peak RMS Duration Track
––––––––––––––––––––––––––––––––––––––––
DR13 -1.33 dB -15.84 dB 4:51 01-Your Wildest Dreams
DR12 -0.23 dB -14.51 dB 5:17 02-The Voice
DR13 0.00 dB -14.37 dB 4:09 03-Gemini Dream
DR11 -0.98 dB -14.29 dB 3:06 04-The Story In Your Eyes (Single Version)
DR12 -0.84 dB -15.63 dB 4:53 05-Tuesday Afternoon
DR13 0.00 dB -19.75 dB 6:41 06-Isn't Life Strange (1989 Version)
DR11 -0.67 dB -16.05 dB 7:39 07-Nights In White Satin (Incl. Late Lament) (Original Mix)
DR13 -0.59 dB -15.71 dB 6:39 08-I Know You're Out There Somewhere
DR13 0.00 dB -15.09 dB 6:52 09-The Other Side Of Life
DR11 -2.15 dB -14.56 dB 3:47 10-Ride My See-Saw (Single Version)
DR13 -0.54 dB -14.82 dB 4:20 11-I'm Just A Singer (In A Rock And Roll Band)
DR15 0.00 dB -18.95 dB 5:45 12-Question (1989 Version)
––––––––––––––––––––––––––––––––––––––––

Number of tracks: 12
Official DR value: DR12

Samplerate: 44100 Hz
Channels: 2
Bits per sample: 16
Bitrate: 843 kbps
Codec: FLAC
================================================================================

[CUETools log; Date: 09.06.2017 13:46:07; Version: 2.1.5]
Pregap length 00:00:32.
[CTDB TOCID: WvKlR7fqccW5w1Wq3eLISmlx8Ug-] found.
Track | CTDB Status
1 | (223/236) Accurately ripped
2 | (219/236) Accurately ripped
3 | (226/236) Accurately ripped
4 | (226/236) Accurately ripped
5 | (227/236) Accurately ripped
6 | (223/236) Accurately ripped
7 | (223/236) Accurately ripped
8 | (225/236) Accurately ripped
9 | (221/236) Accurately ripped
10 | (226/236) Accurately ripped
11 | (223/236) Accurately ripped
12 | (218/236) Accurately ripped, or (2/236) differs in 32 samples @04:54:24,05:03:40,05:09:58,05:11:56,05:16:36,05:19:64
[AccurateRip ID: 001bbbbb-0106b90b-ad0efd0c] found.
Track [ CRC | V2 ] Status
01 [902eac38|b5e276e2] (089+079/434) Accurately ripped
02 [42d3b60c|c3398295] (089+077/431) Accurately ripped
03 [cba48e68|e6f3696d] (092+079/437) Accurately ripped
04 [7f6bcf1c|5716d2fa] (091+078/439) Accurately ripped
05 [47987658|b779379a] (090+078/434) Accurately ripped
06 [28b3a4ab|deee4616] (086+077/431) Accurately ripped
07 [13a2295e|a93e4330] (090+077/432) Accurately ripped
08 [5361065c|19700d52] (088+078/432) Accurately ripped
09 [5df1af30|26a419b2] (086+077/424) Accurately ripped
10 [2f93b1b7|810ed0f7] (088+078/430) Accurately ripped
11 [e6266149|48f286f4] (086+076/420) Accurately ripped
12 [0cff59ec|59a1304e] (089+073/412) Accurately ripped
Offsetted by -1645:
01 [bfb8540d] (005/434) Accurately ripped
02 [0656d7db] (005/431) Accurately ripped
03 [0b8e0222] (005/437) Accurately ripped
04 [a78c0776] (005/439) Accurately ripped
05 [9a4a2b15] (005/434) Accurately ripped
06 [8a3651f0] (005/431) Accurately ripped
07 [13f42935] (005/432) Accurately ripped
08 [fe4f6040] (005/432) Accurately ripped
09 [b7e8593c] (005/424) Accurately ripped
10 [2d6bb07f] (005/430) Accurately ripped
11 [35f01670] (005/420) Accurately ripped
12 [3c1a476d] (004/412) Accurately ripped
Offsetted by -1576:
01 [57f2d3a0] (047/434) Accurately ripped
02 [fec2cac4] (046/431) Accurately ripped
03 [e65359b8] (047/437) Accurately ripped
04 [d6defa3b] (047/439) Accurately ripped
05 [861f5519] (045/434) Accurately ripped
06 [d9893b93] (047/431) Accurately ripped
07 [5053183b] (046/432) Accurately ripped
08 [581639f7] (045/432) Accurately ripped
09 [6b754490] (046/424) Accurately ripped
10 [d257c46f] (048/430) Accurately ripped
11 [1a028716] (046/420) Accurately ripped
12 [df865156] (041/412) Accurately ripped
Offsetted by -141:
01 [85a0df2d] (015/434) Accurately ripped
02 [ab5b4b3b] (015/431) Accurately ripped
03 [c9ce8262] (015/437) Accurately ripped
04 [e82a3929] (015/439) Accurately ripped
05 [21cadc9a] (015/434) Accurately ripped
06 [226e6310] (015/431) Accurately ripped
07 [20d05618] (015/432) Accurately ripped
08 [3c11aabd] (015/432) Accurately ripped
09 [5e5748bc] (015/424) Accurately ripped
10 [135ac78c] (015/430) Accurately ripped
11 [1aca2d42] (015/420) Accurately ripped
12 [dd4105b7] (015/412) Accurately ripped
Offsetted by 56:
01 [cca85a40] (047/434) Accurately ripped
02 [13dd68a4] (047/431) Accurately ripped
03 [0678a8f8] (044/437) Accurately ripped
04 [b43b6ae4] (047/439) Accurately ripped
05 [3b602228] (046/434) Accurately ripped
06 [0c53b033] (046/431) Accurately ripped
07 [3c01e9dd] (045/432) Accurately ripped
08 [a6a85df5] (046/432) Accurately ripped
09 [7ca6d610] (045/424) Accurately ripped
10 [ff85aa38] (047/430) Accurately ripped
11 [b0de663a] (046/420) Accurately ripped
12 [6823d686] (044/412) Accurately ripped
Offsetted by 84:
01 [6ae53144] (003/434) Accurately ripped
02 [7c6241f0] (003/431) Accurately ripped
03 [23e2b640] (003/437) Accurately ripped
04 [cea338c8] (003/439) Accurately ripped
05 [b543f810] (003/434) Accurately ripped
06 [7e23b5f7] (003/431) Accurately ripped
07 [73108b70] (003/432) Accurately ripped
08 [503c831e] (003/432) Accurately ripped
09 [0c016980] (003/424) Accurately ripped
10 [c5140629] (003/430) Accurately ripped
11 [5415818b] (003/420) Accurately ripped
12 [93769edd] (003/412) Accurately ripped
Offsetted by 106:
01 [54f06c7e] (013/434) Accurately ripped
02 [97a6113e] (014/431) Accurately ripped
03 [a8b609d4] (015/437) Accurately ripped
04 [75aba3b2] (015/439) Accurately ripped
05 [950944b4] (015/434) Accurately ripped
06 [20b4df11] (016/431) Accurately ripped
07 [06194fa5] (015/432) Accurately ripped
08 [b084c0ff] (015/432) Accurately ripped
09 [6a5add58] (015/424) Accurately ripped
10 [50c418dc] (014/430) Accurately ripped
11 [69e8ccae] (014/420) Accurately ripped
12 [66614f71] (015/412) Accurately ripped
Offsetted by 266:
01 [6f70a6de] (005/434) Accurately ripped
02 [a3c1c65e] (006/431) Accurately ripped
03 [e3140c94] (006/437) Accurately ripped
04 [7a45f312] (006/439) Accurately ripped
05 [4d8ce674] (006/434) Accurately ripped
06 [61ebdb71] (005/431) Accurately ripped
07 [9516a8b6] (006/432) Accurately ripped
08 [8219026e] (006/432) Accurately ripped
09 [2fce27d8] (006/424) Accurately ripped
10 [7636d6cd] (006/430) Accurately ripped
11 [2e82a97b] (006/420) Accurately ripped
12 [b0dd10cb] (005/412) Accurately ripped
Offsetted by 403:
01 [ac880c0d] (007/434) Accurately ripped
02 [07b97fdb] (007/431) Accurately ripped
03 [29daf222] (006/437) Accurately ripped
04 [c49d4709] (007/439) Accurately ripped
05 [61f0cf5a] (007/434) Accurately ripped
06 [335c89f0] (007/431) Accurately ripped
07 [a3cc6656] (007/432) Accurately ripped
08 [255c7a0f] (007/432) Accurately ripped
09 [6412793c] (007/424) Accurately ripped
10 [10366045] (007/430) Accurately ripped
11 [aaff9667] (007/420) Accurately ripped
12 [dd82b343] (007/412) Accurately ripped
Offsetted by 8:
01 [2b1b7bf0] (000/434) No match (V2 was not tested)
02 [a9d518b4] (000/431) No match (V2 was not tested)
03 [41c2db58] (000/437) No match (V2 was not tested)
04 [19405314] (000/439) No match (V2 was not tested)
05 [6a6bd808] (000/434) No match (V2 was not tested)
06 [925ccae3] (000/431) No match (V2 was not tested)
07 [ec4e2a37] (000/432) No match (V2 was not tested)
08 [5f3337bb] (000/432) No match (V2 was not tested)
09 [f49dd950] (000/424) No match (V2 was not tested)
10 [3552be99] (000/430) No match (V2 was not tested)
11 [4c107d0f] (000/420) No match (V2 was not tested)
12 [cc87b89b] (000/412) No match (V2 was not tested)

Track Peak [ CRC32 ] [W/O NULL] [ LOG ]
– 100,0 [4EB0D5E1] [AB6FBA21] CRC32
01 85,8 [91B428AD] [7146460D]
02 97,3 [94DBD604] [D778B0CB]
03 100,0 [9A7C5FDA] [813571DB]
04 89,3 [8CE8CD28] [5F20F8A8]
05 90,7 [1694A81E] [8B0187AD]
06 100,0 [D1C1D1D6] [BE4857B3]
07 92,6 [0C3BD650] [31D82D95]
08 93,4 [96E90260] [AB9DF6D2]
09 100,0 [4FB24EB2] [05A7BDBA]
10 78,1 [270C3394] [2B7C6261]
11 93,9 [15033A15] [0F072F80]
12 100,0 [CD530565] [F648F03D]

The Moody Blues - The Story Of The Moody Blues... Legend Of A Band (1990) Repost / New Rip

See also:
The Moody Blues - Days Of Future Passed (1967) {2008, Reissue, Remastered}

All thanks go to Boris1

>>> My Blog <<<

Download from icerbox.com: