The Moody Blues - Voices In The Sky (1984)

Posted By: v3122
The Moody Blues - Voices In The Sky (1984)

The Moody Blues - Voices In The Sky (1984)
EAC | Flac(Image) + Cue + Log & MP3 CBR 320Kbps
Decca, 820 155-2 | ~ 337 or 126 Mb | Scans(png) -> 16 Mb
Progressive Rock / Art-Rock

~ The Best of the Moody Blues. Compilation ~

The Moody Blues - Voices In The Sky (1984)


The Moody Blues - Voices In The Sky (1984):

The Moody Blues - Voices In The Sky (1984)

Tracklist:

01. Ride My See-Saw [03:45]
02. Talking Out Of Turn [04:59]
03. Driftwood [04:31]
04. Never Comes The Day [04:41]
05. I'm Just A Singer (In A Rock And Roll Band) [04:17]
06. Gemini Dream [03:52]
07. The Voice [04:15]
08. After You Came [04:37]
09. Question [04:58]
10. Veteran Cosmic Rocker [03:11]
11. Isn't Life Strange [06:03]
12. Nights In White Satin [04:27]

Exact Audio Copy V0.99 prebeta 5 from 4. May 2009

EAC extraction logfile from 26. June 2013, 9:47

THE MOODY BLUES / Voices In The Sky ( 820 155-2 )

Used drive : ASUS DRW-24B3ST Adapter: 5 ID: 0

Read mode : Secure
Utilize accurate stream : Yes
Defeat audio cache : Yes
Make use of C2 pointers : No

Read offset correction : 6
Overread into Lead-In and Lead-Out : No
Fill up missing offset samples with silence : Yes
Delete leading and trailing silent blocks : No
Null samples used in CRC calculations : Yes
Used interface : Native Win32 interface for Win NT & 2000

Used output format : User Defined Encoder
Selected bitrate : 1024 kBit/s
Quality : High
Add ID3 tag : No
Command line compressor : C:\Program Files (x86)\EAC\WV\wavpack.exe
Additional command line options : -h -hh -m %s %d


TOC of the extracted CD

Track | Start | Length | Start sector | End sector
––––––––––––––––––––––––––––-
1 | 0:00.33 | 3:45.35 | 33 | 16942
2 | 3:45.68 | 4:59.50 | 16943 | 39417
3 | 8:45.43 | 4:31.57 | 39418 | 59799
4 | 13:17.25 | 4:41.25 | 59800 | 80899
5 | 17:58.50 | 4:17.40 | 80900 | 100214
6 | 22:16.15 | 3:52.63 | 100215 | 117677
7 | 26:09.03 | 4:15.67 | 117678 | 136869
8 | 30:24.70 | 4:37.10 | 136870 | 157654
9 | 35:02.05 | 4:58.40 | 157655 | 180044
10 | 40:00.45 | 3:11.25 | 180045 | 194394
11 | 43:11.70 | 6:03.65 | 194395 | 221684
12 | 49:15.60 | 4:27.00 | 221685 | 241709


Range status and errors

Selected range

Filename G:\THE MOODY BLUES\1984- Voices In The Sky (DE Decca Record • 820 155-2)\THE MOODY BLUES - Voices In The Sky ( 820 155-2 ).wav

Peak level 100.0 %
Range quality 100.0 %
Test CRC C9688A3C
Copy CRC C9688A3C
Copy OK

No errors occurred


AccurateRip summary

Track 1 accurately ripped (confidence 35) [39D49A37]
Track 2 accurately ripped (confidence 34) [DE282DCB]
Track 3 accurately ripped (confidence 33) [F5B6EA19]
Track 4 accurately ripped (confidence 33) [1998836A]
Track 5 accurately ripped (confidence 35) [3AB5F355]
Track 6 accurately ripped (confidence 34) [25029B76]
Track 7 accurately ripped (confidence 34) [741FCF9A]
Track 8 accurately ripped (confidence 33) [8B51A9E9]
Track 9 accurately ripped (confidence 32) [ED13D59B]
Track 10 accurately ripped (confidence 33) [8EB5DED7]
Track 11 accurately ripped (confidence 34) [6DA7819D]
Track 12 accurately ripped (confidence 32) [BEA1E8AD]

All tracks accurately ripped

End of status report

foobar2000 1.2.9 / Dynamic Range Meter 1.1.1
log date: 2017-01-16 15:30:27

––––––––––––––––––––––––––––––––––––––––
Analyzed: THE MOODY BLUES / Voices In The Sky ( 820 155-2 )
––––––––––––––––––––––––––––––––––––––––

DR Peak RMS Duration Track
––––––––––––––––––––––––––––––––––––––––
DR10 -0.20 dB -10.91 dB 3:45 01-Ride My See-Saw
DR11 -0.07 dB -13.22 dB 5:00 02-Talking Out Of Turn
DR11 -0.17 dB -14.11 dB 4:32 03-Driftwood
DR9 -0.17 dB -13.15 dB 4:41 04-Never Comes The Day
DR11 -0.12 dB -11.98 dB 4:18 05-I'm Just A Singer (In A Rock And Roll Band)
DR12 -0.12 dB -13.86 dB 3:53 06-Gemini Dream
DR11 -0.23 dB -12.47 dB 4:16 07-The Voice
DR11 -0.23 dB -13.56 dB 4:37 08-After You Came
DR11 0.00 dB -14.76 dB 4:59 09-Question
DR11 0.00 dB -13.38 dB 3:11 10-Veteran Cosmic Rocker
DR10 -1.50 dB -15.21 dB 6:04 11-Isn't Life Strange
DR9 -0.03 dB -11.47 dB 4:27 12-Nights In White Satin
––––––––––––––––––––––––––––––––––––––––

Number of tracks: 12
Official DR value: DR11

Samplerate: 44100 Hz
Channels: 2
Bits per sample: 16
Bitrate: 852 kbps
Codec: FLAC

CUETools log; Date: 16.01.2017 15:30:18; Version: 2.1.4]
Pregap length 00:00:33.
[CTDB TOCID: O4Okj2WkgowuVqzm996OwXUxZao-] found.
Track | CTDB Status
1 | (94/97) Accurately ripped
2 | (92/97) Accurately ripped
3 | (91/97) Accurately ripped
4 | (94/97) Accurately ripped
5 | (94/97) Accurately ripped
6 | (94/97) Accurately ripped
7 | (94/97) Accurately ripped
8 | (94/97) Accurately ripped
9 | (82/97) Accurately ripped, or (11/97) differs in 2 samples @00:41:69,00:50:45
10 | (93/97) Accurately ripped
11 | (91/97) Accurately ripped
12 | (91/97) Accurately ripped
[AccurateRip ID: 00179c53-00dce2e9-a40c960c] found.
Track [ CRC | V2 ] Status
01 [39d49a37|ba83ef70] (039+043/168) Accurately ripped
02 [de282dcb|d529d27c] (039+042/167) Accurately ripped
03 [f5b6ea19|b8f481d4] (038+043/167) Accurately ripped
04 [1998836a|91fd0e2e] (037+042/164) Accurately ripped
05 [3ab5f355|b9bc59b1] (040+043/171) Accurately ripped
06 [25029b76|eec4e476] (039+043/169) Accurately ripped
07 [741fcf9a|687674dd] (039+042/168) Accurately ripped
08 [8b51a9e9|7948d35c] (038+041/165) Accurately ripped
09 [ed13d59b|d326335d] (037+040/163) Accurately ripped
10 [8eb5ded7|3db247b4] (038+040/165) Accurately ripped
11 [6da7819d|7f68431f] (039+041/163) Accurately ripped
12 [bea1e8ad|2ce9c0b6] (037+040/161) Accurately ripped
Offsetted by 532:
01 [f8f1879e] (002/168) Accurately ripped
02 [0c459408] (002/167) Accurately ripped
03 [dcc29061] (002/167) Accurately ripped
04 [db740617] (002/164) Accurately ripped
05 [ab2ec7a6] (002/171) Accurately ripped
06 [5e5eeafe] (002/169) Accurately ripped
07 [1f1c08bc] (002/168) Accurately ripped
08 [9b5d53ff] (002/165) Accurately ripped
09 [4ebd91f1] (002/163) Accurately ripped
10 [5138af3c] (002/165) Accurately ripped
11 [682dbb6c] (002/163) Accurately ripped
12 [4587008d] (002/161) Accurately ripped
Offsetted by 1199:
01 [db8474a1] (002/168) Accurately ripped
02 [c506deac] (002/167) Accurately ripped
03 [dc897433] (002/167) Accurately ripped
04 [9f1e4100] (002/164) Accurately ripped
05 [291e6b9f] (002/171) Accurately ripped
06 [fccb242a] (002/169) Accurately ripped
07 [3d3a8464] (002/168) Accurately ripped
08 [b79b9de8] (002/165) Accurately ripped
09 [a0ecc792] (002/163) Accurately ripped
10 [94d94ea9] (002/165) Accurately ripped
11 [1a6c3269] (002/163) Accurately ripped
12 [767128e6] (002/161) Accurately ripped
Offsetted by 2101:
01 [14e7f780] (024/168) Accurately ripped
02 [a5f33ccb] (024/167) Accurately ripped
03 [a305c708] (024/167) Accurately ripped
04 [7daf924f] (024/164) Accurately ripped
05 [275b35b9] (024/171) Accurately ripped
06 [2e7707d5] (024/169) Accurately ripped
07 [41e406cd] (023/168) Accurately ripped
08 [7904653f] (023/165) Accurately ripped
09 [3d351c46] (023/163) Accurately ripped
10 [8566146c] (023/165) Accurately ripped
11 [558346dd] (021/163) Accurately ripped
12 [180673c2] (022/161) Accurately ripped
Offsetted by -125:
01 [11cdbf81] (006/168) Accurately ripped
02 [250b3e10] (006/167) Accurately ripped
03 [c00c7144] (005/167) Accurately ripped
04 [2e128cae] (006/164) Accurately ripped
05 [93900de6] (006/171) Accurately ripped
06 [9961a002] (006/169) Accurately ripped
07 [b725c98a] (006/168) Accurately ripped
08 [987f906d] (006/165) Accurately ripped
09 [91a12058] (000/163) No match (V2 was not tested)
10 [1239d767] (006/165) Accurately ripped
11 [e2fe735c] (005/163) Accurately ripped
12 [7b593111] (005/161) Accurately ripped
Offsetted by 7:
01 [7bb75d49] (000/168) No match (V2 was not tested)
02 [367c95dc] (000/167) No match (V2 was not tested)
03 [091a92a8] (000/167) No match (V2 was not tested)
04 [c44bfbb6] (000/164) No match (V2 was not tested)
05 [fced435a] (000/171) No match (V2 was not tested)
06 [63f2a9f1] (000/169) No match (V2 was not tested)
07 [c53783c4] (000/168) No match (V2 was not tested)
08 [89ceea9a] (000/165) No match (V2 was not tested)
09 [263fe35e] (000/163) No match (V2 was not tested)
10 [7f4f38f4] (000/165) No match (V2 was not tested)
11 [04806ec3] (000/163) No match (V2 was not tested)
12 [21aeec63] (000/161) No match (V2 was not tested)
Offsetted by 535:
01 [20dd063e] (000/168) No match (V2 was not tested)
02 [c9bb9c8f] (000/167) No match (V2 was not tested)
03 [72d5185f] (000/167) No match (V2 was not tested)
04 [9c0505ec] (000/164) No match (V2 was not tested)
05 [1d0b0d47] (000/171) No match (V2 was not tested)
06 [f4a64024] (000/169) No match (V2 was not tested)
07 [1b805b37] (000/168) No match (V2 was not tested)
08 [cfbea449] (000/165) No match (V2 was not tested)
09 [29985077] (000/163) No match (V2 was not tested)
10 [6eac6b17] (000/165) No match (V2 was not tested)
11 [d01034d0] (000/163) No match (V2 was not tested)
12 [6f2386b8] (000/161) No match (V2 was not tested)
Offsetted by 773:
01 [aee3e735] (000/168) No match (V2 was not tested)
02 [1b9e98d6] (000/167) No match (V2 was not tested)
03 [715fbdce] (000/167) No match (V2 was not tested)
04 [2fa2c8d7] (000/164) No match (V2 was not tested)
05 [e0a12bdd] (000/171) No match (V2 was not tested)
06 [ce99ac49] (000/169) No match (V2 was not tested)
07 [cf2af4d1] (000/168) No match (V2 was not tested)
08 [2d72d63d] (000/165) No match (V2 was not tested)
09 [e787a2ef] (000/163) No match (V2 was not tested)
10 [5022617f] (000/165) No match (V2 was not tested)
11 [e142b799] (000/163) No match (V2 was not tested)
12 [5121a6b7] (000/161) No match (V2 was not tested)
Offsetted by 1712:
01 [122a6f94] (005/168) Accurately ripped
02 [db85dbae] (005/167) Accurately ripped
03 [d875ecd8] (005/167) Accurately ripped
04 [126d9814] (004/164) Accurately ripped
05 [dd7cd01d] (005/171) Accurately ripped
06 [35accaa0] (005/169) Accurately ripped
07 [5ffec3e7] (005/168) Accurately ripped
08 [6ba8d6a6] (004/165) Accurately ripped
09 [e4764288] (000/163) No match (V2 was not tested)
10 [6065b851] (005/165) Accurately ripped
11 [bcbe945d] (005/163) Accurately ripped
12 [f93b3fb8] (005/161) Accurately ripped

Track Peak [ CRC32 ] [W/O NULL] [ LOG ]
– 100,0 [C9688A3C] [A251B24C] CRC32
01 97,7 [B66B627C] [2E954B40]
02 99,2 [FB48D6AB] [0F4864F8]
03 98,0 [502FB7BF] [56266B89]
04 98,0 [AC72802E] [0AD0E7A9]
05 98,5 [10C41113] [8FB5E456]
06 98,5 [911865B9] [52F84AC7]
07 97,4 [C1FEFC55] [7A7938F0]
08 97,3 [C04EF1F2] [1F2AB543]
09 100,0 [EC5F1D0C] [43E22FB8]
10 100,0 [38E4C77C] [41FD78F5]
11 84,1 [0689E889] [D0DD4387]
12 99,6 [58400ACA] [68C4285B]

The Moody Blues - Voices In The Sky (1984)

All thanks go to the original releaser

The Moody Blues in my Blog

Download The Moody Blues - Voices In The Sky (1984):