Subcategories

The Moody Blues - Timeless Flight (2013) [Limited Super Deluxe Edition BoxSet, 11CD+6DVD]

Posted By: v3122
The Moody Blues - Timeless Flight (2013) [Limited Super Deluxe Edition BoxSet, 11CD+6DVD]

The Moody Blues - Timeless Flight (2013)
EAC | Flac(Image) + Cue + Log & iPod M4A(Tracks) & MP3 CBR 320Kbps
11CD | Universal International, 534 248-2 | ~ 5051 or 5076 or 1831 Mb | Scans(jpg, 600dpi) -> 2.32 Gb
6xDVD-5 | NTSC 16:9 (720x480) VRB | AC3, 448 kbps, 48kHz/16bit, Ch6
DTS, 1510 kbps, 48kHz/16bit, Ch6 / LPCM, 1536 kbps, 48kHz/16bit, 2 ch -> 24.07 Gb
Rock / Progressive Rock / Psychedelic Rock / Art Rock

Career spanning 17 disc (11 CD + six DVD) box set from the British Rock icons. Timeless Flight is a definitive career-spanning Moody Blues box set. The Moody Blues have released 24 albums in a career spanning nearly five decades. They have sold over 50 million albums, earning them eighteen platinum discs and all manner of awards. This set contains 11 remastered CDs featuring key album tracks, previously unreleased mixes, out-takes and complete live concerts, three DVDs of rare television performances from around the world, promotional videos and the previously unreleased live concert from Olympia, Paris in 1970, three DVD audio discs containing the long-deleted 5:1 surround sound mixes, a 120-page hard-back book including a new essay by Moody Blues researcher Mark Powell plus rare and previously unseen photos on heavy weight paper, replica full color tour poster and discography, replica Threshold press pack containing photos and memorabilia and an exclusive Timeless Flight fabric patch.

~ amazon


So how is this new Moody Blues box set? On it's own merits, it rates a 5. Very well packaged, very extensive in content, good sound, decent video and another surround format to add to the collection.

The Moody Blues - Timeless Flight (2013) [Limited Super Deluxe Edition BoxSet, 11CD+6DVD]

But is this the end-all Holy Grail of Moody Blues lost treasures? No.

In fact, strictly looking at the studio work (discs 1-5). There is NOTHING that is really new. A better overall collection was Time Traveller. Released back around 1998, the Moodies have only released 2 additional studio works (Strange Time & December), represented by only 5 tracks in this collection.

There are several tracks marked as "previously unreleased on CD," and this is could be kind of misleading. There are really no "significant" alternate versions. Here is a quick breakdown of the studio tracks:
"Tuesday Afternoon" and "Nights in White Satin" (original 67 stereo mix) WERE released on Time Traveller, although these tracks do sound a tiny bit cleaner.
"Dawn is a Feeling" and "Peak Hour" (original 67 stereo mix) are truly NEW to this collection (Yeah!)
Eternity Road: NEW version; clean intro (not segue fade-in); very (very) minute differences in the mix; quicker fade (4:04 vs. 4:19 TOCCC)
"It's Up To You" NEW version; again very (very) minute differences in the mix (re-mix of the double tracked vocal are more centered; quicker fade (3:05 vs. 3:12 QOB / 3:23 QOB-bonus track)
"When You're A Free Man": NEW "edited"version; clean intro (not segue fade-in); 30 seconds of 3rd verse cut-out (why?); quicker fade (5:04 vs. 6:05 SS)
Several of the other studio tracks from discs 1-5 are have been "slightly" edited (altered track length) to deal with the fact that most of the original Moody tracks would segue to the next. On this collection those tracks that were originally joined (i.e. Dawning is the Day - Melancholy Man) the segue remains. Those tracks that they decided not to include either the prior and/or original following track was edited to fade in or out as needed. Most of the edits are acceptable. I do cringe at the "new" into to "Are You Sitting Comfortably" which leads off Disc 2. There is the distracting (to me) edit from the proceeding track (Lazy Day) from the original masters.
The big let down for me is not including the entire 67 stereo mix of DOFP, as it was alluded to in the Prog Magazine article.

All the other "rarities" were for the most part were included in the 2007 Deluxe re-issues. These were fantastic collections and included both a hi-resolution stereo and surround version of the album as a SACD. Apparently these are now out of print, but I've still seen them in local record stores and available here on Amazon. The original digi-packs have been replaced with standard jewel cases. but they DO include most of the bonus material, but not the high-rez SACD copy.

The 5.1 surround disc here are the same 70's quad mixes, but now on lower-resolution DVD video discs using Dolby 5.1 and DTS 5.1. There is video that accompanies the audio. Looks reminiscence of a late 60's psychedelia light show.

Big draw with this set has to be for those wanting the live material. Some very good (Blue Jays concert). To the,… well it's been said that the band had trouble trying to reproduced the heavily overdubbed studio recordings live (Albert Hall 1969). Includes some additional Red Rocks live tracks that were originally only available on the initial 5-disc copies of Time Traveller, and then later as part of the deluxe 2 disc edition of Red Rocks. Truly new is the 2 disc live show from the LA Forum. This is special to me as I was at that particular concert.

The video clips are pretty standard, most have been available here and there over the years. The performance clips (Beat Club, Colour Me Pop, Lulu) are fun to see the group in their early days. But these are generally lip synced or added live lead vocal to the recorded backing track.

I'm sure that anyone truly interested in getting this set has already seen the You-Tube un-boxing video so I won't add much about it's contents except for the following:
My copy is missing the "rare 67 tour program; Not one of my seventeen discs were scratched (amazing); and the box came packaged in a spongy foam "outer box" all sealed in an form fitting cardboard box (which was then packaged in an oversized Amazon box. Very impressive.

The Moody Blues - Timeless Flight (2013) [Limited Super Deluxe Edition BoxSet, 11CD+6DVD]

Also as stated by others, the 120 page book is very impressive. A lot of PR photos and alternate/unused album art. But there are several photo glitches when they scanned in album art for Threshold Of A Dream, To Our Children's Children…, Question of Balance, Seventh Sojourn, and the wrong disc info for Long Distance Voyager.

So who is this collection for? For the must have everything, in every form Moody Blues fan. To which I'm a victim. A fan like me already has collections like: This Is the Moody Blues, and Time Traveller. Even a few of the lesser titles (Voices in the Sky, Anthology) just to get that slightly different song edit. The various live albums/videos. And of coarse they already have the deluxe editions of the classic 7, So this collection does not give me anything I do not already have in the way of studio recordings. It does however provide some live material no longer available (Albert Hall: "Caught Live + 5"), unreleased material (Forum concert and Blue Jays concert - crown gem of this collection actually).

So what is missing? For my holy grail, this should have included all the material from the Deluxe Editions (the complete classic 7 albums), plus the 67 original stereo mix of DOFP, the inclusion of "Gimme A Little Something" the last of the "+5" not included in the deluxe editions (but was available on out-of-print "Prelude" CD. And a book that was proof-read.


By Steven G Bogdanoff, amazon
The Moody Blues - Timeless Flight (2013)

The Moody Blues - Timeless Flight (2013) [Limited Super Deluxe Edition BoxSet, 11CD+6DVD]

Tracklist CD1:

01. Fly Me High - 2:56
02. Love And Beauty - 2:25
03. Leave This Man Alone - 3:00
04. Cities - 2:26
05. Dawn is a Feeling (Original 1967 stereo mix) - 2:36
06. Peak Hour (Original 1967 stereo mix) - 3:37
07. Tuesday Afternoon (Original 1967 stereo mix) - 4:50
08. The Night: Nights In White Satin (Original 1967 stereo mix) - 7:40
09. Departure - 0:45
10. Ride My See Saw - 3:42
11. The Actor - 4:41
12. Legend of a Mind - 6:39
13. Voices in the Sky - 3:29
14. The Best Way to Travel - 3:17
15. What Am I Doing Here? - 3:55
16. King and Queen - 3:55
17. A Simple Game - 3:46
18. In the Begining - 2:08
19. Lovely to See You - 2:35
20. Dear Diary - 3:59
21. Never Comes the Day - 4:44

Exact Audio Copy V1.0 beta 3 from 29. August 2011

EAC extraction logfile from 15. June 2013, 18:30

The Moody Blues / Timeless Flight (Disc 1)

Used drive : ATAPI iHAS124 B Adapter: 2 ID: 0

Read mode : Secure
Utilize accurate stream : Yes
Defeat audio cache : Yes
Make use of C2 pointers : No

Read offset correction : 6
Overread into Lead-In and Lead-Out : No
Fill up missing offset samples with silence : Yes
Delete leading and trailing silent blocks : No
Null samples used in CRC calculations : Yes
Used interface : Native Win32 interface for Win NT & 2000

Used output format : User Defined Encoder
Selected bitrate : 1024 kBit/s
Quality : High
Add ID3 tag : No
Command line compressor : C:\Program Files (x86)\Exact Audio Copy\FLAC\FLAC.EXE
Additional command line options : -8 -V -T "ARTIST=%artist%" -T "TITLE=%title%" -T "ALBUM=%albumtitle%" -T "DATE=%year%" -T "TRACKNUMBER=%tracknr%" -T "GENRE=%genre%" -T "PERFORMER=%albuminterpret%" -T "COMPOSER=%composer%" %haslyrics%–tag-from-file=LYRICS="%lyricsfile%"%haslyrics% -T "ALBUMARTIST=%albumartist%" -T "DISCNUMBER=%cdnumber%" -T "TOTALDISCS=%totalcds%" -T "TOTALTRACKS=%numtracks%" -T "COMMENT=%comment%" %source% -o %dest%


TOC of the extracted CD

Track | Start | Length | Start sector | End sector
––––––––––––––––––––––––––––-
1 | 0:00.00 | 2:56.19 | 0 | 13218
2 | 2:56.19 | 2:25.14 | 13219 | 24107
3 | 5:21.33 | 3:00.35 | 24108 | 37642
4 | 8:21.68 | 2:25.47 | 37643 | 48564
5 | 10:47.40 | 2:36.02 | 48565 | 60266
6 | 13:23.42 | 3:36.65 | 60267 | 76531
7 | 17:00.32 | 4:49.57 | 76532 | 98263
8 | 21:50.14 | 7:40.05 | 98264 | 132768
9 | 29:30.19 | 0:44.46 | 132769 | 136114
10 | 30:14.65 | 3:42.24 | 136115 | 152788
11 | 33:57.14 | 4:41.21 | 152789 | 173884
12 | 38:38.35 | 6:39.14 | 173885 | 203823
13 | 45:17.49 | 3:29.17 | 203824 | 219515
14 | 48:46.66 | 3:16.42 | 219516 | 234257
15 | 52:03.33 | 3:55.00 | 234258 | 251882
16 | 55:58.33 | 3:55.04 | 251883 | 269511
17 | 59:53.37 | 3:45.72 | 269512 | 286458
18 | 63:39.34 | 2:08.30 | 286459 | 296088
19 | 65:47.64 | 2:34.40 | 296089 | 307678
20 | 68:22.29 | 3:59.30 | 307679 | 325633
21 | 72:21.59 | 4:44.22 | 325634 | 346955


Range status and errors

Selected range

Filename G:\CD\The Moody Blues - Timeless Flight (Disc 1).wav

Peak level 98.8 %
Extraction speed 6.2 X
Range quality 99.9 %
Test CRC A5DC9D23
Copy CRC A5DC9D23
Copy OK

No errors occurred


AccurateRip summary

Track 1 not present in database
Track 2 not present in database
Track 3 not present in database
Track 4 not present in database
Track 5 not present in database
Track 6 not present in database
Track 7 not present in database
Track 8 not present in database
Track 9 not present in database
Track 10 not present in database
Track 11 not present in database
Track 12 not present in database
Track 13 not present in database
Track 14 not present in database
Track 15 not present in database
Track 16 not present in database
Track 17 not present in database
Track 18 not present in database
Track 19 not present in database
Track 20 not present in database
Track 21 not present in database

None of the tracks are present in the AccurateRip database

End of status report

foobar2000 1.2.4 / Dynamic Range Meter 1.1.1
log date: 2013-06-27 17:54:19

––––––––––––––––––––––––––––––––––––––––
Analyzed: The Moody Blues / Timeless Flight (Disc 1)
––––––––––––––––––––––––––––––––––––––––

DR Peak RMS Duration Track
––––––––––––––––––––––––––––––––––––––––
DR9 -0.10 dB -10.16 dB 2:56 01-Fly Me High
DR8 -0.10 dB -9.99 dB 2:25 02-Love And Beauty
DR9 -0.11 dB -10.27 dB 3:00 03-Leave This Man Alone
DR9 -0.10 dB -11.04 dB 2:26 04-Cities
DR10 -0.10 dB -12.47 dB 2:36 05-Dawn is a Feeling (Original 1967 stereo mix)
DR9 -0.10 dB -10.34 dB 3:37 06-Peak Hour (Original 1967 stereo mix)
DR8 -0.10 dB -10.58 dB 4:50 07-Tuesday Afternoon (Original 1967 stereo mix)
DR7 -0.10 dB -10.94 dB 7:40 08-The Night: Nights In White Satin (Original 1967 stereo mix)
DR10 -1.27 dB -16.75 dB 0:45 09-Departure
DR9 -0.10 dB -10.75 dB 3:42 10-Ride My See Saw
DR9 -0.50 dB -11.63 dB 4:41 11-The Actor
DR9 -0.11 dB -11.36 dB 6:39 12-Legend of a Mind
DR10 -0.34 dB -13.13 dB 3:29 13-Voices in the Sky
DR10 -0.62 dB -13.71 dB 3:17 14-The Best Way to Travel
DR10 -0.10 dB -12.62 dB 3:55 15-What Am I Doing Here?
DR10 -0.10 dB -14.04 dB 3:55 16-King and Queen
DR10 -0.27 dB -12.38 dB 3:46 17-A Simple Game
DR9 -0.85 dB -16.20 dB 2:08 18-In the Begining
DR8 -0.40 dB -9.91 dB 2:35 19-Lovely to See You
DR9 -0.10 dB -11.92 dB 3:59 20-Dear Diary
DR9 -0.11 dB -11.70 dB 4:44 21-Never Comes the Day
––––––––––––––––––––––––––––––––––––––––

Number of tracks: 21
Official DR value: DR9

Samplerate: 44100 Hz
Channels: 2
Bits per sample: 16
Bitrate: 782 kbps
Codec: FLAC

The Moody Blues - Timeless Flight (2013) [Limited Super Deluxe Edition BoxSet, 11CD+6DVD]

Tracklist CD2:

01. Are You Sitting Comfortably - 3:30
02. The Dream - 0:58
03. Have You Heard - Part One - 1:29
04. The Voyage - 4:11
05. Have You Heard - Part Two - 2:27
06. Higher and Higher - 4:05
07. Gypsy - 3:35
08. Eternity Road - 4:04
09. Beyond - 3:01
10. Watching and Waiting - 4:16
11. Question - 5:46
12. And The Tide Rushes In - 2:58
13. Don't You Feel Small - 3:02
14. Dawning is the Day - 4:22
15. Melancholy Man - 5:48
16. It's Up to You - 3:05
17. Mike's Number One - 3:36
18. Procession - 4:40
19. The Story In Your Eyes - 2:59
20. After You Came - 4:38
21. One More Time to Live - 5:43

Exact Audio Copy V1.0 beta 3 from 29. August 2011

EAC extraction logfile from 15. June 2013, 19:05

The Moody Blues / Timeless Flight (Disc 2)

Used drive : ATAPI iHAS124 B Adapter: 2 ID: 0

Read mode : Secure
Utilize accurate stream : Yes
Defeat audio cache : Yes
Make use of C2 pointers : No

Read offset correction : 6
Overread into Lead-In and Lead-Out : No
Fill up missing offset samples with silence : Yes
Delete leading and trailing silent blocks : No
Null samples used in CRC calculations : Yes
Used interface : Native Win32 interface for Win NT & 2000

Used output format : User Defined Encoder
Selected bitrate : 1024 kBit/s
Quality : High
Add ID3 tag : No
Command line compressor : C:\Program Files (x86)\Exact Audio Copy\FLAC\FLAC.EXE
Additional command line options : -8 -V -T "ARTIST=%artist%" -T "TITLE=%title%" -T "ALBUM=%albumtitle%" -T "DATE=%year%" -T "TRACKNUMBER=%tracknr%" -T "GENRE=%genre%" -T "PERFORMER=%albuminterpret%" -T "COMPOSER=%composer%" %haslyrics%–tag-from-file=LYRICS="%lyricsfile%"%haslyrics% -T "ALBUMARTIST=%albumartist%" -T "DISCNUMBER=%cdnumber%" -T "TOTALDISCS=%totalcds%" -T "TOTALTRACKS=%numtracks%" -T "COMMENT=%comment%" %source% -o %dest%


TOC of the extracted CD

Track | Start | Length | Start sector | End sector
––––––––––––––––––––––––––––-
1 | 0:00.00 | 3:30.34 | 0 | 15783
2 | 3:30.34 | 0:58.11 | 15784 | 20144
3 | 4:28.45 | 1:28.66 | 20145 | 26810
4 | 5:57.36 | 4:10.57 | 26811 | 45617
5 | 10:08.18 | 2:26.64 | 45618 | 56631
6 | 12:35.07 | 4:05.13 | 56632 | 75019
7 | 16:40.20 | 3:34.70 | 75020 | 91139
8 | 20:15.15 | 4:04.31 | 91140 | 109470
9 | 24:19.46 | 3:01.01 | 109471 | 123046
10 | 27:20.47 | 4:15.73 | 123047 | 142244
11 | 31:36.45 | 5:45.71 | 142245 | 168190
12 | 37:22.41 | 2:58.27 | 168191 | 181567
13 | 40:20.68 | 3:01.70 | 181568 | 195212
14 | 43:22.63 | 4:22.05 | 195213 | 214867
15 | 47:44.68 | 5:47.38 | 214868 | 240930
16 | 53:32.31 | 3:04.73 | 240931 | 254803
17 | 56:37.29 | 3:35.54 | 254804 | 270982
18 | 60:13.08 | 4:39.46 | 270983 | 291953
19 | 64:52.54 | 2:58.46 | 291954 | 305349
20 | 67:51.25 | 4:37.71 | 305350 | 326195
21 | 72:29.21 | 5:42.52 | 326196 | 351897


Range status and errors

Selected range

Filename G:\CD\The Moody Blues - Timeless Flight (Disc 2).wav

Peak level 98.8 %
Extraction speed 6.8 X
Range quality 100.0 %
Test CRC 9662A1AE
Copy CRC 9662A1AE
Copy OK

No errors occurred


AccurateRip summary

Track 1 not present in database
Track 2 not present in database
Track 3 not present in database
Track 4 not present in database
Track 5 not present in database
Track 6 not present in database
Track 7 not present in database
Track 8 not present in database
Track 9 not present in database
Track 10 not present in database
Track 11 not present in database
Track 12 not present in database
Track 13 not present in database
Track 14 not present in database
Track 15 not present in database
Track 16 not present in database
Track 17 not present in database
Track 18 not present in database
Track 19 not present in database
Track 20 not present in database
Track 21 not present in database

None of the tracks are present in the AccurateRip database

End of status report

foobar2000 1.2.4 / Dynamic Range Meter 1.1.1
log date: 2013-06-27 17:54:40

––––––––––––––––––––––––––––––––––––––––
Analyzed: The Moody Blues / Timeless Flight (Disc 2)
––––––––––––––––––––––––––––––––––––––––

DR Peak RMS Duration Track
––––––––––––––––––––––––––––––––––––––––
DR10 -0.54 dB -12.89 dB 3:30 01-Are You Sitting Comfortably
DR12 -0.50 dB -14.63 dB 0:58 02-The Dream
DR9 -0.14 dB -11.41 dB 1:29 03-Have You Heard - Part One
DR8 -0.10 dB -11.23 dB 4:11 04-The Voyage
DR11 -0.10 dB -14.70 dB 2:27 05-Have You Heard - Part Two
DR7 -0.10 dB -8.19 dB 4:05 06-Higher and Higher
DR7 -0.10 dB -8.52 dB 3:35 07-Gypsy
DR9 -0.10 dB -11.42 dB 4:04 08-Eternity Road
DR8 -0.10 dB -11.41 dB 3:01 09-Beyond
DR7 -0.10 dB -11.04 dB 4:16 10-Watching and Waiting
DR9 -0.10 dB -11.92 dB 5:46 11-Question
DR8 -0.47 dB -12.28 dB 2:58 12-And The Tide Rushes In
DR10 -0.13 dB -14.54 dB 3:02 13-Don't You Feel Small
DR9 -0.48 dB -13.04 dB 4:22 14-Dawning is the Day
DR8 -0.10 dB -11.74 dB 5:48 15-Melancholy Man
DR11 -0.10 dB -12.30 dB 3:05 16-It's Up to You
DR10 -0.10 dB -12.96 dB 3:36 17-Mike's Number One
DR10 -0.23 dB -15.72 dB 4:40 18-Procession
DR9 -0.10 dB -10.20 dB 2:59 19-The Story In Your Eyes
DR9 -0.10 dB -11.11 dB 4:38 20-After You Came
DR9 -0.36 dB -12.17 dB 5:43 21-One More Time to Live
––––––––––––––––––––––––––––––––––––––––

Number of tracks: 21
Official DR value: DR9

Samplerate: 44100 Hz
Channels: 2
Bits per sample: 16
Bitrate: 821 kbps
Codec: FLAC

The Moody Blues - Timeless Flight (2013) [Limited Super Deluxe Edition BoxSet, 11CD+6DVD]

Tracklist CD3:

01. I'm Just a Singer (In a Rock and Roll Band) - 4:15
02. New Horizons - 5:11
03. For My Lady - 4:00
04. You and Me - 4:22
05. When You're a Free Man - 5:04
06. Isn't Life Strange (original extended version) - 8:13
07. Island - 4:33
08. Blue Jays / This Morning - 5:57
09. Blue Jays / Remember Me My Friend - 5:28
10. Blue Jays / My Brother - 3:30
11. Blue Jays / I Dreamed Last Night - 4:31
12. Justin Hayward / Blue Guitar - 3:39
13. Ray Thomas / From Mighty Oaks - 3:45
14. Ray Thomas / I Wish We Could Fly - 5:28
15. The Graeme Edge Band / The Tunnel - 2:09
16. Mike Pinder / Message - 2:49
17. Mike Pinder / The Promise - 6:04

Exact Audio Copy V1.0 beta 3 from 29. August 2011

EAC extraction logfile from 15. June 2013, 19:35

The Moody Blues / Timeless Flight (Disc 3)

Used drive : ATAPI iHAS124 B Adapter: 2 ID: 0

Read mode : Secure
Utilize accurate stream : Yes
Defeat audio cache : Yes
Make use of C2 pointers : No

Read offset correction : 6
Overread into Lead-In and Lead-Out : No
Fill up missing offset samples with silence : Yes
Delete leading and trailing silent blocks : No
Null samples used in CRC calculations : Yes
Used interface : Native Win32 interface for Win NT & 2000

Used output format : User Defined Encoder
Selected bitrate : 1024 kBit/s
Quality : High
Add ID3 tag : No
Command line compressor : C:\Program Files (x86)\Exact Audio Copy\FLAC\FLAC.EXE
Additional command line options : -8 -V -T "ARTIST=%artist%" -T "TITLE=%title%" -T "ALBUM=%albumtitle%" -T "DATE=%year%" -T "TRACKNUMBER=%tracknr%" -T "GENRE=%genre%" -T "PERFORMER=%albuminterpret%" -T "COMPOSER=%composer%" %haslyrics%–tag-from-file=LYRICS="%lyricsfile%"%haslyrics% -T "ALBUMARTIST=%albumartist%" -T "DISCNUMBER=%cdnumber%" -T "TOTALDISCS=%totalcds%" -T "TOTALTRACKS=%numtracks%" -T "COMMENT=%comment%" %source% -o %dest%


TOC of the extracted CD

Track | Start | Length | Start sector | End sector
––––––––––––––––––––––––––––-
1 | 0:00.00 | 4:15.11 | 0 | 19135
2 | 4:15.11 | 5:10.53 | 19136 | 42438
3 | 9:25.64 | 3:59.60 | 42439 | 60423
4 | 13:25.49 | 4:22.06 | 60424 | 80079
5 | 17:47.55 | 5:04.08 | 80080 | 102887
6 | 22:51.63 | 8:13.34 | 102888 | 139896
7 | 31:05.22 | 4:32.49 | 139897 | 160345
8 | 35:37.71 | 5:56.54 | 160346 | 187099
9 | 41:34.50 | 5:28.01 | 187100 | 211700
10 | 47:02.51 | 3:30.28 | 211701 | 227478
11 | 50:33.04 | 4:30.45 | 227479 | 247773
12 | 55:03.49 | 3:39.19 | 247774 | 264217
13 | 58:42.68 | 3:45.34 | 264218 | 281126
14 | 62:28.27 | 5:27.46 | 281127 | 305697
15 | 67:55.73 | 2:08.70 | 305698 | 315367
16 | 70:04.68 | 2:48.42 | 315368 | 328009
17 | 72:53.35 | 6:04.36 | 328010 | 355345


Range status and errors

Selected range

Filename G:\CD\The Moody Blues - Timeless Flight (Disc 3).wav

Peak level 98.8 %
Extraction speed 6.8 X
Range quality 99.9 %
Test CRC 110806F9
Copy CRC 110806F9
Copy OK

No errors occurred


AccurateRip summary

Track 1 not present in database
Track 2 not present in database
Track 3 not present in database
Track 4 not present in database
Track 5 not present in database
Track 6 not present in database
Track 7 not present in database
Track 8 not present in database
Track 9 not present in database
Track 10 not present in database
Track 11 not present in database
Track 12 not present in database
Track 13 not present in database
Track 14 not present in database
Track 15 not present in database
Track 16 not present in database
Track 17 not present in database

None of the tracks are present in the AccurateRip database

End of status report

foobar2000 1.2.4 / Dynamic Range Meter 1.1.1
log date: 2013-06-27 17:55:04

––––––––––––––––––––––––––––––––––––––––
Analyzed: The Moody Blues / Timeless Flight (Disc 3)
––––––––––––––––––––––––––––––––––––––––

DR Peak RMS Duration Track
––––––––––––––––––––––––––––––––––––––––
DR9 -0.10 dB -9.96 dB 4:15 01-I'm Just a Singer (In a Rock and Roll Band)
DR9 -0.10 dB -11.02 dB 5:11 02-New Horizons
DR10 -0.10 dB -12.17 dB 4:00 03-For My Lady
DR9 -0.10 dB -10.28 dB 4:22 04-You and Me
DR11 -0.10 dB -13.57 dB 5:04 05-When You're a Free Man
DR7 -0.99 dB -11.65 dB 8:13 06-Isn't Life Strange (original extended version)
DR7 -0.19 dB -9.47 dB 4:33 07-Island
DR9 -0.10 dB -10.80 dB 5:57 08-Blue Jays / This Morning
DR9 -0.10 dB -11.28 dB 5:28 09-Blue Jays / Remember Me My Friend
DR10 -0.10 dB -11.44 dB 3:30 10-Blue Jays / My Brother
DR10 -0.10 dB -11.07 dB 4:31 11-Blue Jays / I Dreamed Last Night
DR8 -0.20 dB -10.08 dB 3:39 12-Justin Hayward / Blue Guitar
DR10 -0.10 dB -13.36 dB 3:45 13-Ray Thomas / From Mighty Oaks
DR9 -0.10 dB -11.81 dB 5:28 14-Ray Thomas / I Wish We Could Fly
DR10 -0.10 dB -12.40 dB 2:09 15-The Graeme Edge Band / The Tunnel
DR13 -0.10 dB -15.86 dB 2:49 16-Mike Pinder / Message
DR12 -0.10 dB -14.80 dB 6:04 17-Mike Pinder / The Promise
––––––––––––––––––––––––––––––––––––––––

Number of tracks: 17
Official DR value: DR9

Samplerate: 44100 Hz
Channels: 2
Bits per sample: 16
Bitrate: 891 kbps
Codec: FLAC

The Moody Blues - Timeless Flight (2013) [Limited Super Deluxe Edition BoxSet, 11CD+6DVD]

Tracklist CD4:

01. Driftwood - 5:05
02. Steppin' in a Slide Zone - 5:31
03. One Step into the Light - 4:29
04. The Day We Meet Again - 6:20
05. Justin Hayward / Forever Autumn - 4:33
06. The Voice - 5:16
07. Gemini Dream - 4:08
08. Reflective Smile - 0:39
09. Veteran Cosmic Rocker - 3:14
10. Blue World - 5:20
11. Running Water - 3:24
12. Sitting at the Wheel (German 12-inch version) - 7:33
13. The Other Side of Life - 6:52
14. Slings and Arrows - 4:28
15. Your Wildest Dreams - 4:53
16. River of Endless Love - 4:46

Exact Audio Copy V1.0 beta 3 from 29. August 2011

EAC extraction logfile from 15. June 2013, 19:58

The Moody Blues / Timeless Flight (Disc 4)

Used drive : ATAPI iHAS124 B Adapter: 2 ID: 0

Read mode : Secure
Utilize accurate stream : Yes
Defeat audio cache : Yes
Make use of C2 pointers : No

Read offset correction : 6
Overread into Lead-In and Lead-Out : No
Fill up missing offset samples with silence : Yes
Delete leading and trailing silent blocks : No
Null samples used in CRC calculations : Yes
Used interface : Native Win32 interface for Win NT & 2000

Used output format : User Defined Encoder
Selected bitrate : 1024 kBit/s
Quality : High
Add ID3 tag : No
Command line compressor : C:\Program Files (x86)\Exact Audio Copy\FLAC\FLAC.EXE
Additional command line options : -8 -V -T "ARTIST=%artist%" -T "TITLE=%title%" -T "ALBUM=%albumtitle%" -T "DATE=%year%" -T "TRACKNUMBER=%tracknr%" -T "GENRE=%genre%" -T "PERFORMER=%albuminterpret%" -T "COMPOSER=%composer%" %haslyrics%–tag-from-file=LYRICS="%lyricsfile%"%haslyrics% -T "ALBUMARTIST=%albumartist%" -T "DISCNUMBER=%cdnumber%" -T "TOTALDISCS=%totalcds%" -T "TOTALTRACKS=%numtracks%" -T "COMMENT=%comment%" %source% -o %dest%


TOC of the extracted CD

Track | Start | Length | Start sector | End sector
––––––––––––––––––––––––––––-
1 | 0:00.00 | 5:04.70 | 0 | 22869
2 | 5:04.70 | 5:31.17 | 22870 | 47711
3 | 10:36.12 | 4:28.40 | 47712 | 67851
4 | 15:04.52 | 6:19.40 | 67852 | 96316
5 | 21:24.17 | 4:33.00 | 96317 | 116791
6 | 25:57.17 | 5:16.27 | 116792 | 140518
7 | 31:13.44 | 4:08.22 | 140519 | 159140
8 | 35:21.66 | 0:38.44 | 159141 | 162034
9 | 36:00.35 | 3:14.33 | 162035 | 176617
10 | 39:14.68 | 5:20.08 | 176618 | 200625
11 | 44:35.01 | 3:23.73 | 200626 | 215923
12 | 47:58.74 | 7:33.09 | 215924 | 249907
13 | 55:32.08 | 6:52.27 | 249908 | 280834
14 | 62:24.35 | 4:27.67 | 280835 | 300926
15 | 66:52.27 | 4:53.13 | 300927 | 322914
16 | 71:45.40 | 4:45.46 | 322915 | 344335


Range status and errors

Selected range

Filename G:\CD\The Moody Blues - Timeless Flight (Disc 4).wav

Peak level 98.8 %
Extraction speed 6.6 X
Range quality 100.0 %
Test CRC B64A3FD7
Copy CRC B64A3FD7
Copy OK

No errors occurred


AccurateRip summary

Track 1 not present in database
Track 2 not present in database
Track 3 not present in database
Track 4 not present in database
Track 5 not present in database
Track 6 not present in database
Track 7 not present in database
Track 8 not present in database
Track 9 not present in database
Track 10 not present in database
Track 11 not present in database
Track 12 not present in database
Track 13 not present in database
Track 14 not present in database
Track 15 not present in database
Track 16 not present in database

None of the tracks are present in the AccurateRip database

End of status report

foobar2000 1.2.4 / Dynamic Range Meter 1.1.1
log date: 2013-06-27 17:55:27

––––––––––––––––––––––––––––––––––––––––
Analyzed: The Moody Blues / Timeless Flight (Disc 4)
––––––––––––––––––––––––––––––––––––––––

DR Peak RMS Duration Track
––––––––––––––––––––––––––––––––––––––––
DR8 -0.10 dB -10.38 dB 5:05 01-Driftwood
DR9 -0.10 dB -12.05 dB 5:31 02-Steppin' in a Slide Zone
DR9 -0.10 dB -12.33 dB 4:29 03-One Step into the Light
DR10 -0.10 dB -12.35 dB 6:20 04-The Day We Meet Again
DR10 -0.10 dB -13.75 dB 4:33 05-Justin Hayward / Forever Autumn
DR8 -0.10 dB -9.32 dB 5:16 06-The Voice
DR9 -0.10 dB -10.26 dB 4:08 07-Gemini Dream
DR10 -0.29 dB -15.32 dB 0:39 08-Reflective Smile
DR9 -0.10 dB -10.89 dB 3:14 09-Veteran Cosmic Rocker
DR7 -0.10 dB -9.00 dB 5:20 10-Blue World
DR7 -0.10 dB -10.27 dB 3:24 11-Running Water
DR8 -0.10 dB -9.98 dB 7:33 12-Sitting at the Wheel (German 12-inch version)
DR11 -0.10 dB -12.62 dB 6:52 13-The Other Side of Life
DR11 -0.10 dB -12.63 dB 4:28 14-Slings and Arrows
DR10 -0.10 dB -11.69 dB 4:53 15-Your Wildest Dreams
DR10 -0.10 dB -11.18 dB 4:46 16-River of Endless Love
––––––––––––––––––––––––––––––––––––––––

Number of tracks: 16
Official DR value: DR9

Samplerate: 44100 Hz
Channels: 2
Bits per sample: 16
Bitrate: 937 kbps
Codec: FLAC

The Moody Blues - Timeless Flight (2013) [Limited Super Deluxe Edition BoxSet, 11CD+6DVD]

Tracklist CD5:

01. I Know You're Out There Somewhere - 6:39
02. No More Lies - 5:16
03. Isn't Life Strange ('Greatest Hits' version) - 6:40
04. Question ('Greatest Hits' version) - 5:46
05. Lean on Me (Tonight) - 4:59
06. Say it With Love - 3:59
07. Bless the Wings (That Bring You Back) - 5:11
08. Say What You Mean - 5:37
09. Highway - 4:38
10. This is the Moment - 4:41
11. English Sunset - 5:07
12. Sooner or later (Walkin' on Air) - 3:51
13. Strange Times - 4:31
14. The Swallow - 5:00
15. December Snow - 5:11

Exact Audio Copy V1.0 beta 3 from 29. August 2011

EAC extraction logfile from 15. June 2013, 20:21

The Moody Blues / Timeless Flight (Disc 5)

Used drive : ATAPI iHAS124 B Adapter: 2 ID: 0

Read mode : Secure
Utilize accurate stream : Yes
Defeat audio cache : Yes
Make use of C2 pointers : No

Read offset correction : 6
Overread into Lead-In and Lead-Out : No
Fill up missing offset samples with silence : Yes
Delete leading and trailing silent blocks : No
Null samples used in CRC calculations : Yes
Used interface : Native Win32 interface for Win NT & 2000

Used output format : User Defined Encoder
Selected bitrate : 1024 kBit/s
Quality : High
Add ID3 tag : No
Command line compressor : C:\Program Files (x86)\Exact Audio Copy\FLAC\FLAC.EXE
Additional command line options : -8 -V -T "ARTIST=%artist%" -T "TITLE=%title%" -T "ALBUM=%albumtitle%" -T "DATE=%year%" -T "TRACKNUMBER=%tracknr%" -T "GENRE=%genre%" -T "PERFORMER=%albuminterpret%" -T "COMPOSER=%composer%" %haslyrics%–tag-from-file=LYRICS="%lyricsfile%"%haslyrics% -T "ALBUMARTIST=%albumartist%" -T "DISCNUMBER=%cdnumber%" -T "TOTALDISCS=%totalcds%" -T "TOTALTRACKS=%numtracks%" -T "COMMENT=%comment%" %source% -o %dest%


TOC of the extracted CD

Track | Start | Length | Start sector | End sector
––––––––––––––––––––––––––––-
1 | 0:00.00 | 6:38.44 | 0 | 29893
2 | 6:38.44 | 5:15.50 | 29894 | 53568
3 | 11:54.19 | 6:40.04 | 53569 | 83572
4 | 18:34.23 | 5:46.27 | 83573 | 109549
5 | 24:20.50 | 4:58.53 | 109550 | 131952
6 | 29:19.28 | 3:58.39 | 131953 | 149841
7 | 33:17.67 | 5:11.35 | 149842 | 173201
8 | 38:29.27 | 5:37.22 | 173202 | 198498
9 | 44:06.49 | 4:37.39 | 198499 | 219312
10 | 48:44.13 | 4:41.11 | 219313 | 240398
11 | 53:25.24 | 5:07.03 | 240399 | 263426
12 | 58:32.27 | 3:51.03 | 263427 | 280754
13 | 62:23.30 | 4:31.21 | 280755 | 301100
14 | 66:54.51 | 4:59.54 | 301101 | 323579
15 | 71:54.30 | 5:10.74 | 323580 | 346903


Range status and errors

Selected range

Filename G:\CD\The Moody Blues - Timeless Flight (Disc 5).wav

Peak level 98.8 %
Extraction speed 6.8 X
Range quality 100.0 %
Test CRC 8181A98E
Copy CRC 8181A98E
Copy OK

No errors occurred


AccurateRip summary

Track 1 not present in database
Track 2 not present in database
Track 3 not present in database
Track 4 not present in database
Track 5 not present in database
Track 6 not present in database
Track 7 not present in database
Track 8 not present in database
Track 9 not present in database
Track 10 not present in database
Track 11 not present in database
Track 12 not present in database
Track 13 not present in database
Track 14 not present in database
Track 15 not present in database

None of the tracks are present in the AccurateRip database

End of status report

foobar2000 1.2.4 / Dynamic Range Meter 1.1.1
log date: 2013-06-27 17:55:49

––––––––––––––––––––––––––––––––––––––––
Analyzed: The Moody Blues / Timeless Flight (Disc 5)
––––––––––––––––––––––––––––––––––––––––

DR Peak RMS Duration Track
––––––––––––––––––––––––––––––––––––––––
DR9 -0.10 dB -11.47 dB 6:39 01-I Know You're Out There Somewhere
DR9 -0.30 dB -10.55 dB 5:16 02-No More Lies
DR8 -0.10 dB -12.20 dB 6:40 03-Isn't Life Strange ('Greatest Hits' version)
DR9 -0.30 dB -12.89 dB 5:46 04-Question ('Greatest Hits' version)
DR11 -0.10 dB -13.57 dB 4:59 05-Lean on Me (Tonight)
DR11 -0.10 dB -12.42 dB 3:59 06-Say it With Love
DR10 -0.59 dB -12.79 dB 5:11 07-Bless the Wings (That Bring You Back)
DR10 -0.10 dB -12.41 dB 5:37 08-Say What You Mean
DR10 -0.10 dB -12.80 dB 4:38 09-Highway
DR9 -0.66 dB -12.63 dB 4:41 10-This is the Moment
DR7 -0.81 dB -10.65 dB 5:07 11-English Sunset
DR7 -1.85 dB -10.28 dB 3:51 12-Sooner or later (Walkin' on Air)
DR7 -1.66 dB -11.41 dB 4:31 13-Strange Times
DR8 -1.99 dB -12.64 dB 5:00 14-The Swallow
DR9 -0.88 dB -12.65 dB 5:11 15-December Snow
––––––––––––––––––––––––––––––––––––––––

Number of tracks: 15
Official DR value: DR9

Samplerate: 44100 Hz
Channels: 2
Bits per sample: 16
Bitrate: 907 kbps
Codec: FLAC

The Moody Blues - Timeless Flight (2013) [Limited Super Deluxe Edition BoxSet, 11CD+6DVD]

Tracklist CD6:
Live at The Royal Albert Hall, 1969

01. Gypsy - 4:09
02. The Sunset - 4:40
03. Dr. Livingston I Presume - 3:46
04. Never Comes the Day - 5:01
05. Peak Hour - 5:09
06. Tuesday Afternoon - 5:09
07. Are You Sitting Comfortably? - 4:04
08. The Dream - 0:53
09. Have You Heard - Part One - 1:23
10. The Voyage - 3:37
11. Have You Heard - Part Two - 2:34
12. Nights in White Satin - 6:14
13. Legend of a Mind - 6:53
14. Ride My See Saw - 4:16

Exact Audio Copy V1.0 beta 3 from 29. August 2011

EAC extraction logfile from 15. June 2013, 20:55

The Moody Blues / Timeless Flight (Disc 6)

Used drive : ATAPI iHAS124 B Adapter: 2 ID: 0

Read mode : Secure
Utilize accurate stream : Yes
Defeat audio cache : Yes
Make use of C2 pointers : No

Read offset correction : 6
Overread into Lead-In and Lead-Out : No
Fill up missing offset samples with silence : Yes
Delete leading and trailing silent blocks : No
Null samples used in CRC calculations : Yes
Used interface : Native Win32 interface for Win NT & 2000

Used output format : User Defined Encoder
Selected bitrate : 1024 kBit/s
Quality : High
Add ID3 tag : No
Command line compressor : C:\Program Files (x86)\Exact Audio Copy\FLAC\FLAC.EXE
Additional command line options : -8 -V -T "ARTIST=%artist%" -T "TITLE=%title%" -T "ALBUM=%albumtitle%" -T "DATE=%year%" -T "TRACKNUMBER=%tracknr%" -T "GENRE=%genre%" -T "PERFORMER=%albuminterpret%" -T "COMPOSER=%composer%" %haslyrics%–tag-from-file=LYRICS="%lyricsfile%"%haslyrics% -T "ALBUMARTIST=%albumartist%" -T "DISCNUMBER=%cdnumber%" -T "TOTALDISCS=%totalcds%" -T "TOTALTRACKS=%numtracks%" -T "COMMENT=%comment%" %source% -o %dest%


TOC of the extracted CD

Track | Start | Length | Start sector | End sector
––––––––––––––––––––––––––––-
1 | 0:00.00 | 4:08.44 | 0 | 18643
2 | 4:08.44 | 4:40.19 | 18644 | 39662
3 | 8:48.63 | 3:45.59 | 39663 | 56596
4 | 12:34.47 | 5:00.50 | 56597 | 79146
5 | 17:35.22 | 5:09.01 | 79147 | 102322
6 | 22:44.23 | 5:09.01 | 102323 | 125498
7 | 27:53.24 | 4:04.09 | 125499 | 143807
8 | 31:57.33 | 0:52.66 | 143808 | 147773
9 | 32:50.24 | 1:22.45 | 147774 | 153968
10 | 34:12.69 | 3:37.04 | 153969 | 170247
11 | 37:49.73 | 2:34.34 | 170248 | 181831
12 | 40:24.32 | 6:14.13 | 181832 | 209894
13 | 46:38.45 | 6:53.33 | 209895 | 240902
14 | 53:32.03 | 4:16.11 | 240903 | 260113


Range status and errors

Selected range

Filename G:\CD\The Moody Blues - Timeless Flight (Disc 6).wav

Peak level 98.8 %
Extraction speed 6.0 X
Range quality 100.0 %
Test CRC 95732487
Copy CRC 95732487
Copy OK

No errors occurred


AccurateRip summary

Track 1 not present in database
Track 2 not present in database
Track 3 not present in database
Track 4 not present in database
Track 5 not present in database
Track 6 not present in database
Track 7 not present in database
Track 8 not present in database
Track 9 not present in database
Track 10 not present in database
Track 11 not present in database
Track 12 not present in database
Track 13 not present in database
Track 14 not present in database

None of the tracks are present in the AccurateRip database

End of status report

foobar2000 1.2.4 / Dynamic Range Meter 1.1.1
log date: 2013-06-27 17:56:32

––––––––––––––––––––––––––––––––––––––––
Analyzed: The Moody Blues / Timeless Flight (Disc 6)
––––––––––––––––––––––––––––––––––––––––

DR Peak RMS Duration Track
––––––––––––––––––––––––––––––––––––––––
DR10 -0.10 dB -11.78 dB 4:09 01-Gypsy (Live at The Royal Albert Hall, 1969)
DR11 -0.10 dB -14.43 dB 4:40 02-The Sunset (Live at The Royal Albert Hall, 1969)
DR10 -0.10 dB -12.67 dB 3:46 03-Dr. Livingston I Presume (Live at The Royal Albert Hall, 1969)
DR9 -0.10 dB -12.17 dB 5:01 04-Never Comes the Day (Live at The Royal Albert Hall, 1969)
DR9 -0.10 dB -12.31 dB 5:09 05-Peak Hour (Live at The Royal Albert Hall, 1969)
DR10 -0.10 dB -13.27 dB 5:09 06-Tuesday Afternoon (Live at The Royal Albert Hall, 1969)
DR11 -2.09 dB -18.06 dB 4:04 07-Are You Sitting Comfortably? (Live at The Royal Albert Hall, 1969)
DR15 -3.24 dB -26.46 dB 0:53 08-The Dream (Live at The Royal Albert Hall, 1969)
DR11 -0.43 dB -16.57 dB 1:23 09-Have You Heard - Part One (Live at The Royal Albert Hall, 1969)
DR12 -0.10 dB -16.76 dB 3:37 10-The Voyage (Live at The Royal Albert Hall, 1969)
DR12 -0.33 dB -16.63 dB 2:34 11-Have You Heard - Part Two (Live at The Royal Albert Hall, 1969)
DR10 -0.10 dB -13.78 dB 6:14 12-Nights in White Satin (Live at The Royal Albert Hall, 1969)
DR11 -0.10 dB -14.11 dB 6:53 13-Legend of a Mind (Live at The Royal Albert Hall, 1969)
DR10 -0.10 dB -11.65 dB 4:16 14-Ride My See Saw (Live at The Royal Albert Hall, 1969)
––––––––––––––––––––––––––––––––––––––––

Number of tracks: 14
Official DR value: DR11

Samplerate: 44100 Hz
Channels: 2
Bits per sample: 16
Bitrate: 814 kbps
Codec: FLAC

The Moody Blues - Timeless Flight (2013) [Limited Super Deluxe Edition BoxSet, 11CD+6DVD]

Tracklist CD7:
Live at Lancaster University, 1975

01. Tuesday Afternoon - 5:13
02. You and Me - 4:12
03. My Brother - 4:31
04. Isn't Life Strange - 6:25
05. Who Are You Now - 2:49
06. New Horizons - 6:14
07. Emily's Song - 4:01
08. I Dreamed Last Night - 4:13
09. Nights in White Satin - 6:44
10. I'm Just a Singer (in a Rock and Roll Band) - 4:46
11. Blue Guitar - 4:13
12. When You Wake Up - 6:00
13. Question - 6:53

Exact Audio Copy V1.0 beta 3 from 29. August 2011

EAC extraction logfile from 15. June 2013, 22:13

The Moody Blues / Timeless Flight (Disc 7)

Used drive : ATAPI iHAS124 B Adapter: 2 ID: 0

Read mode : Secure
Utilize accurate stream : Yes
Defeat audio cache : Yes
Make use of C2 pointers : No

Read offset correction : 6
Overread into Lead-In and Lead-Out : No
Fill up missing offset samples with silence : Yes
Delete leading and trailing silent blocks : No
Null samples used in CRC calculations : Yes
Used interface : Native Win32 interface for Win NT & 2000

Used output format : User Defined Encoder
Selected bitrate : 1024 kBit/s
Quality : High
Add ID3 tag : No
Command line compressor : C:\Program Files (x86)\Exact Audio Copy\FLAC\FLAC.EXE
Additional command line options : -8 -V -T "ARTIST=%artist%" -T "TITLE=%title%" -T "ALBUM=%albumtitle%" -T "DATE=%year%" -T "TRACKNUMBER=%tracknr%" -T "GENRE=%genre%" -T "PERFORMER=%albuminterpret%" -T "COMPOSER=%composer%" %haslyrics%–tag-from-file=LYRICS="%lyricsfile%"%haslyrics% -T "ALBUMARTIST=%albumartist%" -T "DISCNUMBER=%cdnumber%" -T "TOTALDISCS=%totalcds%" -T "TOTALTRACKS=%numtracks%" -T "COMMENT=%comment%" %source% -o %dest%


TOC of the extracted CD

Track | Start | Length | Start sector | End sector
––––––––––––––––––––––––––––-
1 | 0:00.00 | 5:12.44 | 0 | 23443
2 | 5:12.44 | 4:11.42 | 23444 | 42310
3 | 9:24.11 | 4:30.42 | 42311 | 62602
4 | 13:54.53 | 6:25.32 | 62603 | 91509
5 | 20:20.10 | 2:48.55 | 91510 | 104164
6 | 23:08.65 | 6:14.11 | 104165 | 132225
7 | 29:23.01 | 4:01.31 | 132226 | 150331
8 | 33:24.32 | 4:12.51 | 150332 | 169282
9 | 37:37.08 | 6:43.72 | 169283 | 199579
10 | 44:21.05 | 4:45.43 | 199580 | 220997
11 | 49:06.48 | 4:12.45 | 220998 | 239942
12 | 53:19.18 | 6:00.13 | 239943 | 266955
13 | 59:19.31 | 6:53.00 | 266956 | 297930


Range status and errors

Selected range

Filename G:\CD\The Moody Blues - Timeless Flight (Disc 7).wav

Peak level 98.8 %
Extraction speed 6.2 X
Range quality 100.0 %
Test CRC 9E9080D9
Copy CRC 9E9080D9
Copy OK

No errors occurred


AccurateRip summary

Track 1 not present in database
Track 2 not present in database
Track 3 not present in database
Track 4 not present in database
Track 5 not present in database
Track 6 not present in database
Track 7 not present in database
Track 8 not present in database
Track 9 not present in database
Track 10 not present in database
Track 11 not present in database
Track 12 not present in database
Track 13 not present in database

None of the tracks are present in the AccurateRip database

End of status report

foobar2000 1.2.4 / Dynamic Range Meter 1.1.1
log date: 2013-06-27 17:56:51

––––––––––––––––––––––––––––––––––––––––
Analyzed: The Moody Blues / Timeless Flight (Disc 7)
––––––––––––––––––––––––––––––––––––––––

DR Peak RMS Duration Track
––––––––––––––––––––––––––––––––––––––––
DR11 -0.58 dB -14.93 dB 5:13 01-Tuesday Afternoon (Live at Lancaster University, 1975)
DR11 -0.10 dB -13.40 dB 4:12 02-You and Me (Live at Lancaster University, 1975)
DR12 -0.88 dB -14.58 dB 4:31 03-My Brother (Live at Lancaster University, 1975)
DR12 -0.58 dB -16.63 dB 6:25 04-Isn't Life Strange (Live at Lancaster University, 1975)
DR12 -7.32 dB -22.90 dB 2:49 05-Who Are You Now (Live at Lancaster University, 1975)
DR12 -5.31 dB -21.12 dB 6:14 06-New Horizons (Live at Lancaster University, 1975)
DR13 -5.17 dB -22.98 dB 4:01 07-Emily's Song (Live at Lancaster University, 1975)
DR12 -3.47 dB -17.83 dB 4:13 08-I Dreamed Last Night (Live at Lancaster University, 1975)
DR10 -0.10 dB -14.53 dB 6:44 09-Nights in White Satin (Live at Lancaster University, 1975)
DR12 -0.10 dB -14.01 dB 4:46 10-I'm Just a Singer (in a Rock and Roll Band) (Live at Lancaster University, 1975)
DR11 -0.10 dB -14.75 dB 4:13 11-Blue Guitar (Live at Lancaster University, 1975)
DR12 -0.10 dB -14.10 dB 6:00 12-When You Wake Up (Live at Lancaster University, 1975)
DR11 -0.10 dB -14.84 dB 6:53 13-Question (Live at Lancaster University, 1975)
––––––––––––––––––––––––––––––––––––––––

Number of tracks: 13
Official DR value: DR12

Samplerate: 44100 Hz
Channels: 2
Bits per sample: 16
Bitrate: 839 kbps
Codec: FLAC

The Moody Blues - Timeless Flight (2013) [Limited Super Deluxe Edition BoxSet, 11CD+6DVD]

Tracklist CD8:
Live at The Coliseum, Seattle, 1979

01. Steppin' in a Slide Zone - 4:58
02. Twilight Time - 3:41
03. The Day We Meet Again - 7:03
04. The Story In Your Eyes - 3:40
05. I'm Your Man - 4:45
06. Driftwood - 5:19
07. I'll Be Level With You - 4:25
08. Gypsy - 3:42
09. Survival - 5:16
10. The Balance - 3:52
11. Nights in White Satin - 6:06
12. Legend of a Mind - 12:40
13. Question - 6:50
14. Ride My See Saw - 4:11

Exact Audio Copy V1.0 beta 3 from 29. August 2011

EAC extraction logfile from 15. June 2013, 21:52

The Moody Blues / Timeless Flight (Disc 8)

Used drive : ATAPI iHAS124 B Adapter: 2 ID: 0

Read mode : Secure
Utilize accurate stream : Yes
Defeat audio cache : Yes
Make use of C2 pointers : No

Read offset correction : 6
Overread into Lead-In and Lead-Out : No
Fill up missing offset samples with silence : Yes
Delete leading and trailing silent blocks : No
Null samples used in CRC calculations : Yes
Used interface : Native Win32 interface for Win NT & 2000

Used output format : User Defined Encoder
Selected bitrate : 1024 kBit/s
Quality : High
Add ID3 tag : No
Command line compressor : C:\Program Files (x86)\Exact Audio Copy\FLAC\FLAC.EXE
Additional command line options : -8 -V -T "ARTIST=%artist%" -T "TITLE=%title%" -T "ALBUM=%albumtitle%" -T "DATE=%year%" -T "TRACKNUMBER=%tracknr%" -T "GENRE=%genre%" -T "PERFORMER=%albuminterpret%" -T "COMPOSER=%composer%" %haslyrics%–tag-from-file=LYRICS="%lyricsfile%"%haslyrics% -T "ALBUMARTIST=%albumartist%" -T "DISCNUMBER=%cdnumber%" -T "TOTALDISCS=%totalcds%" -T "TOTALTRACKS=%numtracks%" -T "COMMENT=%comment%" %source% -o %dest%


TOC of the extracted CD

Track | Start | Length | Start sector | End sector
––––––––––––––––––––––––––––-
1 | 0:00.00 | 4:58.00 | 0 | 22349
2 | 4:58.00 | 3:40.74 | 22350 | 38923
3 | 8:38.74 | 7:03.05 | 38924 | 70653
4 | 15:42.04 | 3:39.74 | 70654 | 87152
5 | 19:22.03 | 4:45.18 | 87153 | 108545
6 | 24:07.21 | 5:18.64 | 108546 | 132459
7 | 29:26.10 | 4:24.71 | 132460 | 152330
8 | 33:51.06 | 3:42.30 | 152331 | 169010
9 | 37:33.36 | 5:15.54 | 169011 | 192689
10 | 42:49.15 | 3:52.32 | 192690 | 210121
11 | 46:41.47 | 6:06.30 | 210122 | 237601
12 | 52:48.02 | 12:39.43 | 237602 | 294569
13 | 65:27.45 | 6:49.55 | 294570 | 325299
14 | 72:17.25 | 4:10.71 | 325300 | 344120


Range status and errors

Selected range

Filename G:\CD\The Moody Blues - Timeless Flight (Disc 8).wav

Peak level 98.8 %
Extraction speed 6.9 X
Range quality 100.0 %
Test CRC D2DC6B28
Copy CRC D2DC6B28
Copy OK

No errors occurred


AccurateRip summary

Track 1 not present in database
Track 2 not present in database
Track 3 not present in database
Track 4 not present in database
Track 5 not present in database
Track 6 not present in database
Track 7 not present in database
Track 8 not present in database
Track 9 not present in database
Track 10 not present in database
Track 11 not present in database
Track 12 not present in database
Track 13 not present in database
Track 14 not present in database

None of the tracks are present in the AccurateRip database

End of status report

foobar2000 1.2.4 / Dynamic Range Meter 1.1.1
log date: 2013-06-27 17:57:13

––––––––––––––––––––––––––––––––––––––––
Analyzed: The Moody Blues / Timeless Flight (Disc 8)
––––––––––––––––––––––––––––––––––––––––

DR Peak RMS Duration Track
––––––––––––––––––––––––––––––––––––––––
DR11 -0.21 dB -13.36 dB 4:58 01-Steppin' in a Slide Zone (Live at The Coliseum, Seattle, 1979)
DR11 -0.35 dB -13.02 dB 3:41 02-Twilight Time (Live at The Coliseum, Seattle, 1979)
DR11 -0.10 dB -13.67 dB 7:03 03-The Day We Meet Again (Live at The Coliseum, Seattle, 1979)
DR10 -0.26 dB -12.43 dB 3:40 04-The Story In Your Eyes (Live at The Coliseum, Seattle, 1979)
DR10 -0.31 dB -14.01 dB 4:45 05-I'm Your Man (Live at The Coliseum, Seattle, 1979)
DR10 -0.32 dB -13.56 dB 5:19 06-Driftwood (Live at The Coliseum, Seattle, 1979)
DR10 -0.35 dB -12.00 dB 4:25 07-I'll Be Level With You (Live at The Coliseum, Seattle, 1979)
DR9 -0.34 dB -11.67 dB 3:42 08-Gypsy (Live at The Coliseum, Seattle, 1979)
DR11 -0.28 dB -13.68 dB 5:16 09-Survival (Live at The Coliseum, Seattle, 1979)
DR10 -0.36 dB -15.92 dB 3:52 10-The Balance (Live at The Coliseum, Seattle, 1979)
DR10 -0.34 dB -13.91 dB 6:06 11-Nights in White Satin (Live at The Coliseum, Seattle, 1979)
DR11 -0.39 dB -15.87 dB 12:40 12-Legend of a Mind (Live at The Coliseum, Seattle, 1979)
DR10 -0.32 dB -13.70 dB 6:50 13-Question (Live at The Coliseum, Seattle, 1979)
DR10 -0.37 dB -12.38 dB 4:11 14-Ride My See Saw (Live at The Coliseum, Seattle, 1979)
––––––––––––––––––––––––––––––––––––––––

Number of tracks: 14
Official DR value: DR10

Samplerate: 44100 Hz
Channels: 2
Bits per sample: 16
Bitrate: 859 kbps
Codec: FLAC

The Moody Blues - Timeless Flight (2013) [Limited Super Deluxe Edition BoxSet, 11CD+6DVD]

Tracklist CD9:
Live at The Forum, Inglewood, California, 1983

01. Sitting at the Wheel - 5:59
02. Gemini Dream - 4:58
03. Tuesday Afternoon - 4:42
04. The Voice - 5:41
05. Steppin' in a Slide Zone - 4:36
06. The Story in Your Eyes - 3:58
07. Hole in the World-Under My Feet - 7:23
08. Painted Smile-Reflective Smile - 3:30
09. Veteran Cosmic Rocker - 6:48
10. Driftwood - 4:38

Exact Audio Copy V1.0 beta 3 from 29. August 2011

EAC extraction logfile from 15. June 2013, 22:37

The Moody Blues / Timeless Flight (Disc 9)

Used drive : ATAPI iHAS124 B Adapter: 2 ID: 0

Read mode : Secure
Utilize accurate stream : Yes
Defeat audio cache : Yes
Make use of C2 pointers : No

Read offset correction : 6
Overread into Lead-In and Lead-Out : No
Fill up missing offset samples with silence : Yes
Delete leading and trailing silent blocks : No
Null samples used in CRC calculations : Yes
Used interface : Native Win32 interface for Win NT & 2000

Used output format : User Defined Encoder
Selected bitrate : 1024 kBit/s
Quality : High
Add ID3 tag : No
Command line compressor : C:\Program Files (x86)\Exact Audio Copy\FLAC\FLAC.EXE
Additional command line options : -8 -V -T "ARTIST=%artist%" -T "TITLE=%title%" -T "ALBUM=%albumtitle%" -T "DATE=%year%" -T "TRACKNUMBER=%tracknr%" -T "GENRE=%genre%" -T "PERFORMER=%albuminterpret%" -T "COMPOSER=%composer%" %haslyrics%–tag-from-file=LYRICS="%lyricsfile%"%haslyrics% -T "ALBUMARTIST=%albumartist%" -T "DISCNUMBER=%cdnumber%" -T "TOTALDISCS=%totalcds%" -T "TOTALTRACKS=%numtracks%" -T "COMMENT=%comment%" %source% -o %dest%


TOC of the extracted CD

Track | Start | Length | Start sector | End sector
––––––––––––––––––––––––––––-
1 | 0:00.00 | 5:58.57 | 0 | 26906
2 | 5:58.57 | 4:57.65 | 26907 | 49246
3 | 10:56.47 | 4:42.34 | 49247 | 70430
4 | 15:39.06 | 5:41.09 | 70431 | 96014
5 | 21:20.15 | 4:36.01 | 96015 | 116715
6 | 25:56.16 | 3:57.74 | 116716 | 134564
7 | 29:54.15 | 7:22.53 | 134565 | 167767
8 | 37:16.68 | 3:29.50 | 167768 | 183492
9 | 40:46.43 | 6:47.69 | 183493 | 214086
10 | 47:34.37 | 4:38.36 | 214087 | 234972


Range status and errors

Selected range

Filename G:\CD\The Moody Blues - Timeless Flight (Disc 9).wav

Peak level 98.8 %
Extraction speed 5.8 X
Range quality 100.0 %
Test CRC CDD10826
Copy CRC CDD10826
Copy OK

No errors occurred


AccurateRip summary

Track 1 not present in database
Track 2 not present in database
Track 3 not present in database
Track 4 not present in database
Track 5 not present in database
Track 6 not present in database
Track 7 not present in database
Track 8 not present in database
Track 9 not present in database
Track 10 not present in database

None of the tracks are present in the AccurateRip database

End of status report

foobar2000 1.2.4 / Dynamic Range Meter 1.1.1
log date: 2013-06-27 17:57:32

––––––––––––––––––––––––––––––––––––––––
Analyzed: The Moody Blues / Timeless Flight (Disc 9)
––––––––––––––––––––––––––––––––––––––––

DR Peak RMS Duration Track
––––––––––––––––––––––––––––––––––––––––
DR12 -0.10 dB -13.36 dB 5:59 01-Sitting at the Wheel (Live at The Forum, Inglewood, California, 1983)
DR12 -0.10 dB -14.01 dB 4:58 02-Gemini Dream (Live at The Forum, Inglewood, California, 1983)
DR12 -0.10 dB -13.75 dB 4:42 03-Tuesday Afternoon (Live at The Forum, Inglewood, California, 1983)
DR12 -0.10 dB -13.15 dB 5:41 04-The Voice (Live at The Forum, Inglewood, California, 1983)
DR12 -0.10 dB -13.55 dB 4:36 05-Steppin' in a Slide Zone (Live at The Forum, Inglewood, California, 1983)
DR12 -0.10 dB -13.85 dB 3:58 06-The Story in Your Eyes (Live at The Forum, Inglewood, California, 1983)
DR13 -0.10 dB -15.54 dB 7:23 07-Hole in the World-Under My Feet (Live at The Forum, Inglewood, California, 1983)
DR13 -0.10 dB -15.67 dB 3:30 08-Painted Smile-Reflective Smile (Live at The Forum, Inglewood, California, 1983)
DR12 -0.10 dB -13.79 dB 6:48 09-Veteran Cosmic Rocker (Live at The Forum, Inglewood, California, 1983)
DR13 -0.10 dB -14.92 dB 4:38 10-Driftwood (Live at The Forum, Inglewood, California, 1983)
––––––––––––––––––––––––––––––––––––––––

Number of tracks: 10
Official DR value: DR12

Samplerate: 44100 Hz
Channels: 2
Bits per sample: 16
Bitrate: 947 kbps
Codec: FLAC

The Moody Blues - Timeless Flight (2013) [Limited Super Deluxe Edition BoxSet, 11CD+6DVD]

Tracklist CD10:
Live at The Forum, Ingelwood, California, 1983

01. Talking Out of Turn - 5:58
02. Running Water - 3:53
03. Gypsy - 3:45
04. Isn't Life Strange - 6:56
05. Blue World - 5:15
06. I'm Just a Singer (In a Rock and Roll Band) - 5:12
07. Nights in White Satin - 5:36
08. Legend of a Mind - 10:19
09. Question - 6:23
10. Ride My See Saw - 4:45

Exact Audio Copy V1.0 beta 3 from 29. August 2011

EAC extraction logfile from 16. June 2013, 23:18

The Moody Blues / Timeless Flight (Disc 10)

Used drive : ATAPI iHAS124 B Adapter: 2 ID: 0

Read mode : Secure
Utilize accurate stream : Yes
Defeat audio cache : Yes
Make use of C2 pointers : No

Read offset correction : 6
Overread into Lead-In and Lead-Out : No
Fill up missing offset samples with silence : Yes
Delete leading and trailing silent blocks : No
Null samples used in CRC calculations : Yes
Used interface : Native Win32 interface for Win NT & 2000

Used output format : User Defined Encoder
Selected bitrate : 1024 kBit/s
Quality : High
Add ID3 tag : No
Command line compressor : C:\Program Files (x86)\Exact Audio Copy\FLAC\FLAC.EXE
Additional command line options : -8 -V -T "ARTIST=%artist%" -T "TITLE=%title%" -T "ALBUM=%albumtitle%" -T "DATE=%year%" -T "TRACKNUMBER=%tracknr%" -T "GENRE=%genre%" -T "PERFORMER=%albuminterpret%" -T "COMPOSER=%composer%" %haslyrics%–tag-from-file=LYRICS="%lyricsfile%"%haslyrics% -T "ALBUMARTIST=%albumartist%" -T "DISCNUMBER=%cdnumber%" -T "TOTALDISCS=%totalcds%" -T "TOTALTRACKS=%numtracks%" -T "COMMENT=%comment%" %source% -o %dest%


TOC of the extracted CD

Track | Start | Length | Start sector | End sector
––––––––––––––––––––––––––––-
1 | 0:00.00 | 5:57.69 | 0 | 26843
2 | 5:57.69 | 3:52.66 | 26844 | 44309
3 | 9:50.60 | 3:44.67 | 44310 | 61176
4 | 13:35.52 | 6:56.13 | 61177 | 92389
5 | 20:31.65 | 5:15.07 | 92390 | 116021
6 | 25:46.72 | 5:11.45 | 116022 | 139391
7 | 30:58.42 | 5:36.01 | 139392 | 164592
8 | 36:34.43 | 10:18.60 | 164593 | 211002
9 | 46:53.28 | 6:22.40 | 211003 | 239692
10 | 53:15.68 | 4:44.55 | 239693 | 261047


Range status and errors

Selected range

Filename G:\CD\The Moody Blues - Timeless Flight (Disc 10).wav

Peak level 98.8 %
Extraction speed 6.0 X
Range quality 100.0 %
Test CRC A7E365D7
Copy CRC A7E365D7
Copy OK

No errors occurred


AccurateRip summary

Track 1 not present in database
Track 2 not present in database
Track 3 not present in database
Track 4 not present in database
Track 5 not present in database
Track 6 not present in database
Track 7 not present in database
Track 8 not present in database
Track 9 not present in database
Track 10 not present in database

None of the tracks are present in the AccurateRip database

End of status report

foobar2000 1.2.4 / Dynamic Range Meter 1.1.1
log date: 2013-06-27 17:57:50

––––––––––––––––––––––––––––––––––––––––
Analyzed: The Moody Blues / Timeless Flight (Disc 10)
––––––––––––––––––––––––––––––––––––––––

DR Peak RMS Duration Track
––––––––––––––––––––––––––––––––––––––––
DR14 -0.10 dB -17.16 dB 5:58 01-Talking Out of Turn (Live at The Forum, Ingelwood, California, 1983)
DR12 -0.34 dB -18.65 dB 3:53 02-Running Water (Live at The Forum, Ingelwood, California, 1983)
DR12 -0.10 dB -14.54 dB 3:45 03-Gypsy (Live at The Forum, Ingelwood, California, 1983)
DR13 -0.10 dB -16.10 dB 6:56 04-Isn't Life Strange (Live at The Forum, Ingelwood, California, 1983)
DR12 -0.10 dB -13.93 dB 5:15 05-Blue World (Live at The Forum, Ingelwood, California, 1983)
DR12 -0.10 dB -13.78 dB 5:12 06-I'm Just a Singer (In a Rock and Roll Band) (Live at The Forum, Ingelwood, Ca…
DR12 -0.10 dB -14.77 dB 5:36 07-Nights in White Satin (Live at The Forum, Ingelwood, California, 1983)
DR13 -0.10 dB -16.04 dB 10:19 08-Legend of a Mind (Live at The Forum, Ingelwood, California, 1983)
DR13 -0.10 dB -15.76 dB 6:23 09-Question (Live at The Forum, Ingelwood, California, 1983)
DR13 -0.10 dB -14.65 dB 4:45 10-Ride My See Saw (Live at The Forum, Ingelwood, California, 1983)
––––––––––––––––––––––––––––––––––––––––

Number of tracks: 10
Official DR value: DR13

Samplerate: 44100 Hz
Channels: 2
Bits per sample: 16
Bitrate: 896 kbps
Codec: FLAC

The Moody Blues - Timeless Flight (2013) [Limited Super Deluxe Edition BoxSet, 11CD+6DVD]

Tracklist CD11:

01. The Story in Your Eyes (Live at Red Rocks Ampitheatre, Colorado, 1992) - 3:46
02. New Horizons (Live at Red Rocks Ampitheatre, Colorado, 1992) - 6:15
03. Emily's Song (Live at Red Rocks Ampitheatre, Colorado, 1992) - 4:13
04. Legend of a Mind (Live at Red Rocks Ampitheatre, Colorado, 1992) - 9:05
05. Gemini Dream (Live at the NEC, Birmingham, 1997) - 4:09
06. Tuesday Afternoon (Live at the NEC, Birmingham, 1997) - 4:55
07. Eternity Road (Live at the NEC, Birmingham, 1997) - 4:42
08. Talking Out of Turn (Live at the NEC, Birmingham, 1997) - 6:31
09. I Know You're Out There Somewhere (Live at the NEC, Birmingham, 1997) - 5:24
10. Lean On Me (Tonight) (Live at the NEC, Birmingham, 1997) - 4:45
11. I'm Just a Singer (In a Rock and Roll Band) (Live at the NEC, Birmingham, 1997) - 7:00
12. Nights in White Satin (Live at the NEC, Birmingham, 1997) - 6:56
13. Question (Live at the NEC, Birmingham, 1997) - 6:33
14. Ride My See Saw (Live at the NEC, Birmingham, 1997) - 5:35

Exact Audio Copy V1.0 beta 3 from 29. August 2011

EAC extraction logfile from 15. June 2013, 23:22

The Moody Blues / Timeless Flight (Disc 11)

Used drive : ATAPI iHAS124 B Adapter: 2 ID: 0

Read mode : Secure
Utilize accurate stream : Yes
Defeat audio cache : Yes
Make use of C2 pointers : No

Read offset correction : 6
Overread into Lead-In and Lead-Out : No
Fill up missing offset samples with silence : Yes
Delete leading and trailing silent blocks : No
Null samples used in CRC calculations : Yes
Used interface : Native Win32 interface for Win NT & 2000

Used output format : User Defined Encoder
Selected bitrate : 1024 kBit/s
Quality : High
Add ID3 tag : No
Command line compressor : C:\Program Files (x86)\Exact Audio Copy\FLAC\FLAC.EXE
Additional command line options : -8 -V -T "ARTIST=%artist%" -T "TITLE=%title%" -T "ALBUM=%albumtitle%" -T "DATE=%year%" -T "TRACKNUMBER=%tracknr%" -T "GENRE=%genre%" -T "PERFORMER=%albuminterpret%" -T "COMPOSER=%composer%" %haslyrics%–tag-from-file=LYRICS="%lyricsfile%"%haslyrics% -T "ALBUMARTIST=%albumartist%" -T "DISCNUMBER=%cdnumber%" -T "TOTALDISCS=%totalcds%" -T "TOTALTRACKS=%numtracks%" -T "COMMENT=%comment%" %source% -o %dest%


TOC of the extracted CD

Track | Start | Length | Start sector | End sector
––––––––––––––––––––––––––––-
1 | 0:00.00 | 3:45.55 | 0 | 16929
2 | 3:45.55 | 6:14.65 | 16930 | 45044
3 | 10:00.45 | 4:12.46 | 45045 | 63990
4 | 14:13.16 | 9:05.31 | 63991 | 104896
5 | 23:18.47 | 4:09.31 | 104897 | 123602
6 | 27:28.03 | 4:54.69 | 123603 | 145721
7 | 32:22.72 | 4:42.13 | 145722 | 166884
8 | 37:05.10 | 6:30.55 | 166885 | 196189
9 | 43:35.65 | 5:24.17 | 196190 | 220506
10 | 49:00.07 | 4:44.47 | 220507 | 241853
11 | 53:44.54 | 7:00.08 | 241854 | 273361
12 | 60:44.62 | 6:55.58 | 273362 | 304544
13 | 67:40.45 | 6:32.50 | 304545 | 333994
14 | 74:13.20 | 5:34.59 | 333995 | 359103


Range status and errors

Selected range

Filename G:\CD\The Moody Blues - Timeless Flight (Disc 11).wav

Peak level 98.8 %
Extraction speed 6.9 X
Range quality 100.0 %
Test CRC 48B7A936
Copy CRC 48B7A936
Copy OK

No errors occurred


AccurateRip summary

Track 1 not present in database
Track 2 not present in database
Track 3 not present in database
Track 4 not present in database
Track 5 not present in database
Track 6 not present in database
Track 7 not present in database
Track 8 not present in database
Track 9 not present in database
Track 10 not present in database
Track 11 not present in database
Track 12 not present in database
Track 13 not present in database
Track 14 not present in database

None of the tracks are present in the AccurateRip database

End of status report

foobar2000 1.2.4 / Dynamic Range Meter 1.1.1
log date: 2013-06-27 17:58:12

––––––––––––––––––––––––––––––––––––––––
Analyzed: The Moody Blues / Timeless Flight (Disc 11)
––––––––––––––––––––––––––––––––––––––––

DR Peak RMS Duration Track
––––––––––––––––––––––––––––––––––––––––
DR12 -0.10 dB -13.33 dB 3:46 01-The Story in Your Eyes (Live at Red Rocks Ampitheatre, Colorado, 1992)
DR12 -0.10 dB -15.92 dB 6:15 02-New Horizons (Live at Red Rocks Ampitheatre, Colorado, 1992)
DR13 -0.59 dB -15.96 dB 4:13 03-Emily's Song (Live at Red Rocks Ampitheatre, Colorado, 1992)
DR11 -0.10 dB -14.55 dB 9:05 04-Legend of a Mind (Live at Red Rocks Ampitheatre, Colorado, 1992)
DR11 -0.10 dB -12.66 dB 4:09 05-Gemini Dream (Live at the NEC, Birmingham, 1997)
DR12 -0.10 dB -15.35 dB 4:55 06-Tuesday Afternoon (Live at the NEC, Birmingham, 1997)
DR12 -0.10 dB -14.67 dB 4:42 07-Eternity Road (Live at the NEC, Birmingham, 1997)
DR10 -0.10 dB -12.67 dB 6:31 08-Talking Out of Turn (Live at the NEC, Birmingham, 1997)
DR9 -0.10 dB -11.01 dB 5:24 09-I Know You're Out There Somewhere (Live at the NEC, Birmingham, 1997)
DR11 -0.18 dB -15.67 dB 4:45 10-Lean On Me (Tonight) (Live at the NEC, Birmingham, 1997)
DR9 -0.10 dB -10.78 dB 7:00 11-I'm Just a Singer (In a Rock and Roll Band) (Live at the NEC, Birmingham, 1997)
DR12 -0.10 dB -16.05 dB 6:56 12-Nights in White Satin (Live at the NEC, Birmingham, 1997)
DR11 -0.10 dB -13.32 dB 6:33 13-Question (Live at the NEC, Birmingham, 1997)
DR11 -0.10 dB -12.16 dB 5:35 14-Ride My See Saw (Live at the NEC, Birmingham, 1997)
––––––––––––––––––––––––––––––––––––––––

Number of tracks: 14
Official DR value: DR11

Samplerate: 44100 Hz
Channels: 2
Bits per sample: 16
Bitrate: 941 kbps
Codec: FLAC

The Moody Blues - Timeless Flight (2013) [Limited Super Deluxe Edition BoxSet, 11CD+6DVD]

Tracklist DVD1:

In Search of The Lost Chord - 00:25:30:
(Recorded for the BBC 2 TV “Colour Me Pop” 14th September 1968)
1. Departure / Ride My See Saw
2. Dr. Livingston I Presume
3. House Of Four Doors
4. Voices In The Sky
5. The Best Way To Travel
6. Visions Of Paradise / The Actor
7. Om

TV appearance & Promo Films (1968-1978) - 00:24:26:
8. Nights In White Satin
9. Question
10. I'm Just A Singer (In A Rock And Roll Band)
11. Steppin' In A Slide Zone
12. Had To Fall In Love
13. Driftwood

Nationwide Short Films - 00:12:16:
14. Nationwide Short Films

Title: 2TB
Size: 3.63 Gb ( 3 806 458 KBytes ) - DVD-5
Enabled regions: 1, 2, 3, 4, 5, 6, 7, 8
VTS_01 :
Play Length: 00:25:30
Video: NTSC 4:3 (720x480) VBR
Audio:
English (LinearPCM, 2 ch)
VTS_02 :
Play Length: 00:24:26
Video: NTSC 4:3 (720x480) VBR
Audio:
English (LinearPCM, 2 ch)
VTS_03 :
Play Length: 00:12:16
Video: NTSC 4:3 (720x480) VBR
Audio:
English (LinearPCM, 2 ch)
Menu Video:
NTSC 4:3 (720x480) VBR
Menu Audio:
Not specified (LinearPCM, 2 ch)
Menu Subtitles:
Not specified
Menu English Language Unit :
Root Menu
Chapter (PTT) Menu

The Moody Blues - Timeless Flight (2013) [Limited Super Deluxe Edition BoxSet, 11CD+6DVD]

The Moody Blues - Timeless Flight (2013) [Limited Super Deluxe Edition BoxSet, 11CD+6DVD]

The Moody Blues - Timeless Flight (2013) [Limited Super Deluxe Edition BoxSet, 11CD+6DVD]

The Moody Blues - Timeless Flight (2013) [Limited Super Deluxe Edition BoxSet, 11CD+6DVD]

The Moody Blues - Timeless Flight (2013) [Limited Super Deluxe Edition BoxSet, 11CD+6DVD]

The Moody Blues - Timeless Flight (2013) [Limited Super Deluxe Edition BoxSet, 11CD+6DVD]

The Moody Blues - Timeless Flight (2013) [Limited Super Deluxe Edition BoxSet, 11CD+6DVD]

=============

The Moody Blues - Timeless Flight (2013) [Limited Super Deluxe Edition BoxSet, 11CD+6DVD]

Tracklist DVD2:

La Taverne de Olympia - 14th April 1970- 00:57:57:
1. Lovely To See You
2. Never Comes The Day
3. Tortoise And The Hare
4. Are You Sitting Comfortably
5. Legend Of A Mind
6. Nights In White Satin
7. Ride My See Saw
8. Lazy Day
9. Gypsy
10. Candle Of Life
11. Tuesday Afternoon
12. Don't You Feel Small
13. Question

Title: 2TB
Size: 3.02 Gb ( 3 170 500 KBytes ) - DVD-5
Enabled regions: 1, 2, 3, 4, 5, 6, 7, 8
VTS_01 :
Play Length: 00:57:57
Video: NTSC 4:3 (720x480) VBR
Audio:
English (LinearPCM, 2 ch)
Menu Video:
NTSC 4:3 (720x480) VBR
Menu Audio:
Not specified (LinearPCM, 2 ch)
Menu Subtitles:
Not specified
Menu English Language Unit :
Root Menu
Chapter (PTT) Menu

The Moody Blues - Timeless Flight (2013) [Limited Super Deluxe Edition BoxSet, 11CD+6DVD]

The Moody Blues - Timeless Flight (2013) [Limited Super Deluxe Edition BoxSet, 11CD+6DVD]

The Moody Blues - Timeless Flight (2013) [Limited Super Deluxe Edition BoxSet, 11CD+6DVD]

The Moody Blues - Timeless Flight (2013) [Limited Super Deluxe Edition BoxSet, 11CD+6DVD]

The Moody Blues - Timeless Flight (2013) [Limited Super Deluxe Edition BoxSet, 11CD+6DVD]

=============

The Moody Blues - Timeless Flight (2013) [Limited Super Deluxe Edition BoxSet, 11CD+6DVD]

Tracklist DVD3:

Promo video & TV Show, 1981-1991 - 00:56:58:
1. Gemini Dream (Promo video, 1981)
2. The Voice (Promo video, 1981)
3. Sitting at the Wheel (Promo video, 1983)
4. Blue World (Promo video, 1983)
5. Running Water ('The Leo Sayer Show', 1984)
6. Your Wildest Dreams (Promo video, 1986)
7. The Other Side of Life (Promo video, 1986)
8. Running Out of Love (Promo video, 1986)
9. I Know You're Out There Somewhere (Promo video, 1988)
10. No More Lies (Promo video, 1988)
11. Question (With the London Symphony Orchestra, promo video, 1989)
12. Say It with Love (Promo video, 1991)
13. Bless the Wings (That Bring You Back) ("Garden Party' TV appearance, 1991)

Title: 2TB
Size: 3.14 Gb ( 3 296 568 KBytes ) - DVD-5
Enabled regions: 1, 2, 3, 4, 5, 6, 7, 8
VTS_01 :
Play Length: 00:56:58
Video: NTSC 4:3 (720x480) VBR
Audio:
English (LinearPCM, 2 ch)
Menu Video:
NTSC 4:3 (720x480) VBR
Menu Audio:
Not specified (LinearPCM, 2 ch)
Menu Subtitles:
Not specified
Menu English Language Unit :
Root Menu
Chapter (PTT) Menu

The Moody Blues - Timeless Flight (2013) [Limited Super Deluxe Edition BoxSet, 11CD+6DVD]

The Moody Blues - Timeless Flight (2013) [Limited Super Deluxe Edition BoxSet, 11CD+6DVD]

The Moody Blues - Timeless Flight (2013) [Limited Super Deluxe Edition BoxSet, 11CD+6DVD]

The Moody Blues - Timeless Flight (2013) [Limited Super Deluxe Edition BoxSet, 11CD+6DVD]

The Moody Blues - Timeless Flight (2013) [Limited Super Deluxe Edition BoxSet, 11CD+6DVD]

The Moody Blues - Timeless Flight (2013) [Limited Super Deluxe Edition BoxSet, 11CD+6DVD]

The Moody Blues - Timeless Flight (2013) [Limited Super Deluxe Edition BoxSet, 11CD+6DVD]

=============

The Moody Blues - Timeless Flight (2013) [Limited Super Deluxe Edition BoxSet, 11CD+6DVD]

Tracklist DVD4:

1967 - Days of Future Passed - 00:40:57:

1. The Day Begins
2. Dawn: Dawn Is A Feeling
3. The Morning: Another Morning
4. Lunch Break: Peak Hour
5. The Afternoon
6. Evening
7. Nights In White Satin

1969 - On the Threshold of a Dream - 00:38:37:

1. In the Beginning
2. Lovely to See You
3. Dear Diary
4. Send Me No Wine
5. To Share Our Love
6. So Deep Within You
7. Never Comes the Day
8. Lazy Day
9. Are You Sitting Comfortably
10. The Dream
11. Have You Heard (Part 1)
12. The Voyage
13. Have You Heard (Part 2)

Title: 2TB
Size: 4.30 Gb ( 4 513 794 KBytes ) - DVD-5
Enabled regions: 1, 2, 3, 4, 5, 6, 7, 8
VTS_01 :
Play Length: 00:43:36
Video: NTSC 16:9 (720x480) VBR, Auto Pan&Scan, Auto Letterboxed
Audio:
English (Dolby AC3, 6 ch)
English (DTS, 6 ch)
VTS_02 :
Play Length: 00:38:49
Video: NTSC 16:9 (720x480) VBR, Auto Pan&Scan, Auto Letterboxed
Audio:
English (Dolby AC3, 6 ch)
English (DTS, 6 ch)
VTS_03 :
Play Length: 00:00:12
Video: NTSC 16:9 (720x480) VBR, Auto Pan&Scan, Auto Letterboxed
Audio:
Not specified (Dolby AC3, 2 ch)
VTS_04 :
Play Length: 00:00:07
Video: NTSC 16:9 (720x480) VBR, Auto Pan&Scan, Auto Letterboxed
VTS_05 :
Play Length: 00:00:10
Video: NTSC 16:9 (720x480) VBR, Auto Pan&Scan, Auto Letterboxed
Menu Video:
NTSC 16:9 (720x480) VBR
Auto Pan&Scan, Auto Letterboxed
Menu Subtitles:
Not specified
Menu English Language Unit :
Root Menu

The Moody Blues - Timeless Flight (2013) [Limited Super Deluxe Edition BoxSet, 11CD+6DVD]

The Moody Blues - Timeless Flight (2013) [Limited Super Deluxe Edition BoxSet, 11CD+6DVD]

The Moody Blues - Timeless Flight (2013) [Limited Super Deluxe Edition BoxSet, 11CD+6DVD]

=============

The Moody Blues - Timeless Flight (2013) [Limited Super Deluxe Edition BoxSet, 11CD+6DVD]

Tracklist DVD5:

1966 - To Our Children's Children's Children - 00:40:57:

1. Higher and Higher
2. Eyes of a Child I
3. Floating
4. Eyes of a Child II
5. I Never Thought I'd Live to be a Hundred
6. Beyond
7. Out and In
8. Gypsy
9. Eternity Road
10. Candle of Life
11. Sun Is Still Shining
12. I Never Thought I'd Live to be a Million
13. Watching and Waiting

1970 - A Question of Balance - 00:38:37:

1. Question
2. How Is It (We Are Here)
3. And the Tide Rushes In
4. Don't You Feel Small
5. Tortoise and the Hare
6. It's Up to You
7. Minstrel's Song
8. Dawning is the Day
9. Melancholy Man
10. The Balance

Title: 2TB
Size: 4.24 Gb ( 4 442 556 KBytes ) - DVD-5
Enabled regions: 1, 2, 3, 4, 5, 6, 7, 8
VTS_01 :
Play Length: 00:38:37
Video: NTSC 16:9 (720x480) VBR, Auto Pan&Scan, Auto Letterboxed
Audio:
English (Dolby AC3, 6 ch)
English (DTS, 6 ch)
VTS_02 :
Play Length: 00:00:12
Video: NTSC 16:9 (720x480) VBR, Auto Pan&Scan, Auto Letterboxed
Audio:
Not specified (LinearPCM, 2 ch)
VTS_03 :
Play Length: 00:00:05
Video: NTSC 16:9 (720x480) VBR, Auto Pan&Scan, Auto Letterboxed
VTS_04 :
Play Length: 00:40:57
Video: NTSC 16:9 (720x480) VBR, Auto Pan&Scan, Auto Letterboxed
Audio:
English (Dolby AC3, 6 ch)
English (DTS, 6 ch)
VTS_05 :
Play Length: 00:00:07
Video: NTSC 16:9 (720x480) VBR, Auto Pan&Scan, Auto Letterboxed
Menu Video:
NTSC 16:9 (720x480) VBR
Auto Pan&Scan, Auto Letterboxed
Menu Subtitles:
Not specified
Menu English Language Unit :
Root Menu

The Moody Blues - Timeless Flight (2013) [Limited Super Deluxe Edition BoxSet, 11CD+6DVD]

The Moody Blues - Timeless Flight (2013) [Limited Super Deluxe Edition BoxSet, 11CD+6DVD]

The Moody Blues - Timeless Flight (2013) [Limited Super Deluxe Edition BoxSet, 11CD+6DVD]

=============

The Moody Blues - Timeless Flight (2013) [Limited Super Deluxe Edition BoxSet, 11CD+6DVD]

Tracklist DVD6:

1971 - Every Good Boy Deserves Favour - 00:39:49:

1. Procession
2. The Story in Your Eyes
3. Our Guessing Game
4. Emily's Song
5. After You Came
6. One More Time to Live
7. Nice to Be Here
8. You Can Never Go Home
9. My Song

1972 - Seventh Sojourn - 00:39:12:

1. Lost in a Lost World
2. New Horizons
3. For My Lady
4. Isn't Life Strange
5. You and Me
6. The Land of Make Believe
7. When You're a Free Man
8. I'm Just a Singer (In a Rock and Roll Band)

Title: 2TB
Size: 4.29 Gb ( 4 502 198 KBytes ) - DVD-5
Enabled regions: 1, 2, 3, 4, 5, 6, 7, 8
VTS_01 :
Play Length: 00:39:49
Video: NTSC 16:9 (720x480) VBR, Auto Pan&Scan, Auto Letterboxed
Audio:
English (Dolby AC3, 6 ch)
English (DTS, 6 ch)
VTS_02 :
Play Length: 00:39:12
Video: NTSC 16:9 (720x480) VBR, Auto Pan&Scan, Auto Letterboxed
Audio:
English (Dolby AC3, 6 ch)
English (DTS, 6 ch)
VTS_03 :
Play Length: 00:00:12
Video: NTSC 16:9 (720x480) VBR, Auto Pan&Scan, Auto Letterboxed
Audio:
English (LinearPCM, 2 ch)
VTS_04 :
Play Length: 00:00:07
Video: NTSC 16:9 (720x480) VBR, Auto Pan&Scan, Auto Letterboxed
VTS_05 :
Play Length: 00:00:10
Video: NTSC 16:9 (720x480) VBR, Auto Pan&Scan, Auto Letterboxed
Menu Video:
NTSC 16:9 (720x480) VBR
Auto Pan&Scan, Auto Letterboxed
Menu Subtitles:
Not specified
Menu English Language Unit :
Root Menu

The Moody Blues - Timeless Flight (2013) [Limited Super Deluxe Edition BoxSet, 11CD+6DVD]

The Moody Blues - Timeless Flight (2013) [Limited Super Deluxe Edition BoxSet, 11CD+6DVD]

The Moody Blues - Timeless Flight (2013) [Limited Super Deluxe Edition BoxSet, 11CD+6DVD]

The Moody Blues - Timeless Flight (2013) [Limited Super Deluxe Edition BoxSet, 11CD+6DVD]

All thanks go to gerrV

The Moody Blues in my Blog

Download The Moody Blues - Timeless Flight (2013):