Tags
Language
Tags

The Move - Move (1968) {1998/2001, 20-bit K2 Super Coding Remaster, Japan}

Posted By: popsakov
The Move - Move (1968) {1998/2001, 20-bit K2 Super Coding Remaster, Japan}

The Move - Move (1968) {1998/2001, 20-bit K2 Super Coding Remaster, Japan}
EAC Rip | WavPack (Img) + Cue + Log ~ 451 Mb | MP3 CBR320 ~ 193 Mb
Covers Included | 01:18:12 | RAR 5% Recovery
Beat / Power Pop / Art Rock / Psychedelic Rock / Rock & Roll / British Invasion
Cube Records / Victor Entertainment #VICP-61313

There's a good reason why the Move's eponymous 1968 debut album sounds like the work of two or three different bands – actually, befitting a band with multiple lead singers, there's more than one reason. First, there's that lead singer conundrum. Carl Wayne was the group's frontman, but Roy Wood wrote the band's original tunes and sometimes took the lead, and when the group covered a rock & roll class, they could have rhythm guitarist Trevor Burton sing (as they did on Eddie Cochran's "Weekend") or drummer Bev Bevan (as they did on the Coasters' "Zing Went the Strings of My Heart"). Such ever-changing leads can lend excitement but it can also lend confusion, especially when the group enthusiastically mixes up Who-inspired art pop with three-chord rock & roll oldies and more than a hint of British eccentricity. Add to that, the album had a long, convoluted birth of 14 months, a long span of time in pop music, but it was an eternity in the mid-'60s, when styles and sounds were changing monthly. The Move were releasing singles during this time so they weren't absent from the scene, but they did happen to be set upon a course of cutting singles when their peers were crafting album-length epics, something that separated them from the pack, making them seem eccentric…and the Move needed no help in seeming eccentric. In an age filled with outsized originals, the Move may have been the most peculiar, not quite fitting into any particular scene or sound. They rivaled the Who in their almost violent power, but were almost entirely devoid of Mod style, despite the "Ace" nickname of bassist Chris Kefford. They were as defiantly British as the Kinks, but during 1967 and 1968 they were more closely tied to psychedelia than the Davies brothers, producing intensely colorful records like "(Here We Go Round) The Lemon Tree" and "I Can Hear the Grass Grow," songs that owed a heavy debt to the Beatles. Indeed, the Move were arguably at the forefront of the second wave of the British Invasion, building upon the bright, exuberant sound of 1964 and 1965 and lacking any rooting in the jazz and blues that fueled the Rolling Stones, the Animals, and Manfred Mann, among countless others.

The Move sounded so new that their 1968 debut still sounds unusual, ping-ponging between restless, kaleidoscopic pop and almost campy salutes to early rock & roll, punctuated by the occasional foray into the English countryside and, with the closing "Cherry Blossom Clinic," psychic nightmare. Much of this oddity can be ascribed to Roy Wood, the only member to write, but the Move were certainly a collective, sounding just as off-kilter and distinctive on the aforementioned oldies covers and their version of Moby Grape's "Hey Grandma" as they do on their originals. But it's Wood's originals – ranging from the stately, tightly-buttoned "Kilroy Was Here" to the carnivalesque "(Here We Go Round) The Lemon Tree"; from the gentle, precious "Mist on a Monday Morning" to the perfect pop of "Fire Brigade" and "Flowers in the Rain" – that give The Move its heady rush of melody and tangible sonic textures. This is vivid, imaginative music – almost too vivid, really, as there are so many ideas that it doesn't quite hold together as a complete LP, a curse of the prolonged sessions behind the album, surely. Nevertheless, art-pop albums are always better when there are too many ideas instead of too few, and The Move is one of the first to prove that axiom true.

~ Stephen Thomas Erlewine, All Music

***************

The Move - Move (1968) {1998/2001, 20-bit K2 Super Coding Remaster, Japan}

Track List:

01. Yellow Rainbow [2:37]
02. Kilroy Was Here [2:45]
03. (Here We Go Round) The Lemon Tree [3:01]
04. Weekend [1:48]
05. Walk Upon The Water [3:24]
06. Flowers In The Rain [2:22]
07. Hey Grandma [3:12]
08. Useless Information [2:57]
09. Zing Went The Strings Of My Heart [2:50]
10. The Girl Outside [2:56]
11. Fire Brigade [2:24]
12. Mist On A Monday Morning [2:32]
13. Cherry Blossom Clinic [2:36]
14. Night Of Fear [2:17]
15. The Disturbance [2:49]
16. I Can Hear The Grass Grow [3:08]
17. Wave Your Flag And Stop The Train [2:58]
18. Vote For Me [2:51]
19. The Disturbance (Alternate Version) [2:02]
20. Fire Brigade (Alternate Version) [2:19]
21. Second Class (She's Too Good For You) [2:07]
22. Cherry Blossom Clinic [2:54]
23. (Here We Go Round) The Lemon Tree (Stereo Version) [2:59]
24. Weekend (Stereo Version) [1:48]
25. Flowers In The Rain (Stereo Version) [2:31]
26. Useless Information (Stereo Version) [2:58]
27. Zing Went The String Of My Heart (Stereo Version) [2:51]
28. The Girl Outside (Stereo Vesrion) [2:55]
29. Walk Upon The Water (Stereo Version) [3:21]

Personnel:
Bass - Trevor Burton
Drums - Bev Bevan
Guitar - Ace Kefford
Guitar, Vocals - Roy Wood
Vocals - Carl Wayne

Exact Audio Copy V1.2 from 12. August 2016

EAC extraction logfile from 17. March 2017, 12:43

The Move / The Move [VICP-61313]

Used drive : HL-DT-STBD-RE BH10LS38 Adapter: 1 ID: 1

Read mode : Secure
Utilize accurate stream : Yes
Defeat audio cache : Yes
Make use of C2 pointers : No

Read offset correction : 667
Overread into Lead-In and Lead-Out : No
Fill up missing offset samples with silence : Yes
Delete leading and trailing silent blocks : No
Null samples used in CRC calculations : Yes
Used interface : Installed external ASPI interface

Used output format : User Defined Encoder
Selected bitrate : 128 kBit/s
Quality : High
Add ID3 tag : No
Command line compressor : C:\Program Files (x86)\Exact Audio Copy\wavpack-4.60.1\wavpack.exe
Additional command line options : -hm -w "Year=%year%" -w "Genre=%genre%" %source% %dest%


TOC of the extracted CD

Track | Start | Length | Start sector | End sector
––––––––––––––––––––––––––––-
1 | 0:00.00 | 2:37.10 | 0 | 11784
2 | 2:37.10 | 2:44.65 | 11785 | 24149
3 | 5:22.00 | 3:01.15 | 24150 | 37739
4 | 8:23.15 | 1:48.02 | 37740 | 45841
5 | 10:11.17 | 3:23.55 | 45842 | 61121
6 | 13:34.72 | 2:21.65 | 61122 | 71761
7 | 15:56.62 | 3:12.28 | 71762 | 86189
8 | 19:09.15 | 2:57.05 | 86190 | 99469
9 | 22:06.20 | 2:50.07 | 99470 | 112226
10 | 24:56.27 | 2:55.63 | 112227 | 125414
11 | 27:52.15 | 2:24.10 | 125415 | 136224
12 | 30:16.25 | 2:32.17 | 136225 | 147641
13 | 32:48.42 | 2:36.05 | 147642 | 159346
14 | 35:24.47 | 2:16.70 | 159347 | 169616
15 | 37:41.42 | 2:49.15 | 169617 | 182306
16 | 40:30.57 | 3:08.25 | 182307 | 196431
17 | 43:39.07 | 2:57.63 | 196432 | 209769
18 | 46:36.70 | 2:50.45 | 209770 | 222564
19 | 49:27.40 | 2:02.05 | 222565 | 231719
20 | 51:29.45 | 2:19.22 | 231720 | 242166
21 | 53:48.67 | 2:07.20 | 242167 | 251711
22 | 55:56.12 | 2:53.53 | 251712 | 264739
23 | 58:49.65 | 2:59.02 | 264740 | 278166
24 | 61:48.67 | 1:48.15 | 278167 | 286281
25 | 63:37.07 | 2:30.48 | 286282 | 297579
26 | 66:07.55 | 2:57.62 | 297580 | 310916
27 | 69:05.42 | 2:50.63 | 310917 | 323729
28 | 71:56.30 | 2:55.10 | 323730 | 336864
29 | 74:51.40 | 3:20.65 | 336865 | 351929


Range status and errors

Selected range

Filename G:\Rips by Alder\The Move - The Move [VICP-61313].wav

Peak level 99.9 %
Extraction speed 5.1 X
Range quality 100.0 %
Test CRC 0AD98ED1
Copy CRC 0AD98ED1
Copy OK

No errors occurred


AccurateRip summary

Track 1 accurately ripped (confidence 3) [1D5ABF3E] (AR v1)
Track 2 accurately ripped (confidence 3) [EC4C0D10] (AR v1)
Track 3 accurately ripped (confidence 3) [E26C07E3] (AR v1)
Track 4 accurately ripped (confidence 3) [2386CFDB] (AR v1)
Track 5 accurately ripped (confidence 3) [0A3F7E79] (AR v1)
Track 6 accurately ripped (confidence 3) [9D3BEDBB] (AR v1)
Track 7 accurately ripped (confidence 3) [8F5A857B] (AR v1)
Track 8 accurately ripped (confidence 3) [94A4C1DB] (AR v1)
Track 9 accurately ripped (confidence 3) [A88E9B79] (AR v1)
Track 10 accurately ripped (confidence 3) [ACE84CF1] (AR v1)
Track 11 accurately ripped (confidence 3) [3BCA7970] (AR v1)
Track 12 accurately ripped (confidence 3) [9DDFD664] (AR v1)
Track 13 accurately ripped (confidence 3) [31EA8AFA] (AR v1)
Track 14 accurately ripped (confidence 3) [6236470D] (AR v1)
Track 15 accurately ripped (confidence 3) [781E43F5] (AR v1)
Track 16 accurately ripped (confidence 3) [2028314E] (AR v1)
Track 17 accurately ripped (confidence 3) [C0BAFE07] (AR v1)
Track 18 accurately ripped (confidence 3) [DBB793A5] (AR v1)
Track 19 accurately ripped (confidence 3) [40E06DAB] (AR v1)
Track 20 accurately ripped (confidence 3) [9D9B897D] (AR v1)
Track 21 accurately ripped (confidence 3) [DA9D386B] (AR v1)
Track 22 accurately ripped (confidence 3) [9DE4A171] (AR v1)
Track 23 accurately ripped (confidence 4) [F718F588] (AR v1)
Track 24 accurately ripped (confidence 3) [0CDC9EF6] (AR v1)
Track 25 accurately ripped (confidence 3) [B55117C5] (AR v1)
Track 26 accurately ripped (confidence 3) [12DC7D06] (AR v1)
Track 27 accurately ripped (confidence 3) [338A383E] (AR v1)
Track 28 accurately ripped (confidence 3) [061B07F0] (AR v1)
Track 29 accurately ripped (confidence 3) [D073687B] (AR v1)

All tracks accurately ripped

End of status report

–– CUETools DB Plugin V2.1.6

[CTDB TOCID: sod8uLokrZ3OJnKdF56BVwfaEZY-] found
Submit result: sod8uLokrZ3OJnKdF56BVwfaEZY- has been confirmed
Track | CTDB Status
1 | (3/3) Accurately ripped
2 | (3/3) Accurately ripped
3 | (3/3) Accurately ripped
4 | (3/3) Accurately ripped
5 | (3/3) Accurately ripped
6 | (3/3) Accurately ripped
7 | (3/3) Accurately ripped
8 | (3/3) Accurately ripped
9 | (3/3) Accurately ripped
10 | (3/3) Accurately ripped
11 | (3/3) Accurately ripped
12 | (3/3) Accurately ripped
13 | (3/3) Accurately ripped
14 | (3/3) Accurately ripped
15 | (3/3) Accurately ripped
16 | (3/3) Accurately ripped
17 | (3/3) Accurately ripped
18 | (3/3) Accurately ripped
19 | (3/3) Accurately ripped
20 | (3/3) Accurately ripped
21 | (3/3) Accurately ripped
22 | (3/3) Accurately ripped
23 | (3/3) Accurately ripped
24 | (3/3) Accurately ripped
25 | (3/3) Accurately ripped
26 | (3/3) Accurately ripped
27 | (3/3) Accurately ripped
28 | (3/3) Accurately ripped
29 | (3/3) Accurately ripped


==== Log checksum 03A7DEFBE46FAD6B02A119D0286FC7E958D1FEF7351976BA0B416D0C4D25E72F ====

foobar2000 1.2.6 / Dynamic Range Meter 1.1.1
log date: 2017-03-19 14:24:29

––––––––––––––––––––––––––––––––––––––––
Analyzed: The Move / The Move [VICP-61313]
––––––––––––––––––––––––––––––––––––––––

DR Peak RMS Duration Track
––––––––––––––––––––––––––––––––––––––––
DR7 0.00 dB -8.62 dB 2:37 01-Yellow Rainbow
DR9 -0.04 dB -9.99 dB 2:45 02-Kilroy Was Here
DR8 -0.38 dB -10.24 dB 3:01 03-(Here We Go Round) The Lemon Tree
DR8 0.00 dB -8.63 dB 1:48 04-Weekend
DR8 -0.23 dB -9.19 dB 3:24 05-Walk Upon The Water
DR8 -0.01 dB -10.06 dB 2:22 06-Flowers In The Rain
DR8 -0.16 dB -9.05 dB 3:12 07-Hey Grandma
DR8 -0.01 dB -9.77 dB 2:57 08-Useless Information
DR10 0.00 dB -11.31 dB 2:50 09-Zing Went The Strings Of My Heart
DR8 -0.03 dB -10.17 dB 2:56 10-The Girl Outside
DR8 -0.28 dB -9.27 dB 2:24 11-Fire Brigade
DR8 -0.14 dB -10.79 dB 2:32 12-Mist On A Monday Morning
DR8 -0.06 dB -9.46 dB 2:36 13-Cherry Blossom Clinic
DR10 0.00 dB -11.77 dB 2:17 14-Night Of Fear
DR7 0.00 dB -10.09 dB 2:49 15-The Disturbance
DR9 0.00 dB -10.72 dB 3:08 16-I Can Hear The Grass Grow
DR9 -0.06 dB -10.84 dB 2:58 17-Wave Your Flag And Stop The Train
DR8 -0.10 dB -9.20 dB 2:51 18-Vote For Me
DR8 -0.22 dB -9.62 dB 2:02 19-The Disturbance (Alternate Version)
DR10 0.00 dB -10.95 dB 2:19 20-Fire Brigade (Alternate Version)
DR9 -0.07 dB -10.79 dB 2:07 21-Second Class (She's Too Good For You)
DR9 0.00 dB -10.68 dB 2:54 22-Cherry Blossom Clinic
DR9 0.00 dB -11.39 dB 2:59 23-(Here We Go Round) The Lemon Tree (Stereo Version)
DR8 -0.11 dB -9.46 dB 1:48 24-Weekend (Stereo Version)
DR9 -0.01 dB -11.52 dB 2:31 25-Flowers In The Rain (Stereo Version)
DR9 -0.15 dB -11.25 dB 2:58 26-Useless Information (Stereo Version)
DR11 -0.08 dB -12.72 dB 2:51 27-Zing Went The String Of My Heart (Stereo Version)
DR9 -0.11 dB -10.45 dB 2:55 28-The Girl Outside (Stereo Vesrion)
DR9 -0.04 dB -10.61 dB 3:21 29-Walk Upon The Water (Stereo Version)
––––––––––––––––––––––––––––––––––––––––

Number of tracks: 29
Official DR value: DR9

Samplerate: 44100 Hz
Channels: 2
Bits per sample: 16
Bitrate: 759 kbps
Codec: WavPack
================================================================================

[CUETools log; Date: 19.03.2017 14:24:47; Version: 2.1.5]
[CTDB TOCID: sod8uLokrZ3OJnKdF56BVwfaEZY-] found.
Track | CTDB Status
1 | (4/4) Accurately ripped
2 | (4/4) Accurately ripped
3 | (4/4) Accurately ripped
4 | (4/4) Accurately ripped
5 | (4/4) Accurately ripped
6 | (4/4) Accurately ripped
7 | (4/4) Accurately ripped
8 | (4/4) Accurately ripped
9 | (4/4) Accurately ripped
10 | (4/4) Accurately ripped
11 | (4/4) Accurately ripped
12 | (4/4) Accurately ripped
13 | (4/4) Accurately ripped
14 | (4/4) Accurately ripped
15 | (4/4) Accurately ripped
16 | (4/4) Accurately ripped
17 | (4/4) Accurately ripped
18 | (4/4) Accurately ripped
19 | (4/4) Accurately ripped
20 | (4/4) Accurately ripped
21 | (4/4) Accurately ripped
22 | (4/4) Accurately ripped
23 | (4/4) Accurately ripped
24 | (4/4) Accurately ripped
25 | (4/4) Accurately ripped
26 | (4/4) Accurately ripped
27 | (4/4) Accurately ripped
28 | (4/4) Accurately ripped
29 | (4/4) Accurately ripped
[AccurateRip ID: 00507f1a-067b021d-ba12541d] found.
Track [ CRC | V2 ] Status
01 [1d5abf3e|fc1c9051] (3+0/3) Accurately ripped
02 [ec4c0d10|61588871] (3+0/3) Accurately ripped
03 [e26c07e3|f32b593a] (3+0/3) Accurately ripped
04 [2386cfdb|102c75f9] (3+0/3) Accurately ripped
05 [0a3f7e79|95b08a5c] (3+0/3) Accurately ripped
06 [9d3bedbb|be4729d8] (3+0/3) Accurately ripped
07 [8f5a857b|02b22960] (3+0/3) Accurately ripped
08 [94a4c1db|1c30b51d] (3+0/3) Accurately ripped
09 [a88e9b79|802d74c1] (3+0/3) Accurately ripped
10 [ace84cf1|d48932b3] (3+0/3) Accurately ripped
11 [3bca7970|3f89e3c4] (3+0/3) Accurately ripped
12 [9ddfd664|88a4e440] (3+0/3) Accurately ripped
13 [31ea8afa|8d4677c8] (3+0/3) Accurately ripped
14 [6236470d|82f30dae] (3+0/3) Accurately ripped
15 [781e43f5|15a84d41] (3+0/3) Accurately ripped
16 [2028314e|6fbb4450] (3+0/3) Accurately ripped
17 [c0bafe07|5d622227] (3+0/3) Accurately ripped
18 [dbb793a5|0eabcef4] (3+0/3) Accurately ripped
19 [40e06dab|0d654c0f] (3+0/3) Accurately ripped
20 [9d9b897d|4ac2fa9a] (3+0/3) Accurately ripped
21 [da9d386b|975b9f36] (3+0/3) Accurately ripped
22 [9de4a171|da27ab62] (3+0/3) Accurately ripped
23 [f718f588|8180bbca] (4+0/4) Accurately ripped
24 [0cdc9ef6|33e1e3d9] (3+0/3) Accurately ripped
25 [b55117c5|35894e4f] (3+0/3) Accurately ripped
26 [12dc7d06|d80dc83d] (3+0/3) Accurately ripped
27 [338a383e|6f6c6423] (3+0/3) Accurately ripped
28 [061b07f0|6558fd8b] (3+0/3) Accurately ripped
29 [d073687b|4dc86b55] (3+0/3) Accurately ripped

Track Peak [ CRC32 ] [W/O NULL] [ LOG ]
– 99,9 [0AD98ED1] [52296138] CRC32
01 99,9 [1D09C7B7] [C7B87F4F]
02 99,5 [81CB266B] [7016059B]
03 95,6 [35CB2BC1] [EDF7A2E4]
04 99,9 [14DFBD30] [2929BBC5]
05 97,4 [BF634752] [0FE4FFAC]
06 99,9 [9B782CF1] [3A12DD7C]
07 98,1 [F33539A1] [70EAD566]
08 99,8 [0B4E4ED3] [D545535D]
09 99,9 [AD777661] [1F2AF37E]
10 99,6 [53DC54A7] [A49AD9DE]
11 96,8 [B43AD96A] [34E6F184]
12 98,3 [BA1E4DBF] [3356EC1B]
13 99,2 [0D057C85] [28F26411]
14 99,9 [7C52E5EA] [5D74631D]
15 99,9 [5BEF56A7] [B3673762]
16 99,9 [19C343AA] [018F75DF]
17 99,2 [F21390B5] [D5246501]
18 98,8 [6C50B769] [1D0C98E4]
19 97,4 [CED07908] [8AD3B612]
20 99,9 [8F48EBA4] [60D2A8F9]
21 99,1 [D89E136C] [C7822183]
22 99,9 [1D41DDDD] [BEC24875]
23 99,9 [8C5871FD] [41E901B6]
24 98,7 [5D31A72C] [EAF6FFF2]
25 99,8 [EE59697D] [7F07C9DC]
26 98,3 [F0C3B4C4] [30E4E369]
27 99,1 [26A0265A] [461469AB]
28 98,7 [68875F4E] [6428B377]
29 99,5 [18F3958C] [BEA873EA]

The Move - Move (1968) {1998/2001, 20-bit K2 Super Coding Remaster, Japan}


All thanks go to Alder

>>> The Move in my Blog <<<

DOWNLOAD: