Subcategories

The Music Of Cliff Richard: 16 Instrumental Hits (1995)

Posted By: v3122
The Music Of Cliff Richard: 16 Instrumental Hits (1995)

The Music Of Cliff Richard: 16 Instrumental Hits (1995)
EAC | Flac(Image) + Cue + Log & MP3 CBR 320Kbps
Elap Music, 3826CD | ~ 351 or 134 Mb | Scans(jpg) -> 29 Mb
Instrumental

~ Played by The Songrise Orchestra ~

The Music Of Cliff Richard: 16 Instrumental Hits(1995):

The Music Of Cliff Richard: 16 Instrumental Hits (1995)

Tracklist:

01. She's So Beautiful.
02. I Love You.
03. Wired For Sound.
04. Miss You Nights.
05. Some People.
06. Summer Holiday.
07. Congratulations.
08. All I Ask Of You.
09. The Young Ones.
10. We Don't Talk Anymore.
11. Dreamin'.
12. From A Distance.
13. When The Girl In Your Arms.
14. Living Doll.
15. Silhouettes.
16. Mistletoe And Wine.

Exact Audio Copy V1.3 from 2. September 2016

Отчёт EAC об извлечении, выполненном 11. декабря 2017, 0:11

The Songrise Orchestra / The Music Of Cliff Richard

Дисковод: LITE-ON CD-RW SOHR-5239V Adapter: 8 ID: 0

Режим чтения : Достоверность
Использование точного потока : Да
Отключение кэша аудио : Да
Использование указателей C2 : Нет

Коррекция смещения при чтении : 6
Способность читать области Lead-in и Lead-out : Нет
Заполнение пропущенных сэмплов тишиной : Да
Удаление блоков с тишиной в начале и конце : Нет
При вычислениях CRC использовались нулевые сэмплы : Да
Интерфейс : Установленный внешний ASPI-интерфейс

Выходной формат : Пользовательский кодировщик
Выбранный битрейт : 128 kBit/s
Качество : Высокий
Добавление ID3-тега : Нет
Утилита сжатия : C:\Program Files\Exact Audio Copy\FLAC\FLAC.EXE
Дополнительные параметры : -V -8 -T "Genre=%genre%" -T "Artist=%artist%" -T "Title=%title%" -T "Album=%albumtitle%" -T "Date=%year%" -T "Tracknumber=%tracknr%" -T "Comment=%comment%" %source%


TOC извлечённого CD

Трек | Старт | Длительность | Начальный сектор | Конечный сектор
––––––––––––––––––––––––––––––––––-
1 | 0:00.00 | 3:22.62 | 0 | 15211
2 | 3:22.62 | 2:05.25 | 15212 | 24611
3 | 5:28.12 | 3:48.38 | 24612 | 41749
4 | 9:16.50 | 4:08.22 | 41750 | 60371
5 | 13:24.72 | 3:46.53 | 60372 | 77374
6 | 17:11.50 | 2:28.00 | 77375 | 88474
7 | 19:39.50 | 2:36.62 | 88475 | 100236
8 | 22:16.37 | 4:05.10 | 100237 | 118621
9 | 26:21.47 | 3:23.03 | 118622 | 133849
10 | 29:44.50 | 4:28.00 | 133850 | 153949
11 | 34:12.50 | 4:00.70 | 153950 | 172019
12 | 38:13.45 | 4:47.45 | 172020 | 193589
13 | 43:01.15 | 2:32.12 | 193590 | 205001
14 | 45:33.27 | 2:45.03 | 205002 | 217379
15 | 48:18.30 | 2:56.42 | 217380 | 230621
16 | 51:14.72 | 4:25.63 | 230622 | 250559


Характеристики диапазона извлечения и сообщения об ошибках

Выбранный диапазон

Имя файла I:\MOI_RAZDACI\The.Songrise.Orchestra\The.Songrise.Orchestra_1995\The.Music.Of.Cliff.Richard_1995\The Songrise Orchestra - The Music Of Cliff Richard.wav

Пиковый уровень 100.0 %
Скорость извлечения 8.7 X
Качество диапазона 100.0 %
CRC теста 27F6572B
CRC копии 27F6572B
Копирование… OK

Ошибок не произошло


AccurateRip: сводка

Трек 1 точность не определена (достоверность 1) [0099C7CF], AccurateRip вернул [3234B0F2] (AR v2)
Трек 2 точность не определена (достоверность 1) [0DB8B457], AccurateRip вернул [511C3717] (AR v2)
Трек 3 точность не определена (достоверность 1) [8FB261BD], AccurateRip вернул [4FBE6933] (AR v2)
Трек 4 точность не определена (достоверность 1) [8F5FEF1B], AccurateRip вернул [FC90936D] (AR v2)
Трек 5 точность не определена (достоверность 1) [760EC42A], AccurateRip вернул [86142D0C] (AR v2)
Трек 6 точность не определена (достоверность 1) [D1C2B900], AccurateRip вернул [14B00D6D] (AR v2)
Трек 7 точность не определена (достоверность 1) [1AEA64DC], AccurateRip вернул [C7E10098] (AR v2)
Трек 8 точность не определена (достоверность 1) [B7504260], AccurateRip вернул [25B2836F] (AR v2)
Трек 9 точность не определена (достоверность 1) [3128ED38], AccurateRip вернул [83B4CF93] (AR v2)
Трек 10 точность не определена (достоверность 1) [5806E0BB], AccurateRip вернул [8A627D69] (AR v2)
Трек 11 точность не определена (достоверность 1) [39A06D29], AccurateRip вернул [496723E0] (AR v2)
Трек 12 точность не определена (достоверность 1) [1EE46B91], AccurateRip вернул [BBCE3E21] (AR v2)
Трек 13 точность не определена (достоверность 1) [076C3467], AccurateRip вернул [4A934A7A] (AR v2)
Трек 14 точность не определена (достоверность 1) [4287688D], AccurateRip вернул [ADC639CA] (AR v2)
Трек 15 точность не определена (достоверность 1) [0A89DF3A], AccurateRip вернул [06BB6929] (AR v2)
Трек 16 точность не определена (достоверность 1) [5D7C9A63], AccurateRip вернул [8B90F0BA] (AR v2)

Ни один трек не прошёл проверки на точность
В вашей базе может быть иной вариант штамповки диска

Конец отчёта

–– CUETools DB Plugin V2.1.6

[CTDB TOCID: mWLKsVJ4h.fcEcB1dzGaD5foLpY-] disk not present in database
Submit result: mWLKsVJ4h.fcEcB1dzGaD5foLpY- has been uploaded


==== Контрольная сумма отчёта 04775ABD008C1CD6B2E6388310CDDDF555148254255877C232AF12C7B4E3C918 ====


[CUETools log; Date: 01.05.2018 20:44:41; Version: 2.1.5]
[AccurateRip ID: 001fcb2d-0180d0b2-d10d0c10] found.
Track [ CRC | V2 ] Status
01 [256e2747|0099c7cf] (0+0/1) No match
02 [b03f075f|0db8b457] (0+0/1) No match
03 [7e2f1c9c|8fb261bd] (0+0/1) No match
04 [e346f27a|8f5fef1b] (0+0/1) No match
05 [46e6fefc|760ec42a] (0+0/1) No match
06 [fcb8aa47|d1c2b900] (0+0/1) No match
07 [d5e555ca|1aea64dc] (0+0/1) No match
08 [b6df36e0|b7504260] (0+0/1) No match
09 [7991b32e|3128ed38] (0+0/1) No match
10 [361b7a9c|5806e0bb] (0+0/1) No match
11 [2adab77c|39a06d29] (0+0/1) No match
12 [e97a8539|1ee46b91] (0+0/1) No match
13 [29572a89|076c3467] (0+0/1) No match
14 [e878aa96|4287688d] (0+0/1) No match
15 [21a05ea0|0a89df3a] (0+0/1) No match
16 [6a740b0d|5d7c9a63] (0+0/1) No match
Offsetted by 273:
01 [43797311] (0/1) No match (V2 was not tested)
02 [1166fd25] (0/1) No match (V2 was not tested)
03 [5184a6be] (0/1) No match (V2 was not tested)
04 [3bffc8bd] (0/1) No match (V2 was not tested)
05 [2f464286] (0/1) No match (V2 was not tested)
06 [29f3292d] (0/1) No match (V2 was not tested)
07 [8b54ba5c] (0/1) No match (V2 was not tested)
08 [d0039a96] (0/1) No match (V2 was not tested)
09 [851b6f0c] (0/1) No match (V2 was not tested)
10 [09ca97fb] (0/1) No match (V2 was not tested)
11 [e7b374e1] (0/1) No match (V2 was not tested)
12 [3c89ef8e] (0/1) No match (V2 was not tested)
13 [4f7bd372] (0/1) No match (V2 was not tested)
14 [2a806705] (0/1) No match (V2 was not tested)
15 [003c8cfd] (0/1) No match (V2 was not tested)
16 [65ec8daa] (0/1) No match (V2 was not tested)

Track Peak [ CRC32 ] [W/O NULL] [ LOG ]
– 100,0 [27F6572B] [3AFA2B83] CRC32
01 87,6 [E29DF0AA] [673DB6EF]
02 100,0 [9A218F5D] [B2ABF264]
03 100,0 [21715AC1] [58042008]
04 89,5 [15E908EA] [6BE4DF94]
05 98,6 [7C8A1862] [4F5658DD]
06 100,0 [6B70F3ED] [D25AC443]
07 100,0 [E89FE35C] [73A81062]
08 90,6 [4AEA5E76] [017B44AB]
09 93,1 [11798F56] [2C61AB78]
10 100,0 [3589F7D8] [8C498EF2]
11 85,3 [8317436C] [2AA89AB7]
12 100,0 [01D4F568] [11355FD6]
13 100,0 [56180CE3] [E7C4B0C6]
14 100,0 [3C04D446] [6DD78270]
15 93,1 [9A38D4AE] [556B5F41]
16 95,3 [ABA5A24E] [F1919A1F]


The Music Of Cliff Richard: 16 Instrumental Hits (1995)

All thanks go to the original releaser

The Songrise Orchestra in my Blog

Download The Music Of Cliff Richard: 16 Instrumental Hits (1995):