Tags
Language
Tags

The Nash Ensemble - Brahms: The String Quintets (2009)

Posted By: tirexiss
The Nash Ensemble - Brahms: The String Quintets (2009)

The Nash Ensemble - Brahms: The String Quintets (2009)
EAC | FLAC (image+.cue, log) | Covers + Digital Booklet | 55:40 | 291 MB
Genre: Classical | Label: Onyx Classics | Catalog: ONYX 4043

The two String Quintets are considered to be among Brahms' greatest chamber works. The first was a favorite of the composer, and he wrote to his publisher that, 'you'll never receive anything more beautiful from me.' The second was written when Brahms had all but retired. When he delivered the work to the publisher he wrote, 'with this note you can take leave of my music, because it is high time to stop.' The Nash Ensemble, having recently celebrated their 40th anniversary, are having something of a golden period. Their previous Onyx discs of Turnage and Mendelssohn received rave reviews.

The Nash Ensemble - Brahms: The String Quintets (2009)

Track List:

Johannes Brahms (1833–1897)

[1]-[3] String Quintet No.1 in F major, Op.88
[4]-[7] String Quintet No.2 in G major, Op.111

Performers:
The Nash Ensemble

Marianne Thorsen, violin
Malin Broman, violin
Lawrence Power, viola
Philip Dukes, viola
Paul Watkins, cello

Exact Audio Copy V1.0 beta 3 from 29. August 2011

EAC extraction logfile from 22. July 2012, 0:07

The Nash Ensemble / Brahms - The String Quintets

Used drive : HL-DT-STDVDRAM GSA-4083N Adapter: 1 ID: 0

Read mode : Secure
Utilize accurate stream : Yes
Defeat audio cache : Yes
Make use of C2 pointers : No

Read offset correction : 667
Overread into Lead-In and Lead-Out : No
Fill up missing offset samples with silence : Yes
Delete leading and trailing silent blocks : No
Null samples used in CRC calculations : Yes
Used interface : Native Win32 interface for Win NT & 2000

Used output format : User Defined Encoder
Selected bitrate : 896 kBit/s
Quality : High
Add ID3 tag : No
Command line compressor : C:\Program Files\Exact Audio Copy\Flac\flac.exe
Additional command line options : -V -8 %source%


TOC of the extracted CD

Track | Start | Length | Start sector | End sector
––––––––––––––––––––––––––––-
1 | 0:00.00 | 10:38.32 | 0 | 47881
2 | 10:38.32 | 10:58.25 | 47882 | 97256
3 | 21:36.57 | 4:57.39 | 97257 | 119570
4 | 26:34.21 | 12:20.63 | 119571 | 175133
5 | 38:55.09 | 6:18.25 | 175134 | 203508
6 | 45:13.34 | 5:31.19 | 203509 | 228352
7 | 50:44.53 | 4:55.27 | 228353 | 250504


Range status and errors

Selected range

Filename J:\Music\Brahms - The String Quintets - The Nash Ensemble\Brahms - The String Quintets.wav

Peak level 94.7 %
Extraction speed 4.2 X
Range quality 100.0 %
Test CRC 00BC69DE
Copy CRC 00BC69DE
Copy OK

No errors occurred

End of status report

==== Log checksum 6BAC9BCAF1206CED0A3B2C62D1B92CCE224F41C0AF90C481A3234CF83B7DFEE7 ====

[CUETools log; Date: 08.12.2017 18:12:44; Version: 2.1.5]
[CTDB TOCID: vI50acDA86VFiqtIUunwJ9rDuk4-] found.
Track | CTDB Status
1 | (12/12) Accurately ripped
2 | (12/12) Accurately ripped
3 | (12/12) Accurately ripped
4 | (12/12) Accurately ripped
5 | (12/12) Accurately ripped
6 | (12/12) Accurately ripped
7 | (12/12) Accurately ripped
[AccurateRip ID: 00111fa3-00642cbf-600d0c07] found.
Track [ CRC | V2 ] Status
01 [f0c2a04e|74324b00] (02+12/14) Accurately ripped
02 [618d1b5d|cff60c43] (02+12/14) Accurately ripped
03 [b90a62cd|016af9c3] (02+12/14) Accurately ripped
04 [f1d49067|9baca056] (02+12/14) Accurately ripped
05 [deea7c1e|765a6987] (02+12/14) Accurately ripped
06 [2c364795|fd4ddeda] (02+12/14) Accurately ripped
07 [2ea41d2e|c44e30f9] (02+12/14) Accurately ripped

Track Peak [ CRC32 ] [W/O NULL] [ LOG ]
– 94,7 [00BC69DE] [702D55FD] CRC32
01 89,2 [ABE63460] [0F5673A9]
02 76,9 [A163C03E] [5567B36D]
03 89,1 [900CE97C] [66498F13]
04 94,7 [83832108] [EE44424D]
05 87,5 [AFA52DA7] [DE473CB5]
06 75,6 [672D3B85] [2B3ED4D2]
07 90,1 [11AD8BFA] [5BC5609E]

Thanks to the Original ripper A-Z!

Download: