The Oscar Peterson Trio - We Get Requests (1964) [Analogue Productions, Remastered 2011] Audio CD Layer

Posted By: Designol
The Oscar Peterson Trio - We Get Requests (1964) [Analogue Productions, Remastered 2011] Audio CD Layer

The Oscar Peterson Trio - We Get Requests (1964) [Remastered 2011]
EAC | FLAC | Tracks (Cue&Log) ~ 235 Mb | Mp3 (CBR320) ~ 116 Mb | Scans included | 00:40:20
Bop, Swing, Mainstream Jazz | Label: Analogue Productions, Verve | # CVRJ 8606 SA

Mastered by George Marino at Sterling Sound from the original master tapes to vinyl and PCM. This 1964 studio session features the Peterson trio with bassist Ray Brown and Ed Thigpen, a group that had been together for five years by then and performed like a well-oiled machine. The repertoire is mostly pop songs of the day, including bossa nova tunes and film themes, and the treatments are fairly brief, with emphasis placed squarely on the melodies. Even in their lightest moments, though, the group demonstrates some of the qualities that made it among the most influential piano trios in jazz, a group that could generate tremendous rhythmic energy and a sense of developing musical detail. For all his legendary force, Peterson possesses a subtle rhythmic sense, and here he infuses even "People" with an undercurrent of swing. This is undemanding, tuneful music best suited for casual listening, but it still sparkles with the trio's customary élan.

The Oscar Peterson Trio - We Get Requests (1964) [Analogue Productions, Remastered 2011] Audio CD Layer



Oscar Peterson, piano
Ray Brown, bass
Ed Thigpen, drums

Recorded at RCA Studios, New York on October 19 - November 20, 1964.

Tracklist:

01. Quiet Nights of Quiet Stars (Corcovado) (2:54)
02. Days of Wine and Roses (2:44)
03. My One and Only Love (5:12)
04. People (3:35)
05. Have You Met Miss Jones? (4:14)
06. You Look Good to Me (4:53)
07. The Girl from Ipanema (3:55)
08. D. & E. (5:15)
09. Time and Again (4:39)
10. Goodbye, J.D. (2:59)


Exact Audio Copy V1.0 beta 3 from 29. August 2011

EAC extraction logfile from 15. January 2014, 21:43

Oscar Peterson Trio / We Get Requests

Used drive : TSSTcorpDVDWBD SH-B123L Adapter: 4 ID: 0

Read mode : Secure
Utilize accurate stream : Yes
Defeat audio cache : Yes
Make use of C2 pointers : No

Read offset correction : 6
Overread into Lead-In and Lead-Out : No
Fill up missing offset samples with silence : Yes
Delete leading and trailing silent blocks : No
Null samples used in CRC calculations : Yes
Used interface : Native Win32 interface for Win NT & 2000
Gap handling : Appended to previous track

Used output format : User Defined Encoder
Selected bitrate : 1024 kBit/s
Quality : High
Add ID3 tag : No
Command line compressor : C:\Program Files (x86)\Exact Audio Copy\Flac\flac.exe
Additional command line options : -8 -V -T "ARTIST=%artist%" -T "TITLE=%title%" -T "ALBUM=%albumtitle%" -T "DATE=%year%" -T "TRACKNUMBER=%tracknr%" -T "GENRE=%genre%" -T "PERFORMER=%albuminterpret%" -T "COMPOSER=%composer%" %haslyrics%–tag-from-file=LYRICS="%lyricsfile%"%haslyrics% -T "ALBUMARTIST=%albumartist%" -T "DISCNUMBER=%cdnumber%" -T "TOTALDISCS=%totalcds%" -T "TOTALTRACKS=%numtracks%" -T "COMMENT=%comment%" %source% -o %dest%


TOC of the extracted CD

Track | Start | Length | Start sector | End sector
––––––––––––––––––––––––––––-
1 | 0:00.00 | 2:53.42 | 0 | 13016
2 | 2:53.42 | 2:43.60 | 13017 | 25301
3 | 5:37.27 | 5:11.56 | 25302 | 48682
4 | 10:49.08 | 3:34.62 | 48683 | 64794
5 | 14:23.70 | 4:14.18 | 64795 | 83862
6 | 18:38.13 | 4:53.02 | 83863 | 105839
7 | 23:31.15 | 3:55.32 | 105840 | 123496
8 | 27:26.47 | 5:15.21 | 123497 | 147142
9 | 32:41.68 | 4:38.67 | 147143 | 168059
10 | 37:20.60 | 2:58.69 | 168060 | 181478


Track 1

Filename E:\Oscar Peterson Trio - 1964 - We Get Requests\01 Quiet Nights Quiet Stars (Corcovado).wav

Pre-gap length 0:00:02.00

Peak level 66.5 %
Extraction speed 3.8 X
Track quality 100.0 %
Test CRC B54BC074
Copy CRC B54BC074
Accurately ripped (confidence 8) [20E94202] (AR v2)
Copy OK

Track 2

Filename E:\Oscar Peterson Trio - 1964 - We Get Requests\02 Days Of Wine And Roses.wav

Pre-gap length 0:00:02.29

Peak level 93.5 %
Extraction speed 4.0 X
Track quality 100.0 %
Test CRC 4698237D
Copy CRC 4698237D
Accurately ripped (confidence 7) [B8F23A30] (AR v2)
Copy OK

Track 3

Filename E:\Oscar Peterson Trio - 1964 - We Get Requests\03 My One And Only Love.wav

Pre-gap length 0:00:02.25

Peak level 57.7 %
Extraction speed 4.1 X
Track quality 99.9 %
Test CRC B0D76B8B
Copy CRC B0D76B8B
Accurately ripped (confidence 7) [C84168E5] (AR v2)
Copy OK

Track 4

Filename E:\Oscar Peterson Trio - 1964 - We Get Requests\04 People.wav

Pre-gap length 0:00:02.44

Peak level 94.7 %
Extraction speed 4.9 X
Track quality 100.0 %
Test CRC 481C49F1
Copy CRC 481C49F1
Accurately ripped (confidence 7) [F41711F8] (AR v2)
Copy OK

Track 5

Filename E:\Oscar Peterson Trio - 1964 - We Get Requests\05 Have You Met Miss Jones.wav

Pre-gap length 0:00:03.32

Peak level 97.9 %
Extraction speed 5.3 X
Track quality 100.0 %
Test CRC 047822C3
Copy CRC 047822C3
Accurately ripped (confidence 8) [46998658] (AR v2)
Copy OK

Track 6

Filename E:\Oscar Peterson Trio - 1964 - We Get Requests\06 You Look Good To Me.wav

Pre-gap length 0:00:02.51

Peak level 85.7 %
Extraction speed 5.7 X
Track quality 100.0 %
Test CRC 43962398
Copy CRC 43962398
Accurately ripped (confidence 8) [69C1A4CF] (AR v2)
Copy OK

Track 7

Filename E:\Oscar Peterson Trio - 1964 - We Get Requests\07 The Girl From Ipanema.wav

Pre-gap length 0:00:02.58

Peak level 74.5 %
Extraction speed 5.9 X
Track quality 100.0 %
Test CRC 434C963F
Copy CRC 434C963F
Accurately ripped (confidence 7) [6ABAC244] (AR v2)
Copy OK

Track 8

Filename E:\Oscar Peterson Trio - 1964 - We Get Requests\08 D. & E..wav

Pre-gap length 0:00:02.57

Peak level 71.2 %
Extraction speed 6.4 X
Track quality 100.0 %
Test CRC 461B00B7
Copy CRC 461B00B7
Accurately ripped (confidence 7) [B89E50E0] (AR v2)
Copy OK

Track 9

Filename E:\Oscar Peterson Trio - 1964 - We Get Requests\09 Time And Again.wav

Pre-gap length 0:00:03.45

Peak level 45.5 %
Extraction speed 5.5 X
Track quality 99.9 %
Test CRC 69610670
Copy CRC 69610670
Accurately ripped (confidence 7) [C84212ED] (AR v2)
Copy OK

Track 10

Filename E:\Oscar Peterson Trio - 1964 - We Get Requests\10 Goodbye, J.D..wav

Pre-gap length 0:00:02.46

Peak level 70.8 %
Extraction speed 6.4 X
Track quality 100.0 %
Test CRC 64E2D212
Copy CRC 64E2D212
Accurately ripped (confidence 7) [B7CCDA22] (AR v2)
Copy OK


All tracks accurately ripped

No errors occurred

End of status report

–– CUETools DB Plugin V2.1.3

[CTDB TOCID: fEdvqL7vYxfdWgdT9xGrb9A8_KU-] found, Submit result: fEdvqL7vYxfdWgdT9xGrb9A8_KU- has been confirmed
[148e0e58] (1/1) Accurately ripped


==== Log checksum A377466DF142BA859310A321956C4578CAE3C4E71E3D7D9296FCF40AC22C6790 ====

foobar2000 1.2 / Dynamic Range Meter 1.1.1
log date: 2017-08-13 22:49:47

––––––––––––––––––––––––––––––––––––––––
Analyzed: Oscar Peterson / We Get Requests
––––––––––––––––––––––––––––––––––––––––

DR Peak RMS Duration Track
––––––––––––––––––––––––––––––––––––––––
DR12 -3.54 dB -18.50 dB 2:54 01-Quiet Nights of Quiet Stars (Corcovado)
DR15 -0.58 dB -17.98 dB 2:44 02-Days of Wine and Roses
DR12 -4.77 dB -21.59 dB 5:12 03-My One and Only Love
DR14 -0.47 dB -18.45 dB 3:35 04-People
DR15 -0.18 dB -20.08 dB 4:14 05-Have You Met Miss Jones?
DR13 -1.34 dB -18.97 dB 4:53 06-You Look Good to Me
DR11 -2.55 dB -17.27 dB 3:55 07-The Girl from Ipanema
DR14 -2.94 dB -20.47 dB 5:15 08-D. & E.
DR13 -6.82 dB -25.65 dB 4:39 09-Time and Again
DR14 -2.99 dB -19.42 dB 2:59 10-Goodbye, J.D.
––––––––––––––––––––––––––––––––––––––––

Number of tracks: 10
Official DR value: DR13

Samplerate: 44100 Hz
Channels: 2
Bits per sample: 16
Bitrate: 884 kbps
Codec: FLAC
================================================================================

The Oscar Peterson Trio - We Get Requests (1964) [Analogue Productions, Remastered 2011] Audio CD Layer

The Oscar Peterson Trio - We Get Requests (1964) [Analogue Productions, Remastered 2011] Audio CD Layer