Subcategories

The Pasadena Roof Orchestra - A Talking Picture / Night Out: Two Original Classics (2015) {Remastered}

Posted By: popsakov
The Pasadena Roof Orchestra - A Talking Picture / Night Out: Two Original Classics (2015) {Remastered}

The Pasadena Roof Orchestra - A Talking Picture / Night Out: Two Original Classics (2015) {Remastered}
2CD | EAC Rip | FLAC (Img) + Cue + Log ~ 442 Mb | MP3 CBR320 ~ 176 Mb
Scans (PNG, 400 dpi) ~ 77 Mb | RAR 5% Recovery
Jazz, Pop, Big Band, Swing, Easy Listening | Herzog Records #901049 HER

Two original albums by the Pasadena Roof Orchestra on one set, 'A Talking Picture' and 'Night Out', both of which were already recognised as inspirational works when they appeared in the late 1970s. Originating from the vinyl era, neither album has been issued on CD until now.

Founded in 1969, the The Pasadena Roof Orchestra has remained a permanent fixture on the music scene since then. They perform their own music - the kind of music America was dancing to from the 1920s to the 1940s, the original 'popular music'. The old standards are still popular to this day and the timeless quality of swing is something that has not eluded superstars like Robbie Williams or Michael Bublé.

What the musical director Duncan Galloway says: "Here are some classic Pasadena Roof Orchestra tracks which we have managed to secure from the archives. They are taken from early recordings, and include several tracks that have been 'resting' in the Orchestras library. It is slightly impractical for the current line-up to travel with over 2000 arrangements, so many of these tunes have not been played live for quite a while."

***************

The Pasadena Roof Orchestra - A Talking Picture / Night Out: Two Original Classics (2015) {Remastered}

The Pasadena Roof Orchestra - A Talking Picture / Night Out: Two Original Classics (2015) {Remastered}

Track List CD1 - A Talking Picture:

01. If I Had A Talking Picture Of You [3:10]
02. 42nd Street [2:36]
03. Pennies From Heaven [3:13]
04. Panama Rag [3:38]
05. I Like A Little Girl Like That [3:11]
06. On Her Doorstep [2:10]
07. You're Driving Me Crazy [3:21]
08. Back In Your Own Backyard [2:59]
09. It Seemed Like A Good Idea At The Time [2:46]
10. Broken Record [2:58]
11. Please [3:25]
12. Looney Tunes [3:26]

Exact Audio Copy V1.0 beta 3 from 29. August 2011

EAC extraction logfile from 7. October 2016, 0:21

The Pasadena Roof Orchestra / Two Original Classics -CD1- A Talking Picture

Used drive : PIONEER BD-RW BDR-TD03 Adapter: 0 ID: 1

Read mode : Secure
Utilize accurate stream : Yes
Defeat audio cache : Yes
Make use of C2 pointers : No

Read offset correction : 667
Overread into Lead-In and Lead-Out : No
Fill up missing offset samples with silence : Yes
Delete leading and trailing silent blocks : No
Null samples used in CRC calculations : Yes
Used interface : Native Win32 interface for Win NT & 2000

Used output format : User Defined Encoder
Selected bitrate : 768 kBit/s
Quality : High
Add ID3 tag : No
Command line compressor : C:\Program Files (x86)\Exact Audio Copy\FLAC\FLAC.EXE
Additional command line options : -6 -V -T "ARTIST=%artist%" -T "TITLE=%title%" -T "ALBUM=%albumtitle%" -T "DATE=%year%" -T "TRACKNUMBER=%tracknr%" -T "GENRE=%genre%" -T "COMMENT=%comment%" -T "BAND=%albuminterpret%" -T "ALBUMARTIST=%albuminterpret%" -T "COMPOSER=%composer%" %haslyrics%–tag-from-file=LYRICS="%lyricsfile%"%haslyrics% -T "DISCNUMBER=%cdnumber%" -T "TOTALDISCS=%totalcds%" -T "TOTALTRACKS=%numtracks%" %hascover%–picture="%coverfile%"%hascover% %source% -o %dest%


TOC of the extracted CD

Track | Start | Length | Start sector | End sector
––––––––––––––––––––––––––––-
1 | 0:00.00 | 3:09.58 | 0 | 14232
2 | 3:09.58 | 2:36.21 | 14233 | 25953
3 | 5:46.04 | 3:13.09 | 25954 | 40437
4 | 8:59.13 | 3:37.65 | 40438 | 56777
5 | 12:37.03 | 3:11.15 | 56778 | 71117
6 | 15:48.18 | 2:09.65 | 71118 | 80857
7 | 17:58.08 | 3:20.54 | 80858 | 95911
8 | 21:18.62 | 2:59.22 | 95912 | 109358
9 | 24:18.09 | 2:45.53 | 109359 | 121786
10 | 27:03.62 | 2:57.67 | 121787 | 135128
11 | 30:01.54 | 3:24.41 | 135129 | 150469
12 | 33:26.20 | 3:26.33 | 150470 | 165952


Range status and errors

Selected range

Filename C:\Users\Deris\Desktop\…\Pasadena2in2\CD1\The Pasadena Roof Orchestra - Two Original Classics -CD1- A Talking Picture.wav

Peak level 97.5 %
Extraction speed 1.6 X
Range quality 100.0 %
Test CRC 4B58CD15
Copy CRC 4B58CD15
Copy OK

No errors occurred


AccurateRip summary

Track 1 accurately ripped (confidence 2) [4E3E6ACC] (AR v2)
Track 2 accurately ripped (confidence 2) [2755EBB1] (AR v2)
Track 3 accurately ripped (confidence 2) [BB6FD3F1] (AR v2)
Track 4 accurately ripped (confidence 2) [4CC9D7E6] (AR v2)
Track 5 accurately ripped (confidence 2) [938490B0] (AR v2)
Track 6 accurately ripped (confidence 2) [4A190D3B] (AR v2)
Track 7 accurately ripped (confidence 2) [C86DF2C3] (AR v2)
Track 8 accurately ripped (confidence 2) [CCDA7A24] (AR v2)
Track 9 accurately ripped (confidence 2) [801608BD] (AR v2)
Track 10 accurately ripped (confidence 2) [A8D3103A] (AR v2)
Track 11 accurately ripped (confidence 2) [6BBBDAB4] (AR v2)
Track 12 accurately ripped (confidence 2) [6B4E6872] (AR v2)

All tracks accurately ripped

End of status report

–– CUETools DB Plugin V2.1.3

[CTDB TOCID: cdvbIHxHLeeUENuEYUbmF9lp5uc-] found, Submit result: cdvbIHxHLeeUENuEYUbmF9lp5uc- has been confirmed
[8d5a752b] (3/3) Accurately ripped


==== Log checksum 36093D091E9B320F7569DED783B6C3A012400EF6D198C72D919980149315EDA8 ====

foobar2000 1.2.6 / Dynamic Range Meter 1.1.1
log date: 2016-10-11 12:48:13

––––––––––––––––––––––––––––––––––––––––
Analyzed: The Pasadena Roof Orchestra / Two Original Classics -CD1- A Talking Picture
––––––––––––––––––––––––––––––––––––––––

DR Peak RMS Duration Track
––––––––––––––––––––––––––––––––––––––––
DR13 -0.23 dB -15.60 dB 3:10 01-If I Had A Talking Picture Of You
DR12 -0.25 dB -15.09 dB 2:36 02-42nd Street
DR11 -0.95 dB -14.74 dB 3:13 03-Pennies From Heaven
DR12 -0.23 dB -13.86 dB 3:38 04-Panama Rag
DR12 -0.22 dB -14.31 dB 3:11 05-I Like A Little Girl Like That
DR13 -0.22 dB -15.26 dB 2:10 06-On Her Doorstep
DR13 -0.21 dB -14.60 dB 3:21 07-You're Driving Me Crazy
DR12 -0.22 dB -14.13 dB 2:59 08-Back In Your Own Backyard
DR12 -1.34 dB -15.49 dB 2:46 09-It Seemed Like A Good Idea At The Time
DR12 -0.23 dB -15.09 dB 2:58 10-Broken Record
DR11 -1.88 dB -16.00 dB 3:25 11-Please
DR12 -0.22 dB -14.31 dB 3:26 12-Looney Tunes
––––––––––––––––––––––––––––––––––––––––

Number of tracks: 12
Official DR value: DR12

Samplerate: 44100 Hz
Channels: 2
Bits per sample: 16
Bitrate: 792 kbps
Codec: FLAC
================================================================================

[CUETools log; Date: 11.10.2016 12:47:58; Version: 2.1.5]
[CTDB TOCID: cdvbIHxHLeeUENuEYUbmF9lp5uc-] found.
Track | CTDB Status
1 | (4/4) Accurately ripped
2 | (4/4) Accurately ripped
3 | (4/4) Accurately ripped
4 | (4/4) Accurately ripped
5 | (4/4) Accurately ripped
6 | (4/4) Accurately ripped
7 | (4/4) Accurately ripped
8 | (4/4) Accurately ripped
9 | (4/4) Accurately ripped
10 | (4/4) Accurately ripped
11 | (4/4) Accurately ripped
12 | (4/4) Accurately ripped
[AccurateRip ID: 00104bd5-0098080a-8c08a40c] found.
Track [ CRC | V2 ] Status
01 [2f278d6f|4e3e6acc] (0+2/2) Accurately ripped
02 [85328282|2755ebb1] (0+2/2) Accurately ripped
03 [e3d98eba|bb6fd3f1] (0+2/2) Accurately ripped
04 [be27d3df|4cc9d7e6] (0+2/2) Accurately ripped
05 [1c6a8397|938490b0] (0+2/2) Accurately ripped
06 [86ad8ae6|4a190d3b] (0+2/2) Accurately ripped
07 [2f897543|c86df2c3] (0+2/2) Accurately ripped
08 [d52788bc|ccda7a24] (0+2/2) Accurately ripped
09 [7a73f20e|801608bd] (0+2/2) Accurately ripped
10 [f1c0b58c|a8d3103a] (0+2/2) Accurately ripped
11 [c8ad1b4b|6bbbdab4] (0+2/2) Accurately ripped
12 [c71d77f1|6b4e6872] (0+2/2) Accurately ripped

Track Peak [ CRC32 ] [W/O NULL] [ LOG ]
– 97,5 [4B58CD15] [BB872C7C] CRC32
01 97,4 [0D09CF34] [8856934B]
02 97,1 [F97D377A] [9903D51D]
03 89,6 [BA468854] [55187EE3]
04 97,4 [42461EFB] [99157547]
05 97,4 [4943024B] [FAC0AE60]
06 97,4 [EFA45CC2] [5B1ECBBB]
07 97,5 [1168A3C0] [9E8C02C2]
08 97,5 [5B84C5C9] [6D51E8CA]
09 85,7 [F6EFB433] [E9EB2486]
10 97,4 [543B5F74] [B8BA341B]
11 80,5 [57F21570] [E02FB892]
12 97,4 [FB188B8D] [90E904D6]

The Pasadena Roof Orchestra - A Talking Picture / Night Out: Two Original Classics (2015) {Remastered}

The Pasadena Roof Orchestra - A Talking Picture / Night Out: Two Original Classics (2015) {Remastered}

Track List CD2 - Night Out:

01. Young & Healthy [2:31]
02. I've Found A New Baby [2:46]
03. Mean To Me [3:00]
04. There's A Rainbow 'Round My Shoulder [3:10]
05. You're Never Fully Dressed Without A Smile [2:22]
06. Am Sonntag Will Mein Sьsser Mit Mir Segeln Gehn [4:07]
07. Going Hollywood / Hoorah Hollywood [2:47]
08. Isn't This A Lovely Day [2:57]
09. Puttin' On The Ritz [2:46]
10. Keep Young & Beautiful [2:45]
11. Little Orphan Annie [3:10]
12. Yes Sir, That's My Baby [3:31]

Exact Audio Copy V1.0 beta 3 from 29. August 2011

EAC extraction logfile from 8. October 2016, 16:56

The Pasadena Roof Orchestra / Two Original Classics - CD2 - Night Out

Used drive : PIONEER BD-RW BDR-TD03 Adapter: 0 ID: 1

Read mode : Secure
Utilize accurate stream : Yes
Defeat audio cache : Yes
Make use of C2 pointers : No

Read offset correction : 667
Overread into Lead-In and Lead-Out : No
Fill up missing offset samples with silence : Yes
Delete leading and trailing silent blocks : No
Null samples used in CRC calculations : Yes
Used interface : Native Win32 interface for Win NT & 2000

Used output format : User Defined Encoder
Selected bitrate : 768 kBit/s
Quality : High
Add ID3 tag : No
Command line compressor : C:\Program Files (x86)\Exact Audio Copy\FLAC\FLAC.EXE
Additional command line options : -6 -V -T "ARTIST=%artist%" -T "TITLE=%title%" -T "ALBUM=%albumtitle%" -T "DATE=%year%" -T "TRACKNUMBER=%tracknr%" -T "GENRE=%genre%" -T "COMMENT=%comment%" -T "BAND=%albuminterpret%" -T "ALBUMARTIST=%albuminterpret%" -T "COMPOSER=%composer%" %haslyrics%–tag-from-file=LYRICS="%lyricsfile%"%haslyrics% -T "DISCNUMBER=%cdnumber%" -T "TOTALDISCS=%totalcds%" -T "TOTALTRACKS=%numtracks%" %hascover%–picture="%coverfile%"%hascover% %source% -o %dest%


TOC of the extracted CD

Track | Start | Length | Start sector | End sector
––––––––––––––––––––––––––––-
1 | 0:00.00 | 2:30.66 | 0 | 11315
2 | 2:30.66 | 2:46.31 | 11316 | 23796
3 | 5:17.22 | 3:00.36 | 23797 | 37332
4 | 8:17.58 | 3:10.11 | 37333 | 51593
5 | 11:27.69 | 2:22.17 | 51594 | 62260
6 | 13:50.11 | 4:07.36 | 62261 | 80821
7 | 17:57.47 | 2:47.34 | 80822 | 93380
8 | 20:45.06 | 2:57.23 | 93381 | 106678
9 | 23:42.29 | 2:46.34 | 106679 | 119162
10 | 26:28.63 | 2:44.64 | 119163 | 131526
11 | 29:13.52 | 3:09.72 | 131527 | 145773
12 | 32:23.49 | 3:31.08 | 145774 | 161606


Range status and errors

Selected range

Filename C:\Users\Deris\Desktop\…\Pasadena2in2\cD2\The Pasadena Roof Orchestra - Two Original Classics - CD2 - Night Out.wav

Peak level 97.4 %
Extraction speed 4.0 X
Range quality 99.9 %
Test CRC DE7DDAC6
Copy CRC DE7DDAC6
Copy OK

No errors occurred


AccurateRip summary

Track 1 accurately ripped (confidence 2) [5E123096] (AR v2)
Track 2 accurately ripped (confidence 2) [3B8E0F74] (AR v2)
Track 3 accurately ripped (confidence 2) [2F155B5B] (AR v2)
Track 4 accurately ripped (confidence 2) [33AD2C4C] (AR v2)
Track 5 accurately ripped (confidence 2) [25CBB997] (AR v2)
Track 6 accurately ripped (confidence 2) [3194E68D] (AR v2)
Track 7 accurately ripped (confidence 2) [68D9ED57] (AR v2)
Track 8 accurately ripped (confidence 2) [0828A498] (AR v2)
Track 9 accurately ripped (confidence 2) [E7641CE5] (AR v2)
Track 10 accurately ripped (confidence 2) [08B3B8DA] (AR v2)
Track 11 accurately ripped (confidence 2) [E3D0160C] (AR v2)
Track 12 accurately ripped (confidence 2) [8E6B227B] (AR v2)

All tracks accurately ripped

End of status report

–– CUETools DB Plugin V2.1.3

[CTDB TOCID: uQRBAKv..lw2pSplzhFdI815s_g-] found, Submit result: uQRBAKv..lw2pSplzhFdI815s_g- has been confirmed
[25bb6e93] (4/4) Accurately ripped


==== Log checksum 0D388C15F077C0335E192715D93AC1C94473792104698809FA430634C1A83E62 ====

foobar2000 1.2.6 / Dynamic Range Meter 1.1.1
log date: 2016-10-11 12:46:45

––––––––––––––––––––––––––––––––––––––––
Analyzed: The Pasadena Roof Orchestra / Two Original Classics - CD2 - Night Out
––––––––––––––––––––––––––––––––––––––––

DR Peak RMS Duration Track
––––––––––––––––––––––––––––––––––––––––
DR13 -0.82 dB -16.50 dB 2:31 01-Young & Healthy
DR14 -0.24 dB -16.82 dB 2:46 02-I've Found A New Baby
DR13 -0.87 dB -16.07 dB 3:00 03-Mean To Me
DR13 -0.23 dB -15.63 dB 3:10 04-There's A Rainbow 'Round My Shoulder
DR13 -0.23 dB -14.69 dB 2:22 05-You're Never Fully Dressed Without A Smile
DR13 -0.24 dB -15.69 dB 4:07 06-Am Sonntag Will Mein Sьsser Mit Mir Segeln Gehn
DR12 -0.24 dB -15.80 dB 2:47 07-Going Hollywood / Hoorah Hollywood
DR14 -1.66 dB -18.88 dB 2:57 08-Isn't This A Lovely Day
DR14 -1.06 dB -17.56 dB 2:46 09-Puttin' On The Ritz
DR15 -0.47 dB -19.08 dB 2:45 10-Keep Young & Beautiful
DR11 -2.35 dB -18.00 dB 3:10 11-Little Orphan Annie
DR14 -0.23 dB -17.54 dB 3:31 12-Yes Sir, That's My Baby
––––––––––––––––––––––––––––––––––––––––

Number of tracks: 12
Official DR value: DR13

Samplerate: 44100 Hz
Channels: 2
Bits per sample: 16
Bitrate: 820 kbps
Codec: FLAC
================================================================================

[CUETools log; Date: 11.10.2016 12:46:32; Version: 2.1.5]
[CTDB TOCID: uQRBAKv..lw2pSplzhFdI815s_g-] found.
Track | CTDB Status
1 | (5/5) Accurately ripped
2 | (5/5) Accurately ripped
3 | (5/5) Accurately ripped
4 | (5/5) Accurately ripped
5 | (5/5) Accurately ripped
6 | (5/5) Accurately ripped
7 | (5/5) Accurately ripped
8 | (5/5) Accurately ripped
9 | (5/5) Accurately ripped
10 | (5/5) Accurately ripped
11 | (5/5) Accurately ripped
12 | (5/5) Accurately ripped
[AccurateRip ID: 000fa4e6-00930a3b-af086a0c] found.
Track [ CRC | V2 ] Status
01 [d1acbd98|5e123096] (0+2/2) Accurately ripped
02 [075f91c5|3b8e0f74] (0+2/2) Accurately ripped
03 [534d480e|2f155b5b] (0+2/2) Accurately ripped
04 [7b8becd6|33ad2c4c] (0+2/2) Accurately ripped
05 [b9722557|25cbb997] (0+2/2) Accurately ripped
06 [07e40afd|3194e68d] (0+2/2) Accurately ripped
07 [da5d6d95|68d9ed57] (0+2/2) Accurately ripped
08 [42328c9a|0828a498] (0+2/2) Accurately ripped
09 [a4cfb085|e7641ce5] (0+2/2) Accurately ripped
10 [e90bb66b|08b3b8da] (0+2/2) Accurately ripped
11 [5219c4a5|e3d0160c] (0+2/2) Accurately ripped
12 [3a7f5029|8e6b227b] (0+2/2) Accurately ripped

Track Peak [ CRC32 ] [W/O NULL] [ LOG ]
– 97,4 [DE7DDAC6] [F60628FD] CRC32
01 90,9 [3862D6BB] [A05270C7]
02 97,3 [F00B9971] [8B2BFF1B]
03 90,4 [6F89DA9F] [1798657A]
04 97,4 [4F2B1970] [B28C16AA]
05 97,3 [F218AC07] [E58BB149]
06 97,2 [DF0B2B27] [03AFCA7B]
07 97,2 [79803EBE] [45F1DF51]
08 82,5 [57F90DFE] [2CCEE4FA]
09 88,5 [CD2FD052] [CB2CE0F0]
10 94,7 [A8DFD74B] [61850B7C]
11 76,3 [78D55A42] [C097533D]
12 97,3 [BF1741C1] [DC76F1DE]

The Pasadena Roof Orchestra - A Talking Picture / Night Out: Two Original Classics (2015) {Remastered}



All thanks go to Boris1

> Visit my blog <

Download: