Subcategories

The Pastels - Mobile Safari (1995)

Posted By: Designol
The Pastels - Mobile Safari (1995)

The Pastels - Mobile Safari (1995)
EAC | FLAC | Image (Cue&Log) ~ 288 Mb | Mp3 (CBR320) ~ 120 Mb | Scans included
Alternative/Indie Rock, Indie Pop | Label: Up Records | # UP025 | Time: 00:38:05

On Mobile Safari, the Pastels stretched out to an American audience with their calm and reflective style of blissful indie pop. Stephan Pastel remained the band's primary songwriter, while Katrina Mitchell (drums) and Aggi Wright (bass) began to contribute more this time around. Mitchell sings bittersweet and awkward lead vocals on "Mandarin" and "Token Collecting." Her untrained crooning is part of the allure of her songs. Wright leads on vocals on the festive "Yoga" and composed the instrumental "Mobile Deli." Pastel leads the way on the rest of the songs with his dry and deep vocal style. His delivery speeds up from its normally sluggish pace on the toe-tapping "Classic Line-Up" and "Strategic Gear." He collaborated with former member David Keegan on "Exploration Team" and "Flightpaths to Each Other." The whole trio of Pastel, Mitchell, and Wright collaborated on the disc's final track, the sublimely cool and horn-filled "Worlds of Possibility." Gerard Love added guitar and vocals to some of the tracks, while Luna's Dean Wareham also appeared as a guest guitarist. Mobile Safari was recorded at CAVA Sound Workshops and Stuffhouse Studios, both in the band's home of Glasgow, Scotland. Seattle's Up Records released the disc in 1995.

Review by Stephen Cramer, Allmusic.com

The Pastels - Mobile Safari (1995)



Tracklist:

01. Exploration Team (03:04)
02. Mandarin (03:26)
03. Yoga (04:18)
04. Mobile Deli (01:32)
05. Exotic Arcade (02:58)
06. Classic Line-up (03:17)
07. Flightpaths To Each Other (02:12)
08. Basement Scam (04:50)
09. Strategic Gear (01:52)
10. Token Collecting (03:13)
11. Coolport (03:32)
12. Worlds Of Possibility (03:46)


Exact Audio Copy V0.99 prebeta 3 from 28. July 2007

EAC extraction logfile from 30. May 2010, 1:39

The Pastels / Mobile Safari

Used drive : _NEC DVD_RW ND-2510A Adapter: 1 ID: 0

Read mode : Secure
Utilize accurate stream : Yes
Defeat audio cache : Yes
Make use of C2 pointers : No

Read offset correction : 48
Overread into Lead-In and Lead-Out : No
Fill up missing offset samples with silence : Yes
Delete leading and trailing silent blocks : No
Null samples used in CRC calculations : Yes
Used interface : Native Win32 interface for Win NT & 2000

Used output format : User Defined Encoder
Selected bitrate : 1024 kBit/s
Quality : High
Add ID3 tag : No
Command line compressor : C:\Program Files\Exact Audio Copy\Flac\flac.exe
Additional command line options : -8 -V %s


TOC of the extracted CD

Track | Start | Length | Start sector | End sector
––––––––––––––––––––––––––––-
1 | 0:00.00 | 3:04.52 | 0 | 13851
2 | 3:04.52 | 3:26.10 | 13852 | 29311
3 | 6:30.62 | 4:17.73 | 29312 | 48659
4 | 10:48.60 | 1:32.50 | 48660 | 55609
5 | 12:21.35 | 2:58.55 | 55610 | 69014
6 | 15:20.15 | 3:17.57 | 69015 | 83846
7 | 18:37.72 | 2:12.38 | 83847 | 93784
8 | 20:50.35 | 4:50.57 | 93785 | 115591
9 | 25:41.17 | 1:52.18 | 115592 | 124009
10 | 27:33.35 | 3:13.37 | 124010 | 138521
11 | 30:46.72 | 3:32.03 | 138522 | 154424
12 | 34:19.00 | 3:46.37 | 154425 | 171411


Range status and errors

Selected range

Filename I:\Раздача музыки Torrents\Pastels, The\Mobile Safari (1995)\The Pastels - Mobile Safari.wav

Peak level 95.5 %
Range quality 100.0 %
Test CRC C6CFEBDC
Copy CRC C6CFEBDC
Copy OK

No errors occurred


AccurateRip summary

Track 1 accurately ripped (confidence 3) [35B7FDFD]
Track 2 accurately ripped (confidence 3) [0BD44A48]
Track 3 accurately ripped (confidence 3) [F2F2E1FF]
Track 4 accurately ripped (confidence 3) [6D2BDF38]
Track 5 accurately ripped (confidence 3) [C633B220]
Track 6 accurately ripped (confidence 3) [98473C0F]
Track 7 accurately ripped (confidence 3) [55124C10]
Track 8 accurately ripped (confidence 3) [80306922]
Track 9 accurately ripped (confidence 3) [E2D4C156]
Track 10 accurately ripped (confidence 3) [7751A9E2]
Track 11 accurately ripped (confidence 3) [B9DFEC5C]
Track 12 accurately ripped (confidence 3) [73199F18]

All tracks accurately ripped

End of status report

foobar2000 1.2 / Dynamic Range Meter 1.1.1
log date: 2014-09-03 16:18:34

––––––––––––––––––––––––––––––––––––––––
Analyzed: The Pastels / Mobile Safari
––––––––––––––––––––––––––––––––––––––––

DR Peak RMS Duration Track
––––––––––––––––––––––––––––––––––––––––
DR11 -0.40 dB -12.69 dB 3:05 01-Exploration Team
DR12 -0.86 dB -14.05 dB 3:26 02-Mandarin
DR10 -0.40 dB -12.05 dB 4:18 03-Yoga
DR11 -2.41 dB -15.94 dB 1:33 04-Mobile Deli
DR11 -0.40 dB -13.71 dB 2:59 05-Exotic Arcade
DR11 -0.40 dB -12.76 dB 3:18 06-Classic Line-up
DR11 -0.40 dB -12.46 dB 2:13 07-Flightpaths To Each Other
DR11 -0.40 dB -13.05 dB 4:51 08-Basement Scam
DR12 -0.40 dB -13.27 dB 1:52 09-Strategic Gear
DR12 -0.40 dB -13.71 dB 3:13 10-Token Collecting
DR10 -0.40 dB -12.42 dB 3:32 11-Coolport
DR13 -0.40 dB -15.26 dB 3:46 12-Worlds Of Possibility
––––––––––––––––––––––––––––––––––––––––

Number of tracks: 12
Official DR value: DR11

Samplerate: 44100 Hz
Channels: 2
Bits per sample: 16
Bitrate: 936 kbps
Codec: FLAC
================================================================================

The Pastels - Mobile Safari (1995)

The Pastels - Mobile Safari (1995)

All thanks to original releaser - glebchic

More interesting music in My Blog