Tags
Language
Tags

The Police - Every Breath You Take: The Classics (1995) {Japanese Edition}

Posted By: popsakov
The Police - Every Breath You Take: The Classics (1995) {Japanese Edition}

The Police - Every Breath You Take: The Classics (1995) {Japanese Edition}
EAC Rip | FLAC (Img) + Cue + Log ~ 385 Mb | MP3 CBR320 ~ 144 Mb
Full Scans ~ 72 Mb | 00:59:37 | RAR 5% Recovery
Pop Rock, New Wave, Post Punk, Reggae Rock | A&M Records / Polydor K.K. #POCM-1990

In 1995, A&M released Every Breath You Take: The Classics to replace the original album. It features a slightly different track listing: the original version of "Don't Stand So Close To Me" replaces the 1986 recording at track 5; the '86 version appears at track 13. A 'New Classic Rock Mix' of "Message in a Bottle" is included as track 14.

By deleting the 1986 hits collection Every Breath You Take: The Singles and replacing it nearly ten years later with Every Breath You Take: The Classics, A&M improved the original set – but only slightly. Instead of finally adding the missing hits that were mysteriously absent the first time around ("Synchronicity II," "Demolition Man," "So Lonely," etc.), there are only two additional tracks – the original version of "Don't Stand So Close to Me" and a "New Classic Rock Mix" of "Message in a Bottle." Again, the included hits speak for themselves – "Roxanne," "Walking on the Moon," "Every Little Thing She Does Is Magic," "Wrapped Around Your Finger," – but ultimately, The Classics misses the mark. Why would a Police fan who already owns The Singles want to replace it with a modestly different repackaging? A&M should have added some of the missing classics instead of just rehashing what many fans already own.

~ Greg Prato, All Music

***************

The Police - Every Breath You Take: The Classics (1995) {Japanese Edition}

The Police - Every Breath You Take: The Classics (1995) {Japanese Edition}

Track List:

01. Roxanne [0:03:12.67]
02. Can't Stand Losing You [0:03:01.05]
03. Message In A Bottle [0:04:51.28]
04. Walking On The Moon [0:05:02.00]
05. Don't Stand So Close To Me [0:04:00.70]
06. De Do Do Do, De Da Da Da [0:04:07.07]
07. Every Little Thing She Does Is Magic [0:04:21.03]
08. Invisible Sun [0:03:45.37]
09. Spirits In The Material World [0:03:01.03]
10. Every Breath You Take [0:04:14.40]
11. King Of Pain [0:05:00.32]
12. Wrapped Around Your Finger [0:05:15.28]
13. Don't Stand So Close To Me (1986 Version) [0:04:53.37]
14. Message In A Bottle (New Classic Rock Mix) [0:04:50.65]

Personnel:
Sting – lead and backing vocals, bass, keyboards, saxophone on "Spirits in the Material World"
Andy Summers – electric guitar, keyboards
Stewart Copeland – drums, miscellaneous percussion, keyboards, drum programming on "Don't Stand So Close to Me '86"
Jean Roussel - piano on "Every Little Thing She Does Is Magic"

Exact Audio Copy V1.3 from 2. September 2016

EAC extraction logfile from 26. July 2017, 8:27

The Police / Every Breath You Take

Used drive : PLEXTOR DVDR PX-716A Adapter: 1 ID: 0

Read mode : Secure
Utilize accurate stream : Yes
Defeat audio cache : Yes
Make use of C2 pointers : No

Read offset correction : 30
Overread into Lead-In and Lead-Out : No
Fill up missing offset samples with silence : Yes
Delete leading and trailing silent blocks : No
Null samples used in CRC calculations : Yes
Used interface : Installed external ASPI interface

Used output format : User Defined Encoder
Selected bitrate : 1024 kBit/s
Quality : High
Add ID3 tag : No
Command line compressor : C:\Program Files (x86)\Exact Audio Copy\Flac\flac.exe
Additional command line options : -6 -V -T "ARTIST=%artist%" -T "TITLE=%title%" -T "ALBUM=%albumtitle%" -T "DATE=%year%" -T "TRACKNUMBER=%tracknr%" -T "GENRE=%genre%" -T "COMMENT=%comment%" -T "BAND=%albuminterpret%" -T "ALBUMARTIST=%albuminterpret%" -T "COMPOSER=%composer%" %haslyrics%–tag-from-file=LYRICS="%lyricsfile%"%haslyrics% -T "DISCNUMBER=%cdnumber%" -T "TOTALDISCS=%totalcds%" -T "TOTALTRACKS=%numtracks%" %hascover%–picture="%coverfile%"%hascover% %source% -o %dest%


TOC of the extracted CD

Track | Start | Length | Start sector | End sector
––––––––––––––––––––––––––––-
1 | 0:00.00 | 3:12.67 | 0 | 14466
2 | 3:12.67 | 3:01.05 | 14467 | 28046
3 | 6:13.72 | 4:51.28 | 28047 | 49899
4 | 11:05.25 | 5:02.00 | 49900 | 72549
5 | 16:07.25 | 4:00.70 | 72550 | 90619
6 | 20:08.20 | 4:07.07 | 90620 | 109151
7 | 24:15.27 | 4:21.03 | 109152 | 128729
8 | 28:36.30 | 3:45.37 | 128730 | 145641
9 | 32:21.67 | 3:01.03 | 145642 | 159219
10 | 35:22.70 | 4:14.40 | 159220 | 178309
11 | 39:37.35 | 5:00.32 | 178310 | 200841
12 | 44:37.67 | 5:15.28 | 200842 | 224494
13 | 49:53.20 | 4:53.37 | 224495 | 246506
14 | 54:46.57 | 4:50.65 | 246507 | 268321


Range status and errors

Selected range

Filename C:\mm\The Police\1995 - Every Breath You Take (The Classics) [POCM-1990]\The Police - Every Breath You Take.wav

Peak level 98.8 %
Extraction speed 12.9 X
Range quality 99.9 %
Test CRC CFA272AB
Copy CRC CFA272AB
Copy OK

No errors occurred

End of status report

–– CUETools DB Plugin V2.1.6

[CTDB TOCID: 7YRpQk1zyCrEiFEuMFS_7txZOtM-] found
Submit result: 7YRpQk1zyCrEiFEuMFS_7txZOtM- has been confirmed
Track | CTDB Status
1 | (227/232) Accurately ripped
2 | (227/232) Accurately ripped
3 | (226/232) Accurately ripped
4 | ( 28/232) Accurately ripped, or (158/232) differs in 227 samples @00:40:10
5 | ( 28/232) Accurately ripped, or (158/232) differs in 567 samples @00:20:10-00:20:13
6 | (227/232) Accurately ripped
7 | (224/232) Accurately ripped
8 | (225/232) Accurately ripped
9 | (227/232) Accurately ripped
10 | (227/232) Accurately ripped
11 | (226/232) Accurately ripped
12 | (220/232) Accurately ripped
13 | (223/232) Accurately ripped
14 | (223/232) Accurately ripped
If you are sure that your rip contains errors, you can use CUETools to repair it.

[CUETools log; Date: 28.07.2017 11:48:28; Version: 2.1.5]
[CTDB TOCID: 7YRpQk1zyCrEiFEuMFS_7txZOtM-] found.
Track | CTDB Status
1 | (228/233) Accurately ripped
2 | (228/233) Accurately ripped
3 | (227/233) Accurately ripped
4 | ( 29/233) Accurately ripped, or (158/233) differs in 227 samples @00:40:10
5 | ( 29/233) Accurately ripped, or (158/233) differs in 567 samples @00:20:10-00:20:13
6 | (228/233) Accurately ripped
7 | (225/233) Accurately ripped
8 | (226/233) Accurately ripped
9 | (228/233) Accurately ripped
10 | (228/233) Accurately ripped
11 | (227/233) Accurately ripped
12 | (221/233) Accurately ripped
13 | (224/233) Accurately ripped
14 | (224/233) Accurately ripped
[AccurateRip ID: 001d3f84-013b94b1-e50df90e] found.
Track [ CRC | V2 ] Status
01 [67e9f84b|46057060] (000+000/173) No match
02 [a8fe1f73|891eac06] (000+000/171) No match
03 [451ace52|268ca3c6] (000+000/174) No match
04 [06be503d|ce2969f2] (000+000/165) No match
05 [2a8a9559|402247e4] (000+000/172) No match
06 [4d3599e4|d715def0] (000+000/172) No match
07 [332a4a79|35af6be3] (000+000/171) No match
08 [a68cffd5|639f4fd5] (000+000/170) No match
09 [da97a0ea|ce623bd3] (000+000/169) No match
10 [dc178a96|3d07e10c] (000+000/171) No match
11 [25eae967|f4c27a83] (000+000/168) No match
12 [34edfee7|00075dfc] (000+000/168) No match
13 [4c7c8cee|cf7cb0af] (000+000/164) No match
14 [5e3c635d|87c8177f] (000+000/171) No match
Offsetted by -1536:
01 [bd01a84b] (000/173) No match (V2 was not tested)
02 [f1a90b73] (000/171) No match (V2 was not tested)
03 [81b91652] (000/174) No match (V2 was not tested)
04 [88de2c3d] (000/165) No match (V2 was not tested)
05 [39c7ab59] (000/172) No match (V2 was not tested)
06 [1a1cf5e4] (000/172) No match (V2 was not tested)
07 [572e3279] (000/171) No match (V2 was not tested)
08 [ceec25d5] (000/170) No match (V2 was not tested)
09 [fec91cea] (000/169) No match (V2 was not tested)
10 [816cbe96] (000/171) No match (V2 was not tested)
11 [f532f367] (000/168) No match (V2 was not tested)
12 [5f0864e7] (000/168) No match (V2 was not tested)
13 [46b836ee] (000/164) No match (V2 was not tested)
14 [8394715d] (000/171) No match (V2 was not tested)
Offsetted by -1353:
01 [855e55d3] (006/173) Accurately ripped
02 [c000ae55] (006/171) Accurately ripped
03 [de003abe] (006/174) Accurately ripped
04 [ce5d6087] (000/165) No match (V2 was not tested)
05 [f2f6e43a] (000/172) No match (V2 was not tested)
06 [1533656e] (006/172) Accurately ripped
07 [0a63bb55] (006/171) Accurately ripped
08 [d59ccfce] (006/170) Accurately ripped
09 [c97937a4] (006/169) Accurately ripped
10 [a8ba17e4] (006/171) Accurately ripped
11 [f680de36] (006/168) Accurately ripped
12 [04043fc0] (006/168) Accurately ripped
13 [83681b2d] (006/164) Accurately ripped
14 [9b2173b2] (006/171) Accurately ripped
Offsetted by -1307:
01 [9d274ae3] (000/173) No match (V2 was not tested)
02 [d67e3a99] (000/171) No match (V2 was not tested)
03 [5884d296] (000/174) No match (V2 was not tested)
04 [b477c19b] (000/165) No match (V2 was not tested)
05 [7dd7653c] (000/172) No match (V2 was not tested)
06 [eb65cd02] (000/172) No match (V2 was not tested)
07 [82fa480d] (000/171) No match (V2 was not tested)
08 [a0bca100] (000/170) No match (V2 was not tested)
09 [7bb91198] (000/169) No match (V2 was not tested)
10 [2f1be000] (000/171) No match (V2 was not tested)
11 [4ef66094] (000/168) No match (V2 was not tested)
12 [2c16cab2] (000/168) No match (V2 was not tested)
13 [a63efc6b] (000/164) No match (V2 was not tested)
14 [7cadd09c] (000/171) No match (V2 was not tested)
Offsetted by -1295:
01 [ae7d1b83] (016/173) Accurately ripped
02 [61ece4c1] (014/171) Accurately ripped
03 [fe0b9606] (015/174) Accurately ripped
04 [977381e3] (000/165) No match (V2 was not tested)
05 [d9b8eb10] (000/172) No match (V2 was not tested)
06 [4fcbfe4a] (015/172) Accurately ripped
07 [b8b2403d] (014/171) Accurately ripped
08 [666be2b4] (014/170) Accurately ripped
09 [6770aea0] (014/169) Accurately ripped
10 [89d13598] (015/171) Accurately ripped
11 [d557d080] (014/168) Accurately ripped
12 [f3c295e6] (014/168) Accurately ripped
13 [564a8517] (016/164) Accurately ripped
14 [ac632080] (016/171) Accurately ripped
Offsetted by -626:
01 [b4ed4a5b] (063/173) Accurately ripped
02 [3f4672f7] (063/171) Accurately ripped
03 [8a24a5aa] (064/174) Accurately ripped
04 [45c6a191] (000/165) No match (V2 was not tested)
05 [9c15cffb] (000/172) No match (V2 was not tested)
06 [2d0d39b8] (064/172) Accurately ripped
07 [eb828cb1] (064/171) Accurately ripped
08 [335671a7] (063/170) Accurately ripped
09 [fcad211e] (064/169) Accurately ripped
10 [8ace9972] (062/171) Accurately ripped
11 [190ff025] (061/168) Accurately ripped
12 [af6c1679] (063/168) Accurately ripped
13 [eccd888c] (060/164) Accurately ripped
14 [d01f4667] (061/171) Accurately ripped
Offsetted by -304:
01 [5b6bfdcb] (000/173) No match (V2 was not tested)
02 [dcb548d3] (000/171) No match (V2 was not tested)
03 [e3c4cc92] (000/174) No match (V2 was not tested)
04 [907f491d] (000/165) No match (V2 was not tested)
05 [68395709] (000/172) No match (V2 was not tested)
06 [086e0ec4] (000/172) No match (V2 was not tested)
07 [37a065b9] (000/171) No match (V2 was not tested)
08 [c1352a05] (000/170) No match (V2 was not tested)
09 [dc6c16ca] (000/169) No match (V2 was not tested)
10 [377b1236] (000/171) No match (V2 was not tested)
11 [844680b7] (000/168) No match (V2 was not tested)
12 [c7ede317] (000/168) No match (V2 was not tested)
13 [e0adb13e] (000/164) No match (V2 was not tested)
14 [faf5d0cd] (000/171) No match (V2 was not tested)
Offsetted by -280:
01 [7e179f0b] (000/173) No match (V2 was not tested)
02 [f3929d23] (000/171) No match (V2 was not tested)
03 [2ed25372] (000/174) No match (V2 was not tested)
04 [5676c9ad] (000/165) No match (V2 was not tested)
05 [1ffc62b1] (000/172) No match (V2 was not tested)
06 [d13a7154] (000/172) No match (V2 was not tested)
07 [a3105619] (000/171) No match (V2 was not tested)
08 [4c93ad6d] (000/170) No match (V2 was not tested)
09 [b3db50da] (000/169) No match (V2 was not tested)
10 [ece5bd66] (000/171) No match (V2 was not tested)
11 [9109608f] (000/168) No match (V2 was not tested)
12 [5745797f] (000/168) No match (V2 was not tested)
13 [40c4c296] (000/164) No match (V2 was not tested)
14 [5a607095] (000/171) No match (V2 was not tested)
Offsetted by 97:
01 [895fa403] (003/173) Accurately ripped
02 [9011fee1] (003/171) Accurately ripped
03 [ff1c24c6] (003/174) Accurately ripped
04 [7186a283] (000/165) No match (V2 was not tested)
05 [7be98f20] (000/172) No match (V2 was not tested)
06 [ce1a52ea] (003/172) Accurately ripped
07 [100eb5fd] (003/171) Accurately ripped
08 [f9d5a844] (003/170) Accurately ripped
09 [36a3d640] (002/169) Accurately ripped
10 [a3fbfe78] (003/171) Accurately ripped
11 [b97e8770] (003/168) Accurately ripped
12 [6d9aa976] (002/168) Accurately ripped
13 [1b847307] (003/164) Accurately ripped
14 [4a8b53d0] (003/171) Accurately ripped

Track Peak [ CRC32 ] [W/O NULL] [ LOG ]
– 98,8 [CFA272AB] [A5D439B2] CRC32
01 94,2 [616D374E] [D410A267]
02 94,2 [E7F23903] [8E33AC24]
03 97,6 [1ECC4A9C] [6CEEFEE4]
04 98,8 [19048FCD] [2179B42A]
05 94,2 [52C05256] [AC8A9A01]
06 97,6 [F2753693] [A7B0CF06]
07 98,8 [8F5E9EDD] [027E5C00]
08 98,8 [6E9D3298] [568FE5DA]
09 98,8 [52705CEB] [5DA5F1E8]
10 98,8 [5080FFC2] [12987701]
11 98,8 [19DC4A50] [A752AE95]
12 98,8 [E272A699] [2739C200]
13 98,8 [9DFCDD67] [9FD4DEE1]
14 96,6 [F1C0CCF0] [ED45C9E3]

The Police - Every Breath You Take: The Classics (1995) {Japanese Edition}


All thanks go to sergych

>>> The Police in my blog <<<

DOWNLOAD: