Tags
Language
Tags

The Police - Synchronicity (1983) {1984, 2nd Japanese pressing, with 11 tracks}

Posted By: popsakov
The Police - Synchronicity (1983) {1984, 2nd Japanese pressing, with 11 tracks}

The Police - Synchronicity (1983) {1984, 2nd Japanese pressing, with 11 tracks}
EAC Rip | FLAC (Tracks) + Cue + m3u + Log ~ 245 Mb | MP3 CBR320 ~ 107 Mb
Full Scans ~ 144 Mb | 00:44:26 | RAR 5% Recovery
New Wave, Pop Rock | A&M Records #38XB-2

Synchronicity is the fifth and final studio album by English rock band The Police, released in the United Kingdom on 17 June 1983. The band's most successful release, the album includes the hit singles "Every Breath You Take", "King of Pain", "Wrapped Around Your Finger", and "Synchronicity II". At the 1984 Grammy Awards the album was nominated for a total of five awards including Album of the Year and won three. At the time of its release and following its tour The Police were hailed as the "Biggest Band in the World". The album was number one on both the UK Albums Chart and the U.S. Billboard 200, and sold over 8 million copies in the U.S. Synchronicity was widely acclaimed by critics. Praise centred on its cohesive merging of disparate genres and sonic experimentation. Rolling Stone described "each cut on Synchronicity not simply a song but a miniature, discrete soundtrack." It has since been included on their lists of the "100 Best Albums of the Eighties" and the "500 Greatest Albums of All Time". In 2009, Synchronicity was inducted into the Grammy Hall of Fame.

Simultaneously more pop-oriented and experimental than either Ghost in the Machine or Zenyatta Mondatta, Synchronicity made the Police superstars, generating no less than five hit singles. With the exception of "Synchronicity II," which sounds disarmingly like a crappy Billy Idol song, every one of those singles is a classic. "Every Breath You Take" has a seductive, rolling beat masking its maliciousness, "King of Pain" and "Wrapped Around Your Finger" are devilishly infectious new wave singles, and "Tea in the Sahara" is hypnotic in its measured, melancholy choruses. But, like so many other Police albums, these songs are surrounded by utterly inconsequential filler. This time, the group relies heavily on jazzy textures for Sting's songs, which only work on the jumping, marimba-driven "Synchronicity I." Then, as if to prove that the Police were still a band, there's one song apiece from Stewart Copeland and Andy Summers, both of which are awful, as if they're trying to sabotage the album. Since they arrive on the first side, which is devoid of singles, they do, making the album sound like two EPs: one filled with first-rate pop, and one an exercise in self-indulgence. While the hits are among Sting's best, they also illustrate that he was ready to leave the Police behind for a solo career, which is exactly what he did.

~ Stephen Thomas Erlewine, All Music
The Police - Synchronicity (1983) {1984, 2nd Japanese pressing, with 11 tracks}


***************

The Police - Synchronicity (1983) {1984, 2nd Japanese pressing, with 11 tracks}

The Police - Synchronicity (1983) {1984, 2nd Japanese pressing, with 11 tracks}

Track List:

01. Synchronicity I [3:24]
02. Walking In Your Footsteps [3:37]
03. O My God [4:02]
04. Mother [3:06]
05. Miss Gradenko [2:00]
06. Synchronicity II [5:02]
07. Every Breath You Take [4:15]
08. King Of Pain [4:59]
09. Wrapped Around Your Finger [5:14]
10. Tea In The Sahara [4:13]
11. Murder By Numbers [4:35]

Exact Audio Copy V1.0 beta 3 from 29. August 2011

EAC extraction logfile from 10. February 2014, 17:41

The Police / Synchronicity [A&M Records 38XB-2 (11 track)]

Used drive : HL-DT-STDVDRAM GSA-H10N Adapter: 0 ID: 0

Read mode : Secure
Utilize accurate stream : Yes
Defeat audio cache : Yes
Make use of C2 pointers : No

Read offset correction : 667
Overread into Lead-In and Lead-Out : No
Fill up missing offset samples with silence : Yes
Delete leading and trailing silent blocks : No
Null samples used in CRC calculations : Yes
Used interface : Native Win32 interface for Win NT & 2000
Gap handling : Appended to previous track

Used output format : User Defined Encoder
Selected bitrate : 128 kBit/s
Quality : High
Add ID3 tag : No
Command line compressor : D:\Program Files\FLAC\flac.exe
Additional command line options : -V -8 -T "ARTIST=%artist%" -T "TITLE=%title%" -T "ALBUM=%albumtitle%" -T "DATE=%year%" -T "TRACKNUMBER=%tracknr%" -T "GENRE=%genre%" %source%


TOC of the extracted CD

Track | Start | Length | Start sector | End sector
––––––––––––––––––––––––––––-
1 | 0:00.00 | 3:23.42 | 0 | 15266
2 | 3:23.42 | 3:36.53 | 15267 | 31519
3 | 7:00.20 | 4:02.25 | 31520 | 49694
4 | 11:02.45 | 3:05.45 | 49695 | 63614
5 | 14:08.15 | 1:59.72 | 63615 | 72611
6 | 16:08.12 | 5:02.68 | 72612 | 95329
7 | 21:11.05 | 4:14.52 | 95330 | 114431
8 | 25:25.57 | 4:59.00 | 114432 | 136856
9 | 30:24.57 | 5:13.68 | 136857 | 160399
10 | 35:38.50 | 4:20.20 | 160400 | 179919
11 | 39:58.70 | 4:35.10 | 179920 | 200554


Track 1

Filename D:\Download\Dekodovane audio\01 - Synchronicity I.wav

Pre-gap length 0:00:02.00

Peak level 83.9 %
Extraction speed 2.6 X
Track quality 100.0 %
Test CRC 3DE7F3B2
Copy CRC 3DE7F3B2
Accurately ripped (confidence 9) [C99BC983] (AR v2)
Copy OK

Track 2

Filename D:\Download\Dekodovane audio\02 - Walking In Your Footsteps.wav

Peak level 66.3 %
Extraction speed 2.8 X
Track quality 100.0 %
Test CRC C8C4D854
Copy CRC C8C4D854
Accurately ripped (confidence 9) [78E590E6] (AR v2)
Copy OK

Track 3

Filename D:\Download\Dekodovane audio\03 - O My God.wav

Peak level 77.4 %
Extraction speed 2.8 X
Track quality 99.9 %
Test CRC 4E97E615
Copy CRC 4E97E615
Accurately ripped (confidence 9) [B529B886] (AR v2)
Copy OK

Track 4

Filename D:\Download\Dekodovane audio\04 - Mother.wav

Peak level 49.2 %
Extraction speed 2.8 X
Track quality 99.9 %
Test CRC E3165EE3
Copy CRC E3165EE3
Accurately ripped (confidence 9) [A8FE1BD3] (AR v2)
Copy OK

Track 5

Filename D:\Download\Dekodovane audio\05 - Miss Gradenko.wav

Peak level 67.4 %
Extraction speed 3.0 X
Track quality 100.0 %
Test CRC 033F2EA0
Copy CRC 033F2EA0
Accurately ripped (confidence 9) [C812314D] (AR v2)
Copy OK

Track 6

Filename D:\Download\Dekodovane audio\06 - Synchronicity II.wav

Peak level 66.6 %
Extraction speed 3.6 X
Track quality 100.0 %
Test CRC 9E2047DF
Copy CRC 9E2047DF
Accurately ripped (confidence 9) [4B916D07] (AR v2)
Copy OK

Track 7

Filename D:\Download\Dekodovane audio\07 - Every Breath You Take.wav

Pre-gap length 0:00:01.10

Peak level 72.0 %
Extraction speed 3.9 X
Track quality 100.0 %
Test CRC D5664D4C
Copy CRC D5664D4C
Accurately ripped (confidence 9) [D529E3A0] (AR v2)
Copy OK

Track 8

Filename D:\Download\Dekodovane audio\08 - King Of Pain.wav

Peak level 68.5 %
Extraction speed 3.9 X
Track quality 100.0 %
Test CRC F6C408C4
Copy CRC F6C408C4
Accurately ripped (confidence 9) [88A19460] (AR v2)
Copy OK

Track 9

Filename D:\Download\Dekodovane audio\09 - Wrapped Around Your Finger.wav

Peak level 72.1 %
Extraction speed 3.8 X
Track quality 100.0 %
Test CRC E88BCA46
Copy CRC E88BCA46
Accurately ripped (confidence 9) [8B231927] (AR v2)
Copy OK

Track 10

Filename D:\Download\Dekodovane audio\10 - Tea In The Sahara.wav

Peak level 66.2 %
Extraction speed 3.1 X
Track quality 99.9 %
Test CRC 1003BEBC
Copy CRC 1003BEBC
Accurately ripped (confidence 9) [8DBC0DB3] (AR v2)
Copy OK

Track 11

Filename D:\Download\Dekodovane audio\11 - Murder By Numbers.wav

Pre-gap length 0:00:07.40

Peak level 86.6 %
Extraction speed 4.6 X
Track quality 100.0 %
Test CRC 7A8FC3B9
Copy CRC 7A8FC3B9
Accurately ripped (confidence 9) [CF20482D] (AR v2)
Copy OK


All tracks accurately ripped

No errors occurred

End of status report

–– CUETools DB Plugin V2.1.4

[CTDB TOCID: Vg6.urRrr52xKA7WPAW7Cg2VXDs-] found
Submit result: Vg6.urRrr52xKA7WPAW7Cg2VXDs- has been confirmed
Track | CTDB Status
1 | (21/21) Accurately ripped
2 | (21/21) Accurately ripped
3 | (21/21) Accurately ripped
4 | (21/21) Accurately ripped
5 | (21/21) Accurately ripped
6 | (21/21) Accurately ripped
7 | (21/21) Accurately ripped
8 | (21/21) Accurately ripped
9 | (21/21) Accurately ripped
10 | (20/21) Accurately ripped
11 | (20/21) Accurately ripped


==== Log checksum 9FDBB70344E152A80A0BFEFED675DE2003D9ABCA8C8236DD1DF338E19D2BC080 ====

[CUETools log; Date: 13.01.2017 14:01:49; Version: 2.1.5]
[CTDB TOCID: Vg6.urRrr52xKA7WPAW7Cg2VXDs-] found.
Track | CTDB Status
1 | (66/70) Accurately ripped
2 | (65/70) Accurately ripped
3 | (70/70) Accurately ripped
4 | (70/70) Accurately ripped
5 | (70/70) Accurately ripped
6 | (70/70) Accurately ripped
7 | (70/70) Accurately ripped
8 | (70/70) Accurately ripped
9 | (70/70) Accurately ripped
10 | (68/70) Accurately ripped
11 | (69/70) Accurately ripped
[AccurateRip ID: 001117cb-0096c919-780a720b] found.
Track [ CRC | V2 ] Status
01 [f30ab707|c99bc983] (022+022/111) Accurately ripped
02 [f635a18e|78e590e6] (021+022/110) Accurately ripped
03 [8e16ff65|b529b886] (022+021/110) Accurately ripped
04 [4be1de91|a8fe1bd3] (021+021/109) Accurately ripped
05 [b89cd622|c812314d] (022+021/110) Accurately ripped
06 [8807705a|4b916d07] (020+021/108) Accurately ripped
07 [49c7c4c2|d529e3a0] (022+021/110) Accurately ripped
08 [b08336dd|88a19460] (022+021/110) Accurately ripped
09 [07d3cab8|8b231927] (022+021/110) Accurately ripped
10 [6a6e30c9|8dbc0db3] (020+021/108) Accurately ripped
11 [7a1a9e02|cf20482d] (022+021/109) Accurately ripped
Offsetted by 530:
01 [9f15e9b6] (030/111) Accurately ripped
02 [e1e0d560] (030/110) Accurately ripped
03 [8cce11ff] (030/110) Accurately ripped
04 [34294d6b] (030/109) Accurately ripped
05 [9e2c9f9c] (030/110) Accurately ripped
06 [2c72de5e] (030/108) Accurately ripped
07 [359f04f2] (030/110) Accurately ripped
08 [49059c3f] (030/110) Accurately ripped
09 [41bd64e2] (030/110) Accurately ripped
10 [c6f70fc6] (030/108) Accurately ripped
11 [86d6cfac] (029/109) Accurately ripped

Track Peak [ CRC32 ] [W/O NULL] [ LOG ]
– 86,6 [472D392A] [A20B27C5]
01 83,9 [3DE7F3B2] [3CDCE587] CRC32
02 66,3 [C8C4D854] [9883EAC7] CRC32
03 77,4 [4E97E615] [ABC0879D] CRC32
04 49,2 [E3165EE3] [F6FF36F0] CRC32
05 67,4 [033F2EA0] [F985E60D] CRC32
06 66,6 [9E2047DF] [9F560111] CRC32
07 72,0 [D5664D4C] [0B0F2E77] CRC32
08 68,5 [F6C408C4] [3402387C] CRC32
09 72,1 [E88BCA46] [8E28EC3B] CRC32
10 66,2 [1003BEBC] [54E64C98] CRC32
11 86,6 [7A8FC3B9] [17EEC626] CRC32

The Police - Synchronicity (1983) {1984, 2nd Japanese pressing, with 11 tracks}


All thanks go to semtexxl

>>> The Police in my Blog <<<

DOWNLOAD: